osu file format v11

[General]
AudioFilename: Kokoronokara.mp3
AudioLeadIn: 2500
PreviewTime: 70446
Countdown: 0
SampleSet: Normal
StackLeniency: 0.5
Mode: 0
LetterboxInBreaks: 0

[Editor]
DistanceSpacing: 0.5
BeatDivisor: 8
GridSize: 4

[Metadata]
Title:Kokoro no Kara (TV Size)
TitleUnicode:ココロノカラ (TV Size)
Artist:Team.Nekokan[Neko] feat. Amaoto Junca
ArtistUnicode:Team.ねこかん[猫] feat. 天乙准花
Creator:jonathanlfj
Version:Insane
Source:Kokoro Connect
Tags:silver link nyanyannya ending chamelepeace710 nyquill moonlight xakyrie
BeatmapID:168836
BeatmapSetID:55699

[Difficulty]
HPDrainRate:7
CircleSize:4
OverallDifficulty:7
ApproachRate:8
SliderMultiplier:3.6
SliderTickRate:2

[Events]
//Background and Video events
Video,15964,"ED1.avi"
0,0,"bg.jpg"
//Break Periods
//Storyboard Layer 0 (Background)
//Storyboard Layer 1 (Fail)
//Storyboard Layer 2 (Pass)
//Storyboard Layer 3 (Foreground)
//Storyboard Sound Samples
//Background Colour Transformations
3,100,163,162,255

[TimingPoints]
938,689.655172413793,4,2,1,40,1,0
938,-125,4,2,1,40,0,0
9213,-125,4,2,1,60,0,0
11325,674.157303370787,4,2,1,5,1,0
11325,-125,4,2,1,5,0,0
13347,689.655172413793,4,2,1,50,1,0
13347,-125,4,2,1,50,0,0
13520,-125,4,2,1,75,0,0
13692,-125,4,2,1,15,0,0
15964,689.655172413793,4,2,1,70,1,0
15964,-100,4,1,1,70,0,0
34067,-100,4,2,1,50,0,0
34412,-100,4,1,1,70,0,0
35274,-100,4,2,1,50,0,0
36308,-125,4,2,1,50,0,0
36826,-100,4,2,1,75,0,0
38032,-125,4,2,1,75,0,0
47343,-125,4,2,1,50,0,0
47515,-125,4,2,1,75,0,0
52860,-125,4,2,1,50,0,0
53032,-125,4,2,1,75,0,0
68377,-125,4,2,1,60,0,0
68895,-125,4,2,1,65,0,0
69412,-125,4,2,1,70,0,0
69843,-125,4,1,1,20,0,0
69929,-125,4,1,1,25,0,0
70015,-125,4,1,1,30,0,0
70101,-125,4,1,1,35,0,0
70188,-125,4,1,1,40,0,0
70274,-125,4,1,1,45,0,0
70446,-100,4,2,1,75,0,0
71136,-100,4,1,1,70,0,1
91653,-100,4,2,1,75,0,1
92170,-100,4,1,1,70,0,1
100274,-100,4,2,1,75,0,1
100446,-100,4,1,1,70,0,1
101481,726.392251815981,4,2,1,75,1,0
101481,-100,4,2,1,75,0,0
101662,-100,4,2,2,5,0,0
102025,-100,4,2,1,75,0,0
102570,-100,4,2,1,5,0,0

[Colours]
Combo1 : 247,102,40
Combo2 : 213,113,255
Combo3 : 240,255,62

[HitObjects]
108,176,938,37,2,0:0:0
152,120,1110,1,0,0:0:0
208,164,1282,1,0,0:0:0
164,220,1455,2,0,B|208:252|268:228|280:172,2,144,0|2|0,0:0|0:0|0:0,0:0:0
256,108,2317,5,2,0:0:0
344,144,2489,1,0,0:0:0
408,76,2662,1,0,0:0:0
344,144,2834,2,0,B|392:176|444:160|444:160|464:196,2,144,0|2|0,0:0|0:0|0:0,0:0:0
240,36,3696,5,2,0:0:0
164,120,3869,1,0,0:0:0
240,204,4041,1,0,0:0:0
164,288,4213,2,0,B|228:332|308:296,2,144,0|2|0,0:0|0:0|0:0,0:0:0
80,180,5075,5,2,0:0:0
84,316,5248,1,0,0:0:0
164,204,5420,1,0,0:0:0
32,248,5593,1,2,0:0:0
32,248,6455,5,2,0:0:0
104,248,6627,1,0,0:0:0
164,288,6800,1,0,0:0:0
236,288,6972,2,0,B|296:288|296:288|316:308|316:308|376:308,2,144,0|2|0,0:0|0:0|0:0,0:0:0
208,116,7834,5,2,0:0:0
256,36,8006,1,0,0:0:0
304,116,8179,1,0,0:0:0
256,196,8351,2,0,B|212:220|156:208|128:164,1,144,0|2,0:0|0:0,0:0:0
256,36,8869,1,2,0:0:0
383,165,9041,1,2,0:0:0
256,296,9213,5,2,0:0:0
256,312,9558,1,0,0:0:0
256,328,9903,1,2,0:0:0
256,344,10248,1,0,0:0:0
256,192,11325,12,0,13010,0:0:0
116,192,13347,5,4,0:0:0
116,192,13519,2,0,B|208:192|208:192|232:116|232:116|280:268|280:268|304:192|304:192|396:192,1,504,8|0,0:0|0:0,0:0:0
397,192,15964,5,4,0:0:0
460,60,16308,1,0,0:0:0
324,108,16653,2,0,B|220:128|160:40,1,180,8|0,0:0|0:0,0:0:0
24,124,17170,2,0,B|128:104|188:192,1,180,0|0,0:0|0:0,0:0:0
60,284,17688,2,0,B|16:252|16:208,2,90,0|0|8,0:0|0:0|0:0,0:0:0
168,348,18205,1,0,0:0:0
168,220,18377,1,0,0:0:0
60,284,18550,1,0,0:0:0
204,284,18722,6,0,B|264:284|264:284|276:244|316:220|360:228,2,180,0|0|8,0:0|0:0|0:0,0:0:0
192,148,19757,1,0,0:0:0
192,148,19929,2,0,B|132:148|132:148|120:108|80:84|36:92,1,180
60,164,20446,1,0,0:0:0
176,76,20619,1,0,0:0:0
244,204,20791,2,0,B|204:232|156:216,1,90,8|0,0:0|0:0,0:0:0
300,148,21136,2,0,B|344:168|359:210,1,90,0|0,0:0|0:0,0:0:0
248,96,21481,5,4,0:0:0
368,16,21826,1,0,0:0:0
476,108,22170,2,0,B|500:212|428:276,1,180,8|0,0:0|0:0,0:0:0
296,328,22688,2,0,B|272:224|344:160,1,180,0|0,0:0|0:0,0:0:0
408,136,23205,2,0,B|420:184|384:220,2,90,0|0|8,0:0|0:0|0:0,0:0:0
316,25,23722,1,0,0:0:0
331,107,23895,1,0,0:0:0
397,53,24067,1,0,0:0:0
252,80,24239,6,0,B|188:100|168:164|168:164|112:164,2,180,0|0|8,0:0|0:0|0:0,0:0:0
312,216,25274,1,0,0:0:0
312,216,25446,2,0,B|376:196|396:132|396:132|452:132,1,180
440,204,25964,1,0,0:0:0
300,120,26136,1,0,0:0:0
180,228,26308,2,0,B|224:320,1,90,8|0,0:0|0:0,0:0:0
116,184,26653,2,0,B|76:96,1,90
108,260,26998,5,4,0:0:0
240,352,27343,1,0,0:0:0
320,348,27515,1,0,0:0:0
320,348,27601,1,0,0:0:0
320,348,27688,2,0,B|424:328|436:212,1,180,8|0,0:0|0:0,0:0:0
320,112,28205,2,0,B|388:36|492:64,2,180
277,220,29067,1,8,0:0:0
375,160,29239,1,0,0:0:0
260,152,29412,1,0,0:0:0
347,225,29584,1,0,0:0:0
260,152,29757,6,0,B|196:148|148:88|160:24,1,180,0|0,0:0|0:0,0:0:0
260,48,30274,1,0,0:0:0
260,48,30446,2,0,B|116:164,1,180,8|0,0:0|0:0,0:0:0
64,204,30964,2,0,B|36:160|64:116,2,90
132,232,31481,2,0,B|160:276|132:320,1,90
76,276,31826,1,8,0:0:0
120,160,31998,1,0,0:0:0
8,252,32170,1,0,0:0:0
188,188,32343,1,0,0:0:0
176,116,32515,5,4,0:0:0
312,28,32860,1,0,0:0:0
380,72,33032,1,0,0:0:0
380,72,33119,1,0,0:0:0
380,72,33205,2,0,B|440:116|440:116|432:156|432:156|488:192,1,180,8|0,0:0|0:0,0:0:0
400,240,33722,2,0,B|340:196|340:196|348:156|348:156|292:120,2,180,0|4|0,0:0|0:0|0:0,0:0:0
464,276,34584,2,0,B|484:228|452:188,1,90,8|0,0:0|0:0,0:0:0
400,312,34929,2,0,B|428:356|484:348,1,90,0|0,0:0|0:0,0:0:0
400,240,35274,6,0,B|348:244|332:290|332:290|308:246|256:256,1,180,4|0,0:0|0:0,0:0:0
256,255,35791,1,2,0:0:0
256,52,36308,2,0,B|244:88|256:124|256:124|268:160|256:196,1,144,2|0,0:0|0:0,0:0:0
156,164,36826,6,0,B|132:208|148:252,1,90,8|0,0:0|0:0,0:0:0
356,224,37170,1,8,0:0:0
184,316,37343,1,8,0:0:0
328,124,37515,1,8,0:0:0
256,220,37688,1,8,0:0:0
256,220,38032,6,0,B|256:308,2,72,12|0|0,0:0|0:0|0:0,0:0:0
256,148,38550,1,0,0:0:0
256,148,38722,2,0,B|208:152|192:192|192:192|132:164,1,144,2|0,0:0|0:0,0:0:0
48,96,39239,2,0,B|96:92|112:52|112:52|172:80,1,144,2|0,0:0|0:0,0:0:0
220,28,39757,2,0,B|300:28,1,72,2|0,0:0|0:0,0:0:0
344,80,40101,1,2,0:0:0
256,192,40446,1,8,0:0:0
256,192,40619,1,8,0:0:0
256,192,40791,6,0,B|308:248|388:232,1,144,2|0,0:0|0:0,0:0:0
256,80,41308,2,0,B|204:136|124:120,1,144,2|0,0:0|0:0,0:0:0
124,264,41826,2,0,B|204:248|256:304,1,144,2|0,0:0|0:0,0:0:0
288,336,42343,1,0,0:0:0
328,352,42515,1,2,0:0:0
372,360,42688,2,0,B|424:360|424:360|456:336|456:336|508:336,2,144,2|2|2,0:0|0:0|0:0,0:0:0
372,252,43550,5,8,0:0:0
372,252,43895,2,0,B|288:252,1,72
416,180,44239,2,0,B|492:180,2,72,2|0|0,0:0|0:0|0:0,0:0:0
336,180,44757,2,0,B|336:128|380:92|436:100,1,144,2|0,0:0|0:0,0:0:0
476,100,45274,1,2,0:0:0
292,32,45619,2,0,B|372:32,2,72,2|0|8,0:0|0:0|0:0,0:0:0
248,32,46136,1,0,0:0:0
204,32,46308,6,0,B|140:80|168:164,1,144,8|0,0:0|0:0,0:0:0
122,247,46826,2,0,B|195:279|252:216,1,144,2|0,0:0|0:0,0:0:0
352,212,47343,2,0,B|342:132|255:114,1,144,4|0,0:0|0:0,0:0:0
259,115,47860,1,0,0:0:0
160,160,48032,1,2,0:0:0
248,224,48205,1,0,0:0:0
204,124,48377,1,2,0:0:0
164,24,48550,2,0,B|80:24|44:96,1,144,2|0,0:0|0:0,0:0:0
80,224,49067,6,0,B|112:300|192:308,1,144,8|0,0:0|0:0,0:0:0
260,296,49584,1,0,0:0:0
260,296,49757,2,0,B|300:296|324:324,2,72,2|0|0,0:0|0:0|0:0,0:0:0
260,224,50274,2,0,B|340:228|388:288,1,144,2|0,0:0|0:0,0:0:0
404,356,50791,1,0,0:0:0
456,304,50964,1,2,0:0:0
480,164,51308,2,0,B|480:92,2,72
480,236,51826,5,8,0:0:0
480,236,52170,2,0,B|408:208,1,72
312,172,52515,1,2,0:0:0
396,104,52688,1,0,0:0:0
296,64,52860,2,0,B|212:56|164:112,1,144,4|0,0:0|0:0,0:0:0
144,180,53377,1,0,0:0:0
144,180,53550,2,0,B|64:156,2,72,2|0|2,0:0|0:0|0:0,0:0:0
184,192,54067,1,0,0:0:0
224,204,54239,1,0,0:0:0
364,164,54584,6,0,B|364:88,2,72,8|0|2,0:0|0:0|0:0,0:0:0
364,208,55101,1,0,0:0:0
364,252,55274,2,0,B|312:304|312:304|236:304,1,144,2|0,0:0|0:0,0:0:0
96,304,55964,1,2,0:0:0
168,180,56136,1,0,0:0:0
241,304,56308,1,0,0:0:0
96,224,56481,2,0,B|76:188|88:152,2,72,2|0|0,0:0|0:0|0:0,0:0:0
168,348,56998,1,8,0:0:0
240,224,57170,1,0,0:0:0
240,224,57343,6,0,B|288:160|368:176,1,144,8|0,0:0|0:0,0:0:0
460,120,57860,2,0,B|491:193|437:254,1,144,8|0,0:0|0:0,0:0:0
436,364,58377,2,0,B|356:354|330:277,1,144,8|0,0:0|0:0,0:0:0
320,208,58895,1,0,0:0:0
348,144,59067,1,2,0:0:0
348,144,59412,2,0,B|318:94|257:101|257:101|196:108|163:57,1,216,2|0,0:0|0:0,0:0:0
236,28,60101,5,8,0:0:0
276,176,60446,2,0,B|244:240,2,72,0|0|2,0:0|0:0|0:0,0:0:0
144,228,60964,2,0,B|180:156,2,72
108,292,61481,2,0,B|76:272|72:232,1,72,2|0,0:0|0:0,0:0:0
180,292,61826,1,0,0:0:0
404,92,62170,2,0,B|436:112|440:152,1,72,2|0,0:0|0:0,0:0:0
332,92,62515,1,0,0:0:0
260,168,62688,1,0,0:0:0
256,180,62774,1,0,0:0:0
256,192,62860,6,0,B|268:272|360:288,1,144,4|0,0:0|0:0,0:0:0
256,192,63377,2,0,B|180:162|120:234,1,144,4|0,0:0|0:0,0:0:0
256,192,63895,2,0,B|319:141|287:53,1,144,4|0,0:0|0:0,0:0:0
200,112,64412,1,2,0:0:0
124,48,64584,1,0,0:0:0
32,88,64757,1,2,0:0:0
32,88,64929,2,0,B|32:168,2,72,0|0|0,0:0|0:0|0:0,0:0:0
32,232,65619,6,0,B|88:232|88:232|96:268|96:268|148:268,1,144,10|0,0:0|0:0,0:0:0
220,268,66136,1,0,0:0:0
292,268,66308,2,0,B|384:268,1,72,2|0,0:0|0:0,0:0:0
220,340,66653,2,0,B|144:340,1,72,8|0,0:0|0:0,0:0:0
292,340,66998,6,0,B|380:340,2,72,10|0|0,0:0|0:0|0:0,0:0:0
220,268,67515,1,0,0:0:0
292,196,67688,1,2,0:0:0
256,88,67860,1,0,0:0:0
220,196,68032,1,0,0:0:0
316,128,68205,1,0,0:0:0
196,128,68377,6,0,B|124:128|124:128|124:56,1,144,4|0,0:0|0:0,0:0:0
316,128,68895,2,0,B|388:128|388:128|388:56,1,144,4|0,0:0|0:0,0:0:0
256,56,69412,2,0,B|256:200,1,144,4|8,0:0|0:0,0:0:0
256,216,69843,1,8,0:0:0
256,232,69929,1,8,0:0:0
256,248,70015,1,8,0:0:0
256,264,70101,1,8,0:0:0
256,280,70188,1,8,0:0:0
256,296,70274,1,8,0:0:0
180,340,70446,5,6,0:0:0
332,248,70619,1,0,0:0:0
180,248,70791,1,2,0:0:0
332,340,70964,1,0,0:0:0
180,340,71136,6,0,B|112:332|88:268|88:268|32:268,1,180,4|0,0:0|0:0,0:0:0
44,356,71653,1,0,0:0:0
180,248,71826,2,0,B|224:224|224:176,1,90,8|0,0:0|0:0,0:0:0
180,8,72170,1,0,0:0:0
144,92,72343,2,0,B|212:104|256:56|256:56|316:56,1,180
404,56,72860,5,0,0:0:0
496,56,73032,1,0,0:0:0
404,56,73205,2,0,B|404:144,2,90,8|0|0,0:0|0:0|0:0,0:0:0
312,148,73722,1,0,0:0:0
312,192,73808,1,0,0:0:0
312,236,73895,5,0,0:0:0
224,236,74067,1,0,0:0:0
400,236,74239,1,0,0:0:0
400,236,74412,2,0,B|396:288|344:316,2,90,0|8|0,0:0|0:0|0:0,0:0:0
312,148,74929,1,0,0:0:0
312,148,75101,2,0,B|268:108|192:104|140:144,1,180
140,264,75619,6,0,B|192:264|232:228,1,90
40,200,75964,1,8,0:0:0
36,312,76136,1,0,0:0:0
40,200,76308,1,0,0:0:0
44,88,76481,1,0,0:0:0
44,88,76567,1,0,0:0:0
44,88,76653,6,0,B|116:24|224:60,1,180,4|0,0:0|0:0,0:0:0
284,112,77170,1,0,0:0:0
284,112,77343,2,0,B|364:180,2,90,8|0|0,0:0|0:0|0:0,0:0:0
292,244,77860,2,0,B|352:284|412:244|412:244|412:300,1,180
340,348,78377,5,0,0:0:0
488,248,78550,1,0,0:0:0
488,68,78722,1,8,0:0:0
412,116,78895,2,0,B|440:160|496:156,2,90
396,72,79326,1,0,0:0:0
384,28,79412,6,0,B|356:64|304:72,1,90,0|0,0:0|0:0,0:0:0
220,52,79757,1,0,0:0:0
220,52,79929,2,0,B|208:104|252:144,1,90,0|8,0:0|0:0,0:0:0
292,332,80274,2,0,B|304:280|260:240,1,90,0|0,0:0|0:0,0:0:0
188,208,80619,2,0,B|120:208|120:208|92:184|92:184|16:184,2,180
324,208,81481,5,8,0:0:0
216,128,81653,1,0,0:0:0
256,256,81826,1,0,0:0:0
296,128,81998,1,0,0:0:0
296,128,82084,1,0,0:0:0
296,128,82170,6,0,B|288:60|216:48|216:48|144:48,1,180,4|0,0:0|0:0,0:0:0
68,48,82688,1,0,0:0:0
68,48,82860,2,0,B|72:112|140:136|140:136|124:204,1,180,8|0,0:0|0:0,0:0:0
108,284,83377,1,0,0:0:0
196,256,83550,5,0,0:0:0
40,224,83722,1,0,0:0:0
180,344,83895,2,0,B|236:348|268:308,1,90
196,256,84239,2,0,B|232:216|288:228|288:228|320:152,1,180,8|0,0:0|0:0,0:0:0
348,68,84757,1,0,0:0:0
348,68,84843,1,0,0:0:0
348,68,84929,6,0,B|248:36|168:124,1,180,0|0,0:0|0:0,0:0:0
164,316,85446,2,0,B|264:348|344:260,1,180,0|0,0:0|0:0,0:0:0
384,176,85964,1,0,0:0:0
384,176,86136,2,0,B|480:176,2,90
292,176,86653,5,0,0:0:0
292,176,86998,2,0,B|292:128|292:128|280:92|280:92|280:44,2,135,8|0|0,0:0|0:0|0:0,0:0:0
292,220,87601,1,0,0:0:0
292,264,87688,6,0,B|292:352,1,90,4|0,0:0|0:0,0:0:0
204,236,88032,2,0,B|204:140,2,90,0|0|8,0:0|0:0|0:0,0:0:0
52,332,88722,1,0,0:0:0
80,200,88895,1,0,0:0:0
100,188,88981,1,0,0:0:0
120,176,89067,6,0,B|150:138|143:90,1,90
63,18,89412,2,0,B|32:55|39:103,2,90,0|0|8,0:0|0:0|0:0,0:0:0
320,100,90101,1,0,0:0:0
440,160,90274,1,0,0:0:0
440,160,90360,1,0,0:0:0
440,160,90446,6,0,B|400:228|316:232,1,135,0|0,0:0|0:0,0:0:0
284,228,90791,1,0,0:0:0
228,156,90964,1,0,0:0:0
248,272,91136,1,8,0:0:0
264,112,91308,1,0,0:0:0
192,284,91481,1,0,0:0:0
320,100,91653,1,4,0:0:0
104,260,92170,6,0,B|136:188|220:192,1,135
256,192,92515,1,8,0:0:0
400,192,92688,1,0,0:0:0
328,240,92860,1,0,0:0:0
472,144,93032,1,0,0:0:0
472,168,93119,1,0,0:0:0
472,192,93205,6,0,B|464:256|400:264|400:264|400:336,1,180,4|0,0:0|0:0,0:0:0
308,336,93722,1,0,0:0:0
216,336,93895,2,0,B|216:266|216:266|152:258|144:194,1,180,8|0,0:0|0:0,0:0:0
144,104,94412,2,0,B|220:104|220:104|240:124|240:124|316:124,1,180
408,124,94929,6,0,B|504:124,2,90,0|0|8,0:0|0:0|0:0,0:0:0
408,32,95446,1,0,0:0:0
315,124,95619,1,0,0:0:0
408,216,95791,1,0,0:0:0
408,216,95877,1,0,0:0:0
408,216,95964,6,0,B|360:300|256:292,1,180,0|0,0:0|0:0,0:0:0
256,192,96481,1,0,0:0:0
159,311,96653,2,0,B|110:228|169:142,1,180,8|0,0:0|0:0,0:0:0
256,192,97170,1,0,0:0:0
200,48,97343,2,0,B|297:47|342:142,1,180,0|0,0:0|0:0,0:0:0
116,136,98032,5,8,0:0:0
84,220,98205,1,0,0:0:0
168,252,98377,1,0,0:0:0
200,168,98550,1,0,0:0:0
200,168,98636,1,0,0:0:0
200,168,98722,6,0,B|264:200|272:280|220:324,1,180,4|0,0:0|0:0,0:0:0
84,220,99239,1,0,0:0:0
84,220,99412,2,0,B|20:188|12:108|64:64,1,180,8|0,0:0|0:0,0:0:0
116,136,99929,2,0,B|176:60,1,90
168,252,100274,5,4,0:0:0
168,252,100446,2,0,B|112:320,1,90
248,136,100791,2,0,B|308:60,1,90,8|0,0:0|0:0,0:0:0
300,252,101136,2,0,B|244:320,1,90
387,282,101481,6,0,B|406:207|477:192|477:192|406:176|387:101,1,270,6|2,0:0|0:0,0:0:0
256,192,102570,12,0,105112,0:0:0
