osu file format v11

[General]
AudioFilename: Kokoronokara.mp3
AudioLeadIn: 2500
PreviewTime: 70446
Countdown: 0
SampleSet: Normal
StackLeniency: 0.5
Mode: 0
LetterboxInBreaks: 0

[Editor]
Bookmarks: 38098,70278
DistanceSpacing: 1
BeatDivisor: 4
GridSize: 4

[Metadata]
Title:Kokoro no Kara (TV Size)
TitleUnicode:ココロノカラ (TV Size)
Artist:Team.Nekokan[Neko] feat. Amaoto Junca
ArtistUnicode:Team.ねこかん[猫] feat. 天乙准花
Creator:jonathanlfj
Version:710sane
Source:Kokoro Connect
Tags:silver link nyanyannya ending chamelepeace710 nyquill moonlight xakyrie
BeatmapID:168989
BeatmapSetID:55699

[Difficulty]
HPDrainRate:7
CircleSize:4
OverallDifficulty:8
ApproachRate:8
SliderMultiplier:1.8
SliderTickRate:1

[Events]
//Background and Video events
Video,15964,"ED1.avi"
0,0,"bg.jpg"
//Break Periods
//Storyboard Layer 0 (Background)
//Storyboard Layer 1 (Fail)
//Storyboard Layer 2 (Pass)
//Storyboard Layer 3 (Foreground)
//Storyboard Sound Samples
//Background Colour Transformations
3,100,163,162,255

[TimingPoints]
938,689.655172413793,4,2,1,50,1,0
938,-62.5,4,2,1,25,0,0
6110,-62.5,4,2,1,35,0,0
9213,-62.5,4,2,1,45,0,0
11196,-62.5,4,2,1,5,0,0
11325,674.157303370787,4,2,1,5,1,0
11999,-62.5,4,2,1,20,0,0
12336,-62.5,4,2,1,30,0,0
12673,-62.5,4,2,1,40,0,0
13010,-62.5,4,2,1,50,0,0
13347,689.655172413793,4,2,1,60,1,0
13347,-62.5,4,2,1,60,0,0
13692,-62.5,4,2,1,70,0,0
14726,-62.5,4,2,1,5,0,0
15964,689.655172413793,4,1,1,70,1,0
15964,-50,4,1,1,70,0,0
35274,-71.4285714285714,4,2,1,50,0,0
36136,-71.4285714285714,4,2,1,15,0,0
36222,-71.4285714285714,4,2,1,50,0,0
38291,-71.4285714285714,4,2,1,70,0,0
47257,-71.4285714285714,4,2,1,50,0,0
47429,-71.4285714285714,4,2,1,70,0,0
57257,-50,4,2,1,70,0,0
58377,-100,4,2,1,70,0,0
59239,-71.4285714285714,4,2,1,70,0,0
65619,-71.4285714285714,4,1,1,50,0,0
70274,-50,4,2,1,70,0,0
71136,-50,4,1,1,70,0,1
101481,726.392251815981,4,2,1,10,1,0
102479,-119.047619047619,4,2,1,10,0,0
102752,-119.047619047619,4,2,1,5,0,0

[Colours]
Combo1 : 247,102,40
Combo2 : 213,113,255
Combo3 : 240,255,62

[HitObjects]
44,84,938,21,0,0:0:0
48,156,1110,1,2,0:0:0
92,212,1282,1,0,0:0:0
160,240,1455,1,2,0:0:0
280,180,1800,2,0,B|336:116|296:48,1,144,2|0,0:0|0:0,0:0:0
432,76,2317,6,0,B|368:28|296:48,1,144,2|0,0:0|0:0,0:0:0
232,80,2834,1,2,0:0:0
232,80,3179,2,0,B|240:152|312:192,1,144,2|0,0:0|0:0,0:0:0
384,216,3696,5,2,0:0:0
424,280,3869,1,0,0:0:0
392,344,4041,1,0,0:0:0
320,352,4213,1,2,0:0:0
320,352,4558,2,0,B|264:352|240:296|256:248,1,144,2|0,0:0|0:0,0:0:0
256,32,5075,5,2,0:0:0
256,104,5248,1,0,0:0:0
256,176,5420,1,0,0:0:0
256,248,5593,1,2,0:0:0
80,348,6455,5,0,0:0:0
48,276,6627,1,2,0:0:0
80,200,6800,1,0,0:0:0
152,172,6972,2,0,B|220:132|288:172,1,144,2|0,0:0|0:0,0:0:0
240,236,7489,2,0,B|308:276|376:236,1,144,2|2,0:0|0:0,0:0:0
452,256,8006,5,0,0:0:0
432,332,8179,1,0,0:0:0
356,316,8351,2,0,B|324:236|372:180,1,144,2|0,0:0|0:0,0:0:0
428,124,8869,2,0,B|360:96,1,72,2|0,0:0|0:0,0:0:0
256,64,9213,5,2,0:0:0
128,192,9558,1,0,0:0:0
256,320,9903,1,0,0:0:0
384,192,10248,1,2,0:0:0
256,192,11325,1,2,0:0:0
256,192,11999,12,0,14726,0:0:0
148,32,15964,6,0,B|132:124|132:124|44:112,1,180,4|0,0:0|0:0,0:0:0
148,352,16653,2,0,B|132:260|132:260|44:272,1,180,8|0,0:0|0:0,0:0:0
4,192,17170,2,0,B|192:192,1,180
264,236,17688,1,0,0:0:0
328,176,17860,1,0,0:0:0
288,100,18032,2,0,B|244:20|244:20|156:48,1,180
92,108,18550,1,0,0:0:0
56,192,18722,6,0,B|64:296|144:340,1,180
236,340,19239,1,0,0:0:0
324,316,19412,1,8,0:0:0
260,252,19584,1,0,0:0:0
172,272,19757,1,0,0:0:0
204,188,19929,1,2,0:0:0
380,152,20274,1,0,0:0:0
396,72,20446,2,0,B|475:102|475:102|451:194,2,180,0|8|0,0:0|0:0|0:0,0:0:0
304,68,21308,1,8,0:0:0
256,136,21481,6,0,B|184:192|184:192|88:168,2,180,4|0|8,0:0|0:0|0:0,0:0:0
76,92,22343,2,0,B|180:116,1,90,0|8,0:0|0:0,0:0:0
72,240,22688,2,0,B|176:264|176:264|184:352,1,180,10|0,0:0|0:0,0:0:0
328,344,23205,2,0,B|336:256,1,90
328,44,23550,1,8,0:0:0
336,128,23722,1,0,0:0:0
424,124,23895,1,0,0:0:0
416,40,24067,1,0,0:0:0
112,48,24239,6,0,B|64:128,1,90,2|0,0:0|0:0,0:0:0
200,120,24584,2,0,B|176:212,1,90
312,264,24929,2,0,B|336:172,1,90,10|0,0:0|0:0,0:0:0
400,336,25274,2,0,B|448:256,1,90,0|10,0:0|0:0,0:0:0
312,96,25791,6,0,B|344:48|400:64,1,90
388,152,26136,1,0,0:0:0
388,152,26308,2,0,B|364:240|260:288,1,180,8|8,0:0|0:0,0:0:0
152,64,26826,5,0,0:0:0
152,64,26912,1,0,0:0:0
152,64,26998,2,0,B|112:144|112:144|152:224,1,180,4|0,0:0|0:0,0:0:0
40,168,27515,2,0,B|88:264,1,90,0|8,0:0|0:0,0:0:0
240,224,27860,2,0,B|192:128,1,90,0|8,0:0|0:0,0:0:0
280,296,28205,6,0,B|464:296,1,180,2|0,0:0|0:0,0:0:0
428,212,28722,1,0,0:0:0
336,212,28895,1,0,0:0:0
384,136,29067,2,0,B|474:136,2,90,8|0|8,0:0|0:0|0:0,0:0:0
292,136,29584,1,2,0:0:0
208,136,29757,6,0,B|224:232|224:232|136:288,1,180
136,192,30274,1,0,0:0:0
132,104,30446,2,0,P|164:64|212:56,1,90,8|0,0:0|0:0,0:0:0
380,104,30791,2,0,P|348:64|300:56,1,90,0|10,0:0|0:0,0:0:0
256,144,31136,5,0,0:0:0
256,232,31308,1,0,0:0:0
176,264,31481,2,0,B|160:312|116:328,1,90
336,264,31826,2,0,B|352:312|396:328,1,90,10|0,0:0|0:0,0:0:0
256,232,32170,1,0,0:0:0
256,144,32343,1,8,0:0:0
256,232,32515,6,0,B|336:264|336:264|336:368,1,180,4|0,0:0|0:0,0:0:0
256,320,33032,1,0,0:0:0
256,232,33205,2,0,B|176:264|176:264|176:368,1,180,8|0,0:0|0:0,0:0:0
104,304,33722,2,0,B|104:120,1,180,2|4,0:0|0:0,0:0:0
176,64,34239,1,0,0:0:0
256,24,34412,1,0,0:0:0
336,64,34584,1,10,0:0:0
256,224,34929,1,2,0:0:0
256,136,35101,1,8,0:0:0
336,176,35274,6,0,B|456:224,1,125.999996154785,2|0,0:0|0:0,0:0:0
176,176,35791,2,0,B|56:224,1,125.999996154785,2|0,0:0|0:0,0:0:0
256,192,36308,12,8,38032,0:0:0
352,96,38377,5,0,0:0:0
352,96,38550,1,0,0:0:0
352,96,38722,2,0,B|399:150|399:150|387:228,1,125.999996154785,2|0,0:0|0:0,0:0:0
391,203,39239,1,2,0:0:0
136,224,39757,1,0,0:0:0
136,224,40101,2,0,B|88:169|88:169|100:91,1,125.999996154785,2|8,0:0|0:0,0:0:0
96,116,40619,1,8,0:0:0
128,56,40791,6,0,B|196:52|232:116,1,125.999996154785,2|0,0:0|0:0,0:0:0
224,160,41308,2,0,B|248:224|312:244,1,125.999996154785,2|0,0:0|0:0,0:0:0
332,204,41826,2,0,B|460:204,1,125.999996154785,2|0,0:0|0:0,0:0:0
364,340,42515,5,0,0:0:0
320,328,42688,1,2,0:0:0
296,292,42860,1,0,0:0:0
256,272,43032,1,2,0:0:0
216,292,43205,1,0,0:0:0
192,328,43377,1,2,0:0:0
148,340,43550,1,8,0:0:0
188,220,43895,5,0,0:0:0
152,168,44067,1,0,0:0:0
144,104,44239,1,2,0:0:0
152,40,44412,1,0,0:0:0
152,40,44757,2,0,B|40:64|32:176,1,188.999994232178,0|2,0:0|0:0,0:0:0
128,320,45619,1,2,0:0:0
176,280,45791,1,0,0:0:0
236,296,45964,1,8,0:0:0
376,264,46308,6,0,B|320:184|320:184|344:96,1,188.999994232178,8|2,0:0|0:0,0:0:0
408,136,46998,1,2,0:0:0
428,208,47170,1,0,0:0:0
480,156,47343,1,4,0:0:0
256,336,48032,5,2,0:0:0
328,280,48205,1,0,0:0:0
256,228,48377,1,2,0:0:0
184,280,48550,1,8,0:0:0
136,104,49067,5,4,0:0:0
296,32,49412,2,0,B|368:48|368:48|368:104,1,125.999996154785,0|2,0:0|0:0,0:0:0
280,112,49929,1,2,0:0:0
128,200,50274,2,0,B|152:288|256:336,1,188.999994232178,2|0,0:0|0:0,0:0:0
416,280,51136,1,2,0:0:0
428,104,51481,1,8,0:0:0
388,24,51653,1,0,0:0:0
308,60,51826,1,8,0:0:0
84,104,52170,5,2,0:0:0
124,24,52343,1,0,0:0:0
204,60,52515,1,2,0:0:0
164,140,52688,1,0,0:0:0
192,232,52860,2,0,B|164:304|256:360|348:304|320:232,1,251.999992309571,2|2,0:0|0:0,0:0:0
256,72,53895,1,0,0:0:0
256,72,54067,1,8,0:0:0
256,72,54239,1,0,0:0:0
120,352,54584,6,0,B|56:328|56:328|40:264,1,125.999996154785,8|2,0:0|0:0,0:0:0
132,264,55101,1,0,0:0:0
168,184,55274,1,2,0:0:0
256,192,55446,1,0,0:0:0
256,192,55619,1,0,0:0:0
392,32,55964,6,0,B|456:56|456:56|472:120,1,125.999996154785,2|2,0:0|0:0,0:0:0
380,120,56481,1,0,0:0:0
344,200,56653,1,0,0:0:0
256,192,56826,1,0,0:0:0
256,192,56998,1,10,0:0:0
256,192,57170,1,2,0:0:0
176,96,57343,6,0,B|104:160|96:256,1,180,12|0,0:0|0:0,0:0:0
379,170,57860,2,0,B|359:76|280:21,1,180,12|0,0:0|0:0,0:0:0
212,309,58377,6,0,B|304:339|391:298,1,180,12|0,0:0|0:0,0:0:0
256,192,59412,2,0,B|288:104|288:104|376:144,1,188.999994232178,10|0,0:0|0:0,0:0:0
332,220,60101,1,8,0:0:0
324,308,60274,1,0,0:0:0
404,276,60446,1,8,0:0:0
188,58,60791,6,0,B|168:128|97:148,1,125.999996154785,2|8,0:0|0:0,0:0:0
256,104,61481,2,0,B|256:232,1,125.999996154785,8|0,0:0|0:0,0:0:0
324,58,62170,2,0,B|344:128|415:148,1,125.999996154785,2|8,0:0|0:0,0:0:0
440,224,62860,5,4,0:0:0
208,344,63205,1,0,0:0:0
208,344,63377,1,4,0:0:0
88,104,63722,1,0,0:0:0
88,104,63895,1,4,0:0:0
168,64,64067,2,0,B|176:128|136:184,1,125.999996154785,0|2,0:0|0:0,0:0:0
344,320,64584,2,0,B|336:256|376:200,1,125.999996154785,0|2,0:0|0:0,0:0:0
416,120,65101,2,0,B|344:128,1,62.9999980773926,0|2,0:0|0:0,0:0:0
280,176,65446,1,0,0:0:0
112,344,65619,6,0,B|160:304|120:192|40:224,1,188.999994232178,4|0,0:0|0:0,0:0:0
32,144,66308,1,8,0:0:0
144,168,66481,1,0,0:0:0
208,256,66653,1,0,0:0:0
256,48,66998,6,0,B|304:88|304:88|368:96,1,125.999996154785,2|0,0:0|0:0,0:0:0
336,192,67515,1,0,0:0:0
368,288,67688,2,0,B|304:296|304:296|256:336,1,125.999996154785,8|2,0:0|0:0,0:0:0
256,192,68377,12,2,70101,0:0:0
444,188,70446,5,2,0:0:0
408,104,70619,1,2,0:0:0
324,68,70791,1,0,0:0:0
236,92,70964,1,2,0:0:0
176,160,71136,6,0,B|152:248|152:248|64:232,1,180,4|0,0:0|0:0,0:0:0
256,320,71826,1,10,0:0:0
256,320,72170,2,0,B|296:280|344:304,1,90
256,192,72515,1,2,0:0:0
256,64,72688,2,0,B|216:104|168:80,1,90,0|0,0:0|0:0,0:0:0
256,192,73032,1,0,0:0:0
256,192,73119,1,0,0:0:0
256,192,73205,1,10,0:0:0
392,32,73550,6,0,B|488:64,1,90
408,120,73895,1,2,0:0:0
432,208,74067,1,0,0:0:0
456,296,74239,1,0,0:0:0
344,232,74412,2,0,B|368:320,1,90,0|10,0:0|0:0,0:0:0
168,152,74929,2,0,B|144:64,1,90,0|10,0:0|0:0,0:0:0
324,72,75446,5,10,0:0:0
320,164,75619,1,0,0:0:0
280,244,75791,1,0,0:0:0
200,288,75964,1,10,0:0:0
112,312,76136,1,0,0:0:0
40,260,76308,1,10,0:0:0
64,172,76481,1,0,0:0:0
124,240,76653,6,0,B|148:152|148:152|76:80,1,180,4|0,0:0|0:0,0:0:0
232,128,77170,2,0,B|168:64,1,90,0|10,0:0|0:0,0:0:0
296,192,77515,2,0,B|359:255,1,90,0|0,0:0|0:0,0:0:0
320,112,77860,2,0,B|400:48|488:56,1,180,0|2,0:0|0:0,0:0:0
496,144,78377,1,0,0:0:0
480,232,78550,2,0,B|488:284|452:312,1,90,0|10,0:0|0:0,0:0:0
372,352,78895,1,0,0:0:0
284,336,79067,1,8,0:0:0
224,272,79239,1,0,0:0:0
185,189,79412,6,0,B|232:112|200:16,1,180,4|0,0:0|0:0,0:0:0
326,189,79929,2,0,B|280:112|312:16,1,180,2|0,0:0|0:0,0:0:0
376,112,80446,1,2,0:0:0
416,192,80619,2,0,B|412:284|328:308|248:284|232:204,1,270,2|0,0:0|0:0,0:0:0
96,104,81481,6,0,B|176:56,1,90,8|0,0:0|0:0,0:0:0
96,280,81826,2,0,B|176:328,1,90,0|8,0:0|0:0,0:0:0
168,192,82170,2,0,B|256:192|256:192|320:128,1,180,4|0,0:0|0:0,0:0:0
232,112,82688,1,0,0:0:0
336,240,82860,1,10,0:0:0
216,344,83032,1,0,0:0:0
216,344,83205,6,0,B|304:360,1,90
296,40,83722,2,0,B|208:24,1,90,10|0,0:0|0:0,0:0:0
136,192,84239,1,10,0:0:0
152,104,84412,1,0,0:0:0
72,136,84584,1,2,0:0:0
56,224,84757,1,8,0:0:0
40,312,84929,6,0,B|128:328|128:328|208:288,1,180,2|0,0:0|0:0,0:0:0
256,208,85446,1,0,0:0:0
303,287,85619,2,0,B|384:328|384:328|472:312,1,180,10|0,0:0|0:0,0:0:0
408,248,86136,2,0,B|464:152|400:80,1,180,0|10,0:0|0:0,0:0:0
320,48,86653,1,0,0:0:0
224,40,86826,1,0,0:0:0
144,88,86998,5,10,0:0:0
112,240,87257,1,2,0:0:0
272,256,87515,1,8,0:0:0
344,200,87688,5,2,0:0:0
400,32,88032,1,0,0:0:0
400,32,88205,2,0,B|344:104|344:104|256:80,1,180,2|0,0:0|0:0,0:0:0
264,176,88722,2,0,B|176:152,1,90,2|0,0:0|0:0,0:0:0
344,200,89067,2,0,B|432:224,1,90,0|2,0:0|0:0,0:0:0
360,288,89412,1,0,0:0:0
272,308,89584,1,0,0:0:0
184,320,89757,1,10,0:0:0
80,176,90101,2,0,B|112:136|96:88,1,90,2|0,0:0|0:0,0:0:0
168,40,90446,6,0,B|352:64,1,180,2|0,0:0|0:0,0:0:0
346,63,90964,1,0,0:0:0
416,120,91136,1,10,0:0:0
416,120,91308,1,0,0:0:0
440,208,91481,1,2,0:0:0
440,208,91653,2,0,B|432:312|336:368|248:352,1,270,14|0,0:0|0:0,0:0:0
214,114,92515,5,10,0:0:0
178,233,92688,1,0,0:0:0
297,269,92860,1,0,0:0:0
333,150,93032,1,8,0:0:0
256,192,93205,1,2,0:0:0
104,96,93550,6,0,B|48:176|48:176|80:264,1,180,0|10,0:0|0:0,0:0:0
128,328,94067,1,0,0:0:0
216,336,94239,1,0,0:0:0
304,344,94412,1,10,0:0:0
208,40,94757,1,10,0:0:0
296,48,94929,1,0,0:0:0
384,56,95101,1,0,0:0:0
384,56,95274,2,0,B|408:144|408:144|352:216,1,180,10|2,0:0|0:0,0:0:0
320,128,95791,1,8,0:0:0
448,232,95964,6,0,B|384:320,1,90
256,184,96308,2,0,B|256:96,1,90,2|0,0:0|0:0,0:0:0
64,232,96653,2,0,B|128:320,1,90,10|0,0:0|0:0,0:0:0
256,360,96998,1,8,0:0:0
256,272,97170,1,2,0:0:0
144,128,97515,5,2,0:0:0
144,128,97688,2,0,B|184:48|184:48|280:56,1,180,0|2,0:0|0:0,0:0:0
232,128,98205,1,2,0:0:0
208,216,98377,1,0,0:0:0
296,248,98550,1,2,0:0:0
320,160,98722,1,2,0:0:0
256,192,99067,12,10,101481,0:0:0
112,192,102025,5,2,0:0:0
112,192,102570,2,0,B|208:192|208:192|232:112|232:112|280:272|280:272|304:192|304:192|404:192,1,529.199983850098,2|0,0:0|0:0,0:0:0
