osu file format v11

[General]
AudioFilename: kokoro.mp3
AudioLeadIn: 1996
PreviewTime: 68928
Countdown: 0
SampleSet: None
StackLeniency: 0.7
Mode: 1
LetterboxInBreaks: 0

[Editor]
Bookmarks: 15426
DistanceSpacing: 1.8
BeatDivisor: 4
GridSize: 32

[Metadata]
Title:Salvage (TV size)
TitleUnicode:Salvage (TV size)
Artist:Team.Nekokan feat. Katakiri Rekka
ArtistUnicode:Team.Nekokan feat. Katakiri Rekka
Creator:cRyo[iceeicee]
Version:Taiko Muzukashii
Source:Kokoro Connect
Tags:
BeatmapID:222032
BeatmapSetID:76054

[Difficulty]
HPDrainRate:5
CircleSize:5
OverallDifficulty:5
ApproachRate:5
SliderMultiplier:1.4
SliderTickRate:2

[Events]
//Background and Video events
0,0,"yande.re 148287 inaba_himeko kagome kokoro_connect nagase_iori seifuku.jpg"
//Break Periods
//Storyboard Layer 0 (Background)
//Storyboard Layer 1 (Fail)
//Storyboard Layer 2 (Pass)
//Storyboard Layer 3 (Foreground)
//Storyboard Sound Samples
//Background Colour Transformations
3,100,163,162,255

[TimingPoints]
1924,337.552742616034,4,1,0,100,1,0
69434,-100,4,1,0,100,0,1
91037,-100,4,1,0,100,0,0

[HitObjects]
256,192,1923,1,8,0:0:0
256,192,2261,1,8,0:0:0
256,192,2430,1,8,0:0:0
256,192,2767,1,8,0:0:0
256,192,3105,5,0,0:0:0
256,192,4624,1,4,0:0:0
256,192,4961,5,8,0:0:0
256,192,5299,5,0,0:0:0
256,192,5805,1,0,0:0:0
256,192,5974,5,8,0:0:0
256,192,6312,5,0,0:0:0
256,192,6480,1,0,0:0:0
256,192,6987,5,8,0:0:0
256,192,7324,5,0,0:0:0
256,192,7662,5,8,0:0:0
256,192,7999,5,0,0:0:0
256,192,8506,1,0,0:0:0
256,192,8675,5,8,0:0:0
256,192,9012,5,0,0:0:0
256,192,9181,1,0,0:0:0
256,192,9518,1,0,0:0:0
256,192,9687,5,12,0:0:0
256,192,10025,5,4,0:0:0
256,192,10362,5,8,0:0:0
256,192,10700,5,0,0:0:0
256,192,11206,1,0,0:0:0
256,192,11375,5,8,0:0:0
256,192,11713,5,0,0:0:0
256,192,11881,1,0,0:0:0
256,192,12388,5,8,0:0:0
256,192,12725,5,4,0:0:0
256,192,13063,5,8,0:0:0
256,192,13400,5,0,0:0:0
256,192,13907,1,0,0:0:0
256,192,14075,5,8,0:0:0
256,192,14413,5,0,0:0:0
256,192,14582,1,0,0:0:0
256,192,14919,1,0,0:0:0
256,192,15088,5,8,0:0:0
256,192,15426,5,4,0:0:0
256,192,15763,5,8,0:0:0
256,192,15932,5,0,0:0:0
256,192,16101,1,0,0:0:0
256,192,16269,5,8,0:0:0
256,192,16438,1,8,0:0:0
256,192,16607,5,0,0:0:0
256,192,16945,1,0,0:0:0
256,192,17113,5,8,0:0:0
256,192,17282,1,8,0:0:0
256,192,17451,5,0,0:0:0
256,192,17620,5,8,0:0:0
256,192,17788,1,8,0:0:0
256,192,17957,1,8,0:0:0
256,192,18126,5,0,0:0:0
256,192,18464,5,8,0:0:0
256,192,18632,5,0,0:0:0
256,192,18801,1,0,0:0:0
256,192,18970,5,8,0:0:0
256,192,19139,1,8,0:0:0
256,192,19307,5,0,0:0:0
256,192,19645,5,8,0:0:0
256,192,19814,1,8,0:0:0
256,192,19983,5,0,0:0:0
256,192,20151,1,0,0:0:0
256,192,20320,5,8,0:0:0
256,192,20489,1,8,0:0:0
256,192,20658,1,8,0:0:0
256,192,20826,5,0,0:0:0
256,192,21164,5,8,0:0:0
256,192,21333,5,0,0:0:0
256,192,21502,1,0,0:0:0
256,192,21670,5,8,0:0:0
256,192,21839,1,8,0:0:0
256,192,22008,5,0,0:0:0
256,192,22345,5,8,0:0:0
256,192,22514,1,8,0:0:0
256,192,22683,5,0,0:0:0
256,192,22852,1,0,0:0:0
256,192,23021,5,8,0:0:0
256,192,23189,1,8,0:0:0
256,192,23358,1,8,0:0:0
256,192,23527,5,0,0:0:0
256,192,23864,5,8,0:0:0
256,192,24033,5,0,0:0:0
256,192,24202,1,0,0:0:0
256,192,24371,5,8,0:0:0
256,192,24540,5,0,0:0:0
256,192,24708,5,12,0:0:0
256,192,25046,5,0,0:0:0
256,192,25215,1,0,0:0:0
256,192,25383,5,12,0:0:0
256,192,25721,5,0,0:0:0
256,192,25890,5,12,0:0:0
256,192,26227,5,4,0:0:0
256,192,26565,5,8,0:0:0
256,192,26734,5,0,0:0:0
256,192,26902,1,0,0:0:0
256,192,27072,5,8,0:0:0
256,192,27240,1,8,0:0:0
256,192,27409,5,0,0:0:0
256,192,27747,1,0,0:0:0
256,192,27915,5,8,0:0:0
256,192,28084,1,8,0:0:0
256,192,28253,5,0,0:0:0
256,192,28422,5,8,0:0:0
256,192,28591,1,8,0:0:0
256,192,28759,1,8,0:0:0
256,192,28928,5,0,0:0:0
256,192,29266,5,8,0:0:0
256,192,29435,5,0,0:0:0
256,192,29604,1,0,0:0:0
256,192,29772,1,0,0:0:0
256,192,29941,5,8,0:0:0
256,192,30110,1,8,0:0:0
256,192,30447,5,0,0:0:0
256,192,30616,5,8,0:0:0
256,192,30784,1,8,0:0:0
256,192,30953,5,0,0:0:0
256,192,31123,5,8,0:0:0
256,192,31291,1,8,0:0:0
256,192,31459,1,8,0:0:0
256,192,31628,5,0,0:0:0
256,192,31966,5,8,0:0:0
256,192,32135,5,0,0:0:0
256,192,32303,1,0,0:0:0
256,192,32472,5,8,0:0:0
256,192,32641,1,8,0:0:0
256,192,32810,5,0,0:0:0
256,192,32978,1,0,0:0:0
256,192,33316,5,8,0:0:0
256,192,33485,1,8,0:0:0
256,192,33654,5,0,0:0:0
256,192,33823,5,8,0:0:0
256,192,33991,1,8,0:0:0
256,192,34160,1,8,0:0:0
256,192,34329,1,12,0:0:0
256,192,34497,5,0,0:0:0
256,192,34666,1,0,0:0:0
256,192,34835,5,8,0:0:0
256,192,35004,5,0,0:0:0
256,192,35172,1,0,0:0:0
256,192,35341,5,8,0:0:0
256,192,35510,5,0,0:0:0
256,192,35679,1,0,0:0:0
256,192,35848,5,8,0:0:0
256,192,36017,5,0,0:0:0
256,192,36186,1,0,0:0:0
256,192,36354,5,12,0:0:0
256,192,37029,5,4,0:0:0
256,192,37367,5,8,0:0:0
256,192,37704,1,8,0:0:0
256,192,38042,1,8,0:0:0
256,192,38379,1,8,0:0:0
256,192,38717,1,8,0:0:0
256,192,39054,1,8,0:0:0
256,192,39392,1,8,0:0:0
256,192,39561,5,0,0:0:0
256,192,39729,1,0,0:0:0
256,192,40067,5,8,0:0:0
256,192,40405,1,8,0:0:0
256,192,40742,1,8,0:0:0
256,192,41080,1,8,0:0:0
256,192,41417,1,8,0:0:0
256,192,41755,1,8,0:0:0
256,192,42092,1,8,0:0:0
256,192,42261,5,0,0:0:0
256,192,42430,1,4,0:0:0
256,192,42767,5,8,0:0:0
256,192,43105,1,8,0:0:0
256,192,43442,1,8,0:0:0
256,192,43780,1,8,0:0:0
256,192,44118,1,8,0:0:0
256,192,44455,1,8,0:0:0
256,192,44793,1,8,0:0:0
256,192,44961,5,0,0:0:0
256,192,45130,1,4,0:0:0
256,192,45468,5,8,0:0:0
256,192,45805,1,8,0:0:0
256,192,46143,1,8,0:0:0
256,192,46312,5,4,0:0:0
256,192,46649,1,0,0:0:0
256,192,46818,1,0,0:0:0
256,192,46987,5,8,0:0:0
256,192,47156,5,0,0:0:0
256,192,47324,5,8,0:0:0
256,192,47493,5,0,0:0:0
256,192,47662,1,4,0:0:0
256,192,47999,1,0,0:0:0
256,192,48168,5,8,0:0:0
256,192,48337,1,8,0:0:0
256,192,48506,5,0,0:0:0
256,192,48675,5,8,0:0:0
256,192,48843,1,8,0:0:0
256,192,49012,5,0,0:0:0
256,192,49181,1,0,0:0:0
256,192,49350,1,0,0:0:0
256,192,49518,5,8,0:0:0
256,192,49687,5,0,0:0:0
256,192,49856,5,8,0:0:0
256,192,50025,5,0,0:0:0
256,192,50194,5,8,0:0:0
256,192,50362,1,8,0:0:0
256,192,50531,5,0,0:0:0
256,192,50700,1,0,0:0:0
256,192,50869,5,8,0:0:0
256,192,51037,1,8,0:0:0
256,192,51206,5,0,0:0:0
256,192,51375,5,8,0:0:0
256,192,51544,5,0,0:0:0
256,192,51713,5,12,0:0:0
256,192,52050,5,0,0:0:0
256,192,52219,1,0,0:0:0
256,192,52388,5,8,0:0:0
256,192,52725,5,0,0:0:0
256,192,52894,5,8,0:0:0
256,192,53063,5,4,0:0:0
256,192,53400,1,0,0:0:0
256,192,53569,5,8,0:0:0
256,192,53738,5,0,0:0:0
256,192,53907,1,0,0:0:0
256,192,54075,1,0,0:0:0
256,192,54244,5,8,0:0:0
256,192,54413,5,4,0:0:0
256,192,54751,1,0,0:0:0
256,192,54919,5,8,0:0:0
256,192,55088,5,0,0:0:0
256,192,55257,1,0,0:0:0
256,192,55426,1,0,0:0:0
256,192,55594,5,8,0:0:0
256,192,55763,1,12,0:0:0
256,192,56101,5,0,0:0:0
256,192,56269,5,8,0:0:0
256,192,56438,5,0,0:0:0
256,192,56607,5,8,0:0:0
256,192,56776,5,0,0:0:0
256,192,56945,5,8,0:0:0
256,192,57113,1,8,0:0:0
256,192,57282,5,0,0:0:0
256,192,57451,1,0,0:0:0
256,192,57620,5,8,0:0:0
256,192,57788,1,8,0:0:0
256,192,57957,5,0,0:0:0
256,192,58126,5,8,0:0:0
256,192,58295,1,8,0:0:0
256,192,58464,5,0,0:0:0
256,192,58632,1,4,0:0:0
256,192,59139,5,8,0:0:0
256,192,59476,5,0,0:0:0
256,192,59645,5,8,0:0:0
256,192,59814,5,0,0:0:0
256,192,59983,1,0,0:0:0
256,192,60489,5,8,0:0:0
256,192,60826,5,0,0:0:0
256,192,60995,5,8,0:0:0
256,192,61333,1,8,0:0:0
256,192,61502,5,0,0:0:0
256,192,61670,1,0,0:0:0
256,192,61839,5,8,0:0:0
256,192,62008,5,0,0:0:0
256,192,62177,1,0,0:0:0
256,192,62345,5,8,0:0:0
256,192,62514,5,0,0:0:0
256,192,62683,1,0,0:0:0
256,192,62852,5,12,0:0:0
256,192,63021,5,0,0:0:0
256,192,63189,1,0,0:0:0
256,192,63358,5,8,0:0:0
256,192,63696,1,8,0:0:0
256,192,63864,5,4,0:0:0
256,192,64202,1,0,0:0:0
256,192,64371,5,8,0:0:0
256,192,64540,1,8,0:0:0
256,192,64708,5,0,0:0:0
256,192,64877,1,0,0:0:0
256,192,65046,5,8,0:0:0
256,192,65215,5,0,0:0:0
256,192,65552,1,0,0:0:0
256,192,65721,5,8,0:0:0
256,192,65890,5,0,0:0:0
256,192,66059,5,8,0:0:0
256,192,66227,5,0,0:0:0
256,192,66396,5,8,0:0:0
256,192,66565,5,4,0:0:0
256,192,66902,1,0,0:0:0
256,192,67071,5,8,0:0:0
256,192,67240,5,0,0:0:0
256,192,67409,5,8,0:0:0
256,192,67578,5,0,0:0:0
256,192,67746,5,8,0:0:0
256,192,67915,5,0,0:0:0
256,192,68084,5,8,0:0:0
256,192,68253,1,8,0:0:0
256,192,68421,1,8,0:0:0
256,192,68590,5,0,0:0:0
256,192,68928,1,0,0:0:0
256,192,69096,5,8,0:0:0
256,192,69434,5,4,0:0:0
256,192,69772,5,8,0:0:0
256,192,69940,5,0,0:0:0
256,192,70109,5,8,0:0:0
256,192,70278,1,8,0:0:0
256,192,70447,1,8,0:0:0
256,192,70615,5,0,0:0:0
256,192,70784,5,8,0:0:0
256,192,70953,5,0,0:0:0
256,192,71122,5,8,0:0:0
256,192,71291,1,8,0:0:0
256,192,71459,5,0,0:0:0
256,192,71628,5,8,0:0:0
256,192,71797,1,8,0:0:0
256,192,72134,5,0,0:0:0
256,192,72472,5,8,0:0:0
256,192,72641,1,8,0:0:0
256,192,72810,5,0,0:0:0
256,192,72978,5,8,0:0:0
256,192,73147,1,8,0:0:0
256,192,73316,1,12,0:0:0
256,192,73485,5,0,0:0:0
256,192,73653,5,8,0:0:0
256,192,73822,5,0,0:0:0
256,192,73991,5,8,0:0:0
256,192,74160,5,0,0:0:0
256,192,74329,5,8,0:0:0
256,192,74497,1,8,0:0:0
256,192,74666,5,0,0:0:0
256,192,74835,1,4,0:0:0
256,192,75004,1,0,0:0:0
256,192,75172,5,8,0:0:0
256,192,75341,1,8,0:0:0
256,192,75510,5,0,0:0:0
256,192,75679,5,8,0:0:0
256,192,75848,1,8,0:0:0
256,192,76016,5,0,0:0:0
256,192,76185,5,8,0:0:0
256,192,76354,5,0,0:0:0
256,192,76523,5,8,0:0:0
256,192,76691,1,8,0:0:0
256,192,76860,5,0,0:0:0
256,192,77029,5,8,0:0:0
256,192,77198,5,0,0:0:0
256,192,77367,5,12,0:0:0
256,192,77704,5,0,0:0:0
256,192,77873,1,0,0:0:0
256,192,78042,5,12,0:0:0
256,192,78379,5,0,0:0:0
256,192,78548,5,12,0:0:0
256,192,78886,5,0,0:0:0
256,192,79054,5,12,0:0:0
256,192,79223,1,8,0:0:0
256,192,79392,5,0,0:0:0
256,192,79561,1,0,0:0:0
256,192,79729,1,0,0:0:0
256,192,79898,5,8,0:0:0
256,192,80067,5,0,0:0:0
256,192,80236,1,4,0:0:0
256,192,80573,5,8,0:0:0
256,192,80742,5,0,0:0:0
256,192,80911,5,8,0:0:0
256,192,81080,5,0,0:0:0
256,192,81248,5,8,0:0:0
256,192,81417,1,8,0:0:0
256,192,81586,5,0,0:0:0
256,192,81755,5,8,0:0:0
256,192,81924,1,8,0:0:0
256,192,82092,5,0,0:0:0
256,192,82261,1,0,0:0:0
256,192,82430,5,8,0:0:0
256,192,82599,1,8,0:0:0
256,192,82767,1,8,0:0:0
256,192,82936,5,0,0:0:0
256,192,83105,1,0,0:0:0
256,192,83274,5,8,0:0:0
256,192,83442,1,8,0:0:0
256,192,83611,5,0,0:0:0
256,192,83780,5,8,0:0:0
256,192,83949,1,8,0:0:0
256,192,84118,5,0,0:0:0
256,192,84286,5,8,0:0:0
256,192,84455,1,8,0:0:0
256,192,84624,1,8,0:0:0
256,192,84793,1,8,0:0:0
256,192,84961,5,0,0:0:0
256,192,85131,5,8,0:0:0
256,192,85299,1,8,0:0:0
256,192,85468,5,0,0:0:0
256,192,85637,1,4,0:0:0
256,192,85805,1,0,0:0:0
256,192,85974,5,8,0:0:0
256,192,86143,1,8,0:0:0
256,192,86312,5,0,0:0:0
256,192,86480,1,0,0:0:0
256,192,86649,5,8,0:0:0
256,192,86818,1,8,0:0:0
256,192,86987,5,0,0:0:0
256,192,87156,5,8,0:0:0
256,192,87324,1,8,0:0:0
256,192,87493,5,0,0:0:0
256,192,87662,5,8,0:0:0
256,192,87831,1,8,0:0:0
256,192,87999,5,0,0:0:0
256,192,88168,5,4,0:0:0
256,192,88506,5,0,0:0:0
256,192,88675,1,0,0:0:0
256,192,88843,5,12,0:0:0
256,192,89181,5,0,0:0:0
256,192,89350,5,12,0:0:0
256,192,89518,5,0,0:0:0
256,192,89856,5,8,0:0:0
256,192,90025,1,8,0:0:0
256,192,90194,5,0,0:0:0
256,192,90531,1,0,0:0:0
256,192,90700,5,8,0:0:0
256,192,90869,5,4,0:0:0
256,192,91037,1,0,0:0:0
256,192,91375,5,8,0:0:0
256,192,91544,5,0,0:0:0
256,192,91713,1,0,0:0:0
256,192,91881,1,0,0:0:0
256,192,92050,5,8,0:0:0
256,192,92219,5,0,0:0:0
256,192,92556,1,0,0:0:0
256,192,92725,5,8,0:0:0
256,192,92894,5,0,0:0:0
256,192,93063,1,0,0:0:0
256,192,93231,1,0,0:0:0
256,192,93400,5,8,0:0:0
256,192,93569,1,8,0:0:0
256,192,93738,5,0,0:0:0
256,192,94075,5,8,0:0:0
256,192,94244,1,8,0:0:0
256,192,94413,5,0,0:0:0
256,192,94582,1,0,0:0:0
256,192,94750,5,8,0:0:0
256,192,94919,5,0,0:0:0
256,192,95257,1,0,0:0:0
256,192,95426,5,8,0:0:0
256,192,95594,5,0,0:0:0
256,192,95763,1,0,0:0:0
256,192,95932,5,8,0:0:0
256,192,96101,1,8,0:0:0
256,192,96269,5,0,0:0:0
256,192,96438,1,4,0:0:0
256,192,96776,1,0,0:0:0
256,192,96945,5,8,0:0:0
256,192,97113,5,0,0:0:0
256,192,97282,5,8,0:0:0
256,192,97451,5,0,0:0:0
256,192,97620,5,8,0:0:0
256,192,97788,5,0,0:0:0
256,192,97957,5,8,0:0:0
256,192,98126,5,0,0:0:0
256,192,98295,5,8,0:0:0
256,192,98464,5,0,0:0:0
256,192,98632,5,8,0:0:0
256,192,98801,5,0,0:0:0
256,192,98970,5,8,0:0:0
256,192,99307,5,0,0:0:0
256,192,99476,1,0,0:0:0
256,192,99645,5,12,0:0:0
256,192,99814,5,0,0:0:0
256,192,99983,1,0,0:0:0
256,192,100151,5,12,0:0:0
256,192,100320,5,0,0:0:0
256,192,100489,1,0,0:0:0
256,192,100658,5,12,0:0:0
256,192,100826,5,0,0:0:0
256,192,100995,5,8,0:0:0
256,192,101333,1,8,0:0:0
256,192,101670,5,12,0:0:0
