osu file format v13

[General]
AudioFilename: Tsunagu Kizuna (TV Size).mp3
AudioLeadIn: 0
PreviewTime: 56038
Countdown: 1
SampleSet: Soft
StackLeniency: 0.7
Mode: 2
LetterboxInBreaks: 1
WidescreenStoryboard: 1

[Editor]
Bookmarks: 7737,26626,53960,54404,54848,55293,55737,56182,57515,58848
DistanceSpacing: 0.8
BeatDivisor: 4
GridSize: 8
TimelineZoom: 1

[Metadata]
Title:Tsunagu Kizuna (TV Size)
TitleUnicode:ツナグキズナ (TV Size)
Artist:Team.Nekokan feat. Amaoto Junca
ArtistUnicode:Team.ねこかん【猫】feat. 天乙准花
Creator:-B a n k-
Version:Platter
Source:ヨスガノソラ
Tags:rew0825 ヨスガノソラ yosuga_no_sora
BeatmapID:525224
BeatmapSetID:225024

[Difficulty]
HPDrainRate:6
CircleSize:4
OverallDifficulty:8
ApproachRate:8
SliderMultiplier:1.6
SliderTickRate:1

[Events]
//Background and Video events
0,0,"BG.jpg",0,0
//Break Periods
//Storyboard Layer 0 (Background)
//Storyboard Layer 1 (Fail)
//Storyboard Layer 2 (Pass)
//Storyboard Layer 3 (Foreground)
//Storyboard Sound Samples
//Background Colour Transformations
3,100,163,162,255

[TimingPoints]
-1151,444.444444444444,4,2,1,40,1,0
626,-100,4,2,0,40,0,0
1071,-100,4,2,1,40,0,0
2404,-100,4,2,0,40,0,0
2848,-100,4,2,1,40,0,0
5960,-100,4,2,0,40,0,0
6071,-100,4,2,1,40,0,0
7737,-100,4,2,0,40,0,0
7960,-100,4,2,1,40,0,0
12404,-100,4,2,1,40,0,0
12848,-200,4,2,0,40,0,0
13071,-100,4,2,1,40,0,0
14848,-100,4,2,0,40,0,0
15293,-100,4,2,1,40,0,0
21960,-100,4,2,0,40,0,0
22404,-100,4,2,1,40,0,0
25515,-200,4,2,1,40,0,0
26626,-100,4,2,1,40,0,0
29071,-100,4,2,0,40,0,0
29515,-100,4,2,2,40,0,0
40182,-100,4,2,1,40,0,0
43293,-100,4,2,2,40,0,0
43737,-100,4,2,2,40,0,0
45071,-100,4,2,1,40,0,0
45404,-100,4,2,1,5,0,0
45515,-100,4,2,1,40,0,0
45848,-100,4,2,1,5,0,0
45960,-100,4,2,1,40,0,0
46848,-100,4,2,2,40,0,0
48404,-100,4,2,1,40,0,0
48737,-100,4,2,1,5,0,0
48848,-100,4,2,1,40,0,0
49182,-100,4,2,1,5,0,0
49293,-100,4,2,1,40,0,0
49626,-100,4,2,1,5,0,0
49737,-100,4,2,1,40,0,0
52182,-100,4,2,2,40,0,0
52404,-100,4,2,2,40,0,0
54293,-100,4,2,2,5,0,0
54404,-100,4,2,1,40,0,0
54737,-100,4,2,2,5,0,0
54848,-100,4,2,1,40,0,0
55182,-100,4,2,2,5,0,0
55293,-100,4,2,1,40,0,0
55626,-100,4,2,2,5,0,0
55737,-100,4,2,1,40,0,0
56182,-100,4,2,2,40,0,0
57515,-100,4,2,2,40,0,1
57737,-100,4,2,1,40,0,1
58182,-200,4,2,1,40,0,1
59293,-100,4,2,1,40,0,1
62848,-100,4,2,2,40,0,1
63182,-100,4,2,1,5,0,1
63293,-100,4,2,1,40,0,1
63626,-100,4,2,1,5,0,1
63737,-100,4,2,1,40,0,1
64071,-100,4,2,1,5,0,1
64182,-100,4,2,1,40,0,1
64515,-100,4,2,1,5,0,1
64626,-100,4,2,2,40,0,1
65071,-100,4,2,1,40,0,1
68182,-133.333333333333,4,2,1,40,0,1
69071,-200,4,2,1,40,0,1
69960,-200,4,2,2,40,0,1
71737,-100,4,2,2,40,0,1
71960,-100,4,2,1,40,0,1
77071,-100,4,2,2,40,0,1
79071,-100,4,2,1,40,0,1
80626,-100,4,2,2,40,0,1
81071,-200,4,2,2,40,0,1
81960,-100,4,2,2,40,0,0
82182,-100,4,2,1,40,0,0
82404,-100,4,2,1,40,0,0
83293,-100,4,2,1,40,0,0
83737,-100,4,2,1,35,0,0
84182,-100,4,2,1,30,0,0
84626,-100,4,2,1,25,0,0
85071,-100,4,2,1,20,0,0
85515,-100,4,2,1,15,0,0
85960,-100,4,2,1,10,0,0
86404,-100,4,2,1,6,0,0
86848,-100,4,2,1,5,0,0

[HitObjects]
168,200,182,5,2,0:0:0:0:
272,200,404,1,0,0:0:0:0:
313,106,626,2,0,P|370:145|416:232,1,160,4|2,0:2|0:0,0:0:0:0:
304,296,1293,2,0,L|384:296,1,80,4|0,0:0|0:0,0:0:0:0:
224,232,1737,1,0,0:0:0:0:
424,232,1960,2,0,L|328:232,1,80,2|0,0:0|0:0,0:0:0:0:
480,232,2293,1,0,0:0:0:0:
224,231,2404,2,0,P|157:212|112:120,1,160,4|2,0:0|0:0,0:0:0:0:
296,104,3071,6,0,L|208:104,1,80,4|0,0:0|0:0,0:0:0:0:
296,176,3515,1,0,0:0:0:0:
400,176,3737,1,2,0:0:0:0:
488,232,3960,1,0,0:0:0:0:
408,280,4071,1,0,0:0:0:0:
336,288,4182,2,0,P|256:304|176:304,1,160,4|2,0:0|0:0,0:0:0:0:
72,240,4848,2,0,L|240:240,1,160,4|0,0:0|0:0,0:0:0:0:
368,240,5515,1,2,0:0:0:0:
256,240,5737,1,2,0:0:0:0:
368,240,5960,2,0,L|408:200,1,40,4|0,0:0|0:0,0:0:0:0:
424,192,6182,1,0,0:0:0:0:
448,160,6293,1,0,0:0:0:0:
448,112,6404,1,8,0:0:0:0:
424,80,6515,1,0,0:0:0:0:
384,72,6626,6,0,L|328:72,2,40,0|0|4,0:0|0:0|0:0,0:0:0:0:
336,136,6960,2,0,L|272:136,2,40,0|0|0,0:0|0:0|0:0,0:0:0:0:
248,136,7293,1,8,0:0:0:0:
200,136,7404,1,0,0:0:0:0:
152,136,7515,1,8,0:0:0:0:
96,144,7626,5,0,0:0:0:0:
280,136,7737,1,4,0:0:0:0:
168,240,7960,2,0,L|240:240,2,40,0|0|8,0:0|0:0|0:0,0:0:0:0:
280,240,8404,2,0,L|352:240|464:240,1,160
488,176,8960,1,0,0:0:0:0:
368,176,9071,1,8,0:0:0:0:
240,176,9293,1,0,0:0:0:0:
376,248,9515,6,0,L|272:248,1,80
296,248,9848,1,0,0:0:0:0:
240,248,9960,1,8,0:0:0:0:
104,248,10182,1,0,0:0:0:0:
240,176,10404,2,0,L|304:176,2,40,2|0|2,0:0|0:0|0:0,0:0:0:0:
424,176,10848,2,0,L|384:176,2,40,8|0|2,0:0|0:0|0:0,0:0:0:0:
384,176,11182,1,0,0:0:0:0:
200,176,11293,2,0,L|24:176,1,160,0|8,0:0|0:0,0:0:0:0:
120,256,11960,1,0,0:0:0:0:
192,256,12182,2,0,L|280:208,1,80
320,216,12515,1,0,0:0:0:0:
384,216,12626,1,8,0:0:0:0:
456,216,12848,2,0,P|408:152|448:72,1,160,4|0,0:0|0:0,0:0:0:0:
320,152,13960,6,0,L|200:152,1,120,8|8,0:0|0:0,0:0:0:0:
400,152,14404,1,0,0:0:0:0:
296,232,14626,1,8,0:0:0:0:
400,240,14848,2,0,P|432:200|432:88,1,160,4|2,0:0|0:0,0:0:0:0:
328,152,15515,2,0,P|264:160|200:136,1,120,0|0,0:0|0:0,0:0:0:0:
168,160,15960,2,0,P|160:232|176:272,1,80,0|2,0:0|0:0,0:0:0:0:
344,288,16404,1,0,0:0:0:0:
288,288,16626,2,0,P|240:296|120:280,1,160,0|2,0:0|0:0,0:0:0:0:
216,200,17293,1,0,0:0:0:0:
328,200,17515,1,0,0:0:0:0:
264,112,17737,5,0,0:0:0:0:
384,112,17960,1,2,0:0:0:0:
472,184,18182,1,0,0:0:0:0:
272,256,18404,2,0,P|192:256|104:232,1,160,0|2,0:0|0:0,0:0:0:0:
208,176,19071,2,0,P|288:168|352:192,1,120
376,240,19515,2,0,L|456:240,1,80,0|2,0:0|0:0,0:0:0:0:
416,320,19960,1,0,0:0:0:0:
288,320,20182,2,0,L|112:320,1,160,0|2,0:0|0:0,0:0:0:0:
224,248,20848,1,0,0:0:0:0:
120,248,21071,1,0,0:0:0:0:
200,168,21293,1,0,0:0:0:0:
48,328,21515,1,2,0:0:0:0:
208,288,21737,1,0,0:0:0:0:
304,296,21960,6,0,B|352:280|384:296|472:288,1,160,4|2,0:0|0:0,0:0:0:0:
360,216,22626,2,0,P|312:168|320:104,1,120,0|0,0:0|0:0,0:0:0:0:
320,72,23071,2,0,P|232:72|216:80,1,80,0|2,0:0|0:0,0:0:0:0:
120,72,23515,1,0,0:0:0:0:
256,192,23737,2,0,P|360:192|440:176,1,160,0|2,0:0|0:0,0:0:0:0:
336,280,24404,1,0,0:0:0:0:
424,280,24626,1,0,0:0:0:0:
480,200,24848,1,0,0:0:0:0:
336,192,25071,6,0,L|224:192|224:192,1,80,2|0,0:0|0:0,0:0:0:0:
264,104,25515,2,0,L|464:104,1,200
392,200,26848,1,2,0:0:0:0:
264,200,27071,2,0,L|104:200,1,160,0|8,0:0|0:0,0:0:0:0:
184,136,27626,1,4,0:0:0:0:
104,280,27848,2,0,L|216:280,1,80,4|0,0:0|0:0,0:0:0:0:
144,344,28182,1,8,0:0:0:0:
320,288,28404,1,4,0:0:0:0:
320,288,28515,1,8,0:0:0:0:
496,208,28626,1,4,0:0:0:0:
392,208,28848,5,8,0:0:0:0:
200,208,29071,2,0,P|160:176|152:72,1,160,4|2,0:0|0:0,0:0:0:0:
352,144,29737,2,0,L|480:144,1,120,0|0,0:0|0:0,0:0:0:0:
432,216,30182,2,0,L|344:216,1,80,0|2,0:0|0:0,0:0:0:0:
168,208,30626,1,0,0:0:0:0:
72,240,30848,2,0,P|88:168|160:120,1,160,0|2,0:0|0:0,0:0:0:0:
256,120,31515,1,0,0:0:0:0:
344,192,31737,2,0,L|440:192,1,80
376,272,32182,2,0,L|288:272,1,80,2|0,0:0|0:0,0:0:0:0:
160,216,32626,6,0,P|224:184|272:176,1,120
344,176,33071,1,2,0:0:0:0:
432,208,33293,2,0,P|424:144|368:104,1,120
328,112,33737,2,0,L|216:112,1,80,0|2,0:0|0:0,0:0:0:0:
160,112,34182,1,0,0:0:0:0:
256,208,34404,2,0,B|304:216|352:200|400:208,2,120,0|2|0,0:0|0:0|0:0,0:0:0:0:
416,280,35515,1,0,0:0:0:0:
328,280,35737,2,0,L|232:280,1,80,2|0,0:0|0:0,0:0:0:0:
144,240,36182,2,0,P|88:184|96:96,1,160,4|2,0:0|0:0,0:0:0:0:
200,168,36848,6,0,B|272:192|328:184|368:192,1,160
488,256,37515,2,0,B|424:288|416:320|400:304,1,80,2|0,0:0|0:0,0:0:0:0:
320,296,37960,2,0,L|192:296,1,120
200,224,38404,2,0,L|344:224,1,120,2|0,0:0|0:0,0:0:0:0:
320,152,38848,2,0,L|224:152,1,80
56,152,39293,1,2,0:0:0:0:
215,151,39515,2,0,P|294:159|372:144,1,160,4|0,0:0|0:0,0:0:0:0:
480,152,40182,1,2,0:0:0:0:
320,152,40404,1,0,0:0:0:0:
480,256,40626,6,0,L|400:256,2,80,0|0|2,0:0|0:0|0:0,0:0:0:0:
256,256,41293,1,0,0:0:0:0:
160,256,41515,2,0,L|80:256,2,80,2|0|2,0:0|0:0|0:0,0:0:0:0:
160,192,42182,1,0,0:0:0:0:
256,192,42404,2,0,P|312:168|424:184,1,160,2|2,0:0|0:0,0:0:0:0:
496,176,43071,1,0,0:0:0:0:
151,145,43293,2,0,P|174:220|240:264,1,160,4|2,0:0|0:0,0:0:0:0:
384,256,43960,2,0,P|416:224|448:112,1,160
344,152,44626,1,2,0:0:0:0:
240,152,44848,1,0,0:0:0:0:
144,216,45071,6,0,L|272:216,1,120,2|0,0:0|0:0,0:0:0:0:
264,280,45515,2,0,L|400:280,1,120,2|0,0:0|0:0,0:0:0:0:
376,216,45960,2,0,L|280:216,1,80,2|0,0:0|0:0,0:0:0:0:
192,216,46404,2,0,L|152:136,1,80,2|0,0:0|0:0,0:0:0:0:
280,144,46848,2,0,L|448:144,1,160,4|2,0:0|0:0,0:0:0:0:
376,208,47515,2,0,L|208:208,1,160
72,208,48182,5,2,0:0:0:0:
256,144,48404,2,0,P|304:160|376:136,1,120
480,144,48848,2,0,P|456:208|424:272,1,120,2|0,0:0|0:0,0:0:0:0:
376,256,49293,2,0,L|232:256,1,120,2|0,0:0|0:0,0:0:0:0:
248,192,49737,2,0,L|352:192,1,80,2|0,0:0|0:0,0:0:0:0:
440,192,50182,1,0,0:0:0:0:
328,120,50404,2,0,L|280:120|176:120,2,120,2|0|0,0:0|0:0|0:0,0:0:0:0:
381,236,51293,6,2,P|441:231|496:208,2,120,2|0|0,0:0|0:0|0:0,0:0:0:0:
224,240,52182,1,2,0:0:0:0:
192,240,52293,1,0,0:0:0:0:
144,240,52404,1,0,0:0:0:0:
328,168,52515,1,2,0:0:0:0:
368,168,52626,1,0,0:0:0:0:
424,168,52737,1,0,0:0:0:0:
216,168,52848,1,2,0:0:0:0:
416,256,53071,1,2,0:0:0:0:
312,256,53404,1,2,0:0:0:0:
192,256,53737,1,2,0:0:0:0:
128,256,53960,6,0,P|80:200|72:144,1,120,4|0,0:0|0:0,0:0:0:0:
136,152,54404,2,0,L|272:152,1,120,2|0,0:0|0:0,0:0:0:0:
256,88,54848,2,0,L|384:88,1,120,2|0,0:0|0:0,0:0:0:0:
376,160,55293,2,0,L|512:160,1,120,2|0,0:0|0:0,0:0:0:0:
496,248,55737,2,0,L|320:248,1,160,2|4,0:0|0:0,0:0:0:0:
248,248,56626,1,4,0:0:0:0:
120,248,57071,1,4,0:0:0:0:
184,160,57515,1,4,0:0:0:0:
320,168,57737,1,4,0:0:0:0:
376,168,57848,2,0,L|472:168,1,80,8|4,0:0|0:0,0:0:0:0:
376,240,58182,2,0,L|288:240,1,80,2|4,0:0|0:0,0:0:0:0:
184,240,58848,1,8,0:0:0:0:
80,240,59071,1,2,0:0:0:0:
184,184,59293,6,0,L|280:184,1,80,4|2,0:0|0:0,0:0:0:0:
256,112,59626,2,0,L|360:112,1,80,8|2,0:0|0:0,0:0:0:0:
504,176,59960,2,0,L|344:176,1,160,4|2,0:0|0:0,0:0:0:0:
448,248,60626,2,0,L|368:248,1,80,8|2,0:0|0:0,0:0:0:0:
216,160,61071,2,0,P|169:197|137:248,2,120,4|2|2,0:0|0:0|0:0,0:0:0:0:
440,192,61960,2,0,P|394:228|336:223,2,120,4|2|2,0:0|0:0|0:0,0:0:0:0:
208,232,62848,6,0,L|80:232,1,120,4|0,0:0|0:0,0:0:0:0:
88,168,63293,2,0,L|224:168,1,120,2|0,0:0|0:0,0:0:0:0:
272,168,63737,2,0,L|392:168,1,120,2|0,0:0|0:0,0:0:0:0:
392,232,64182,2,0,L|272:232,1,120,2|0,0:0|0:0,0:0:0:0:
80,296,64626,2,0,L|240:296,1,160,4|8,0:0|0:0,0:0:0:0:
40,296,65293,1,4,0:0:0:0:
128,232,65515,2,0,P|176:208|232:208,1,80,2|4,0:0|0:0,0:0:0:0:
248,208,65848,2,0,L|352:208,1,80,2|4,0:0|0:0,0:0:0:0:
384,208,66182,1,2,0:0:0:0:
488,136,66404,6,0,L|328:136,1,160,4|8,0:0|0:0,0:0:0:0:
248,136,67071,1,4,0:0:0:0:
128,128,67293,2,0,L|128:256,1,120,2|4,0:0|0:0,0:0:0:0:
192,248,67737,2,0,L|320:248,1,120,2|4,0:0|0:0,0:0:0:0:
480,248,68182,2,0,L|360:248,1,120,2|8,0:0|0:0,0:0:0:0:
320,160,69071,2,0,L|480:160,1,160,2|4,0:0|0:0,0:0:0:0:
248,160,70404,1,4,0:0:0:0:
112,160,70848,1,4,0:0:0:0:
336,160,71293,1,4,0:0:0:0:
480,160,71737,2,0,P|440:208|408:232,1,80,4|4,0:0|0:0,0:0:0:0:
360,272,72071,6,0,L|272:272,1,80,2|4,0:0|0:0,0:0:0:0:
100,152,72404,2,0,P|118:228|184:272,1,160,2|4,0:0|0:0,0:0:0:0:
232,160,73071,1,8,0:0:0:0:
336,160,73293,1,0,0:0:0:0:
456,232,73515,2,0,L|352:232,1,80,2|4,0:0|0:0,0:0:0:0:
384,304,73848,2,0,L|288:304,1,80,2|4,0:0|0:0,0:0:0:0:
86,170,74182,2,0,P|83:247|144:296,1,160,2|4,0:0|0:0,0:0:0:0:
272,224,74848,2,0,L|384:224,1,80,8|4,0:0|0:0,0:0:0:0:
401,132,75293,2,0,P|448:169|472:224,2,120,2|4|2,0:0|0:0|0:0,0:0:0:0:
152,128,76182,6,0,L|272:128,2,120,4|2|4,0:0|0:0|0:0,0:0:0:0:
344,200,77071,1,4,0:0:0:0:
192,200,77515,1,4,0:0:0:0:
344,200,77960,1,4,0:0:0:0:
256,200,78404,1,4,0:0:0:0:
400,200,78848,2,0,P|440:160|408:56,1,160,4|8,0:0|0:0,0:0:0:0:
328,112,79515,1,4,0:0:0:0:
248,112,79737,2,0,L|144:112,1,80,2|4,0:0|0:0,0:0:0:0:
160,176,80071,2,0,L|248:176,1,80,2|4,0:0|0:0,0:0:0:0:
464,176,80404,6,0,L|384:176,1,80,2|4,0:0|0:0,0:0:0:0:
352,240,81071,2,0,B|424:224|480:224|480:224|424:160,1,200,4|4,0:0|0:0,0:0:0:0:
408,152,82293,1,0,0:0:0:0:
256,152,82404,2,0,L|160:152,1,80,2|4,0:0|0:0,0:0:0:0:
176,216,82737,2,0,L|272:216,1,80,2|4,0:0|0:0,0:0:0:0:
456,216,83071,1,2,0:0:0:0:
256,192,83293,12,0,86848,0:0:0:0:
