osu file format v13

[General]
AudioFilename: Tsunagu Kizuna (TV Size).mp3
AudioLeadIn: 0
PreviewTime: 56034
Countdown: 1
SampleSet: Soft
StackLeniency: 0.7
Mode: 2
LetterboxInBreaks: 1
WidescreenStoryboard: 0

[Editor]
Bookmarks: 7737,20848,26626
DistanceSpacing: 0.5
BeatDivisor: 4
GridSize: 8
TimelineZoom: 1

[Metadata]
Title:Tsunagu Kizuna (TV Size)
TitleUnicode:ツナグキズナ (TV Size)
Artist:Team.Nekokan feat. Amaoto Junca
ArtistUnicode:Team.ねこかん【猫】feat. 天乙准花
Creator:-B a n k-
Version:Cup
Source:ヨスガノソラ
Tags:rew0825 ヨスガノソラ yosuga_no_sora
BeatmapID:525223
BeatmapSetID:225024

[Difficulty]
HPDrainRate:3
CircleSize:3
OverallDifficulty:5
ApproachRate:5
SliderMultiplier:1.4
SliderTickRate:1

[Events]
//Background and Video events
0,0,"BG1.jpg",0,0
//Break Periods
//Storyboard Layer 0 (Background)
//Storyboard Layer 1 (Fail)
//Storyboard Layer 2 (Pass)
//Storyboard Layer 3 (Foreground)
//Storyboard Sound Samples
//Background Colour Transformations
3,100,163,162,255

[TimingPoints]
-1151,444.444444444444,4,2,1,40,1,0
7737,-100,4,2,0,40,0,0
7960,-100,4,2,1,40,0,0
11293,-200,4,2,1,40,0,0
12404,-100,4,2,1,40,0,0
13960,-100,4,2,0,40,0,0
14626,-100,4,2,1,40,0,0
16626,-200,4,2,1,40,0,0
17515,-100,4,2,1,40,0,0
20182,-200,4,2,1,40,0,0
20848,-100,4,2,1,40,0,0
23737,-200,4,2,1,40,0,0
24404,-100,4,2,1,40,0,0
25515,-200,4,2,1,40,0,0
26848,-100,4,2,1,40,0,0
29071,-100,4,2,0,40,0,0
29293,-100,4,2,2,40,0,0
37960,-100,4,2,1,40,0,0
39515,-100,4,2,2,40,0,0
39960,-100,4,2,1,40,0,0
43293,-100,4,2,2,40,0,0
45071,-100,4,2,1,40,0,0
46848,-100,4,2,2,40,0,0
47293,-100,4,2,2,40,0,0
48404,-100,4,2,1,40,0,0
48848,-100,4,2,1,40,0,0
49960,-100,4,2,2,40,0,0
50404,-100,4,2,1,40,0,0
52182,-100,4,2,2,40,0,0
56182,-100,4,2,1,40,0,0
57515,-100,4,2,2,40,0,1
57737,-100,4,2,1,40,0,1
62848,-100,4,2,2,40,0,1
64848,-100,4,2,1,40,0,1
68182,-200,4,2,1,40,0,1
69960,-200,4,2,2,40,0,1
71737,-100,4,2,2,40,0,1
72071,-100,4,2,1,40,0,1
77071,-100,4,2,2,40,0,1
78848,-100,4,2,1,40,0,1
80626,-100,4,2,2,40,0,1
81071,-200,4,2,2,40,0,1
82182,-100,4,2,1,40,0,0
83293,-100,4,2,1,40,0,0
83737,-100,4,2,1,35,0,0
84182,-100,4,2,1,30,0,0
84626,-100,4,2,1,25,0,0
85071,-100,4,2,1,20,0,0
85515,-100,4,2,1,15,0,0
85960,-100,4,2,1,10,0,0
86404,-100,4,2,1,9,0,0
86848,-100,4,2,1,6,0,0
87293,-100,4,2,1,5,0,0

[HitObjects]
80,192,182,6,0,P|136:176|232:208,1,140,2|0,0:0|0:0,0:0:0:0:
288,200,1071,1,0,0:0:0:0:
352,200,1293,2,0,L|496:200,1,140,2|0,0:0|0:0,0:0:0:0:
488,272,1960,2,0,L|328:272,1,140,2|0,0:0|0:0,0:0:0:0:
280,272,2848,1,0,0:0:0:0:
216,272,3071,2,0,P|136:272|80:248,1,140,2|0,0:0|0:0,0:0:0:0:
80,168,3737,1,2,0:0:0:0:
152,168,3960,1,0,0:0:0:0:
224,168,4182,6,0,P|272:152|368:192,1,140,0|0,0:0|0:0,0:0:0:0:
360,256,4848,2,0,L|208:256,1,140,2|0,0:0|0:0,0:0:0:0:
160,256,5515,2,0,L|160:168,1,70,2|0,0:0|0:0,0:0:0:0:
232,192,5960,1,0,0:0:0:0:
256,192,6182,12,0,7515,0:0:0:0:
256,192,7737,6,0,L|408:192,1,140,4|2,0:0|0:0,0:0:0:0:
464,192,8404,1,0,0:0:0:0:
464,128,8626,2,0,L|320:128,1,140,0|2,0:0|0:0,0:0:0:0:
328,192,9293,1,0,0:0:0:0:
264,192,9515,2,0,L|176:192,1,70
200,264,9960,2,0,L|352:264,1,140,2|0,0:0|0:0,0:0:0:0:
400,264,10626,5,0,0:0:0:0:
480,264,10848,1,2,0:0:0:0:
480,192,11071,1,0,0:0:0:0:
400,192,11293,2,0,L|224:192,1,175
160,192,12626,1,2,0:0:0:0:
88,192,12848,1,0,0:0:0:0:
256,192,13071,12,4,13960,0:0:0:0:
256,200,14293,6,0,L|392:200,1,105,4|0,0:0|0:0,0:0:0:0:
456,200,14848,2,0,P|424:144|296:88,1,210,2|0,0:0|0:0,0:0:0:0:
192,88,15960,2,0,P|208:152|288:216,1,140,0|0,0:0|0:0,0:0:0:0:
264,296,16626,2,0,L|368:296,1,105,2|0,0:0|0:0,0:0:0:0:
448,296,17515,1,2,0:0:0:0:
368,296,17737,1,0,0:0:0:0:
448,296,17960,2,0,L|448:208,1,70
448,152,18404,2,0,L|288:152,1,140,2|0,0:0|0:0,0:0:0:0:
320,224,19071,6,0,L|168:224,1,140,2|0,0:0|0:0,0:0:0:0:
104,224,19737,1,2,0:0:0:0:
104,152,19960,1,0,0:0:0:0:
168,152,20182,2,0,L|280:152,1,105
328,152,21071,1,2,0:0:0:0:
408,152,21293,2,0,L|408:232,1,70
328,224,21737,1,0,0:0:0:0:
248,224,21960,2,0,L|104:224,1,140,2|0,0:0|0:0,0:0:0:0:
112,144,22626,2,0,L|256:144,1,140,2|0,0:0|0:0,0:0:0:0:
248,72,23293,6,0,L|168:72,1,70,2|0,0:0|0:0,0:0:0:0:
112,72,23737,2,0,P|120:136|160:168,1,105
208,224,24626,1,2,0:0:0:0:
272,224,24848,2,0,L|272:128,1,70
272,96,25293,1,0,0:0:0:0:
336,96,25515,2,0,B|496:96|496:96|480:96,1,175,2|0,0:0|0:0,0:0:0:0:
480,168,26848,1,2,0:0:0:0:
408,168,27071,2,0,L|264:168,1,140
256,192,27737,12,0,28848,0:0:0:0:
256,200,29071,6,0,L|400:200,1,140,4|2,0:0|0:0,0:0:0:0:
400,144,29737,2,0,L|240:144,1,140,0|0,0:0|0:0,0:0:0:0:
256,80,30404,2,0,L|416:80,1,140,2|0,0:0|0:0,0:0:0:0:
392,152,31071,2,0,L|480:152,1,70,0|2,0:0|0:0,0:0:0:0:
464,232,31515,1,0,0:0:0:0:
400,232,31737,2,0,L|400:312,1,70
328,232,32182,2,0,L|288:312,1,70,2|0,0:0|0:0,0:0:0:0:
224,288,32626,6,0,P|160:296|104:280,1,105,2|2,0:0|0:0,0:0:0:0:
120,216,33293,2,0,P|128:128|152:72,1,140,0|0,0:0|0:0,0:0:0:0:
216,152,33960,2,0,L|304:152,1,70,2|0,0:0|0:0,0:0:0:0:
344,152,34404,2,0,P|408:168|440:208,2,105,0|2|0,0:0|0:0|0:0,0:0:0:0:
280,224,35515,2,0,L|192:224,1,70,0|2,0:0|0:0,0:0:0:0:
144,224,35960,1,0,0:0:0:0:
72,224,36182,2,0,P|88:160|128:72,1,140,4|2,0:0|0:0,0:0:0:0:
176,96,36848,2,0,P|224:96|344:104,1,140
312,192,37515,2,0,L|240:192,1,70,2|0,0:0|0:0,0:0:0:0:
176,184,37960,6,0,P|176:256|232:320,2,140,2|2|2,0:0|0:0|0:0,0:0:0:0:
256,224,39071,1,0,0:0:0:0:
328,224,39293,1,0,0:0:0:0:
256,224,39515,2,0,P|256:160|280:72,1,140,4|0,0:0|0:0,0:0:0:0:
200,80,40182,1,2,0:0:0:0:
128,80,40404,2,0,L|32:80,1,70,0|2,0:0|0:0,0:0:0:0:
64,160,40848,2,0,L|136:160,1,70,0|2,0:0|0:0,0:0:0:0:
208,160,41293,1,0,0:0:0:0:
280,160,41515,6,0,P|320:160|408:216,2,140,2|2|2,0:0|0:0|0:0,0:0:0:0:
248,240,42848,2,0,B|208:240|128:240|104:208,2,140,2|4|2,0:0|0:0|0:0,0:0:0:0:
312,240,43960,1,0,0:0:0:0:
384,240,44182,2,0,P|392:192|360:88,2,140,0|2|2,0:0|0:0|0:0,0:0:0:0:
296,176,45515,2,0,L|136:176,2,140,2|2|2,0:0|0:0|0:0,0:0:0:0:
368,176,46848,2,0,P|360:248|312:296,1,140,4|2,0:0|0:0,0:0:0:0:
256,296,47515,6,0,L|104:296,1,140
120,216,48182,1,2,0:0:0:0:
192,216,48404,2,2,L|352:216,1,140,0|2,0:0|0:0,0:0:0:0:
320,144,49293,2,0,L|152:144,1,140,2|2,0:0|0:0,0:0:0:0:
112,144,49960,1,2,0:0:0:0:
40,144,50182,1,0,0:0:0:0:
40,216,50404,2,0,L|160:216,2,105,2|2|0,0:0|0:0|0:0,0:0:0:0:
40,296,51293,2,0,L|144:296,1,105,2|2,0:0|0:0,0:0:0:0:
208,296,51960,1,0,0:0:0:0:
280,296,52182,2,0,P|336:296|400:288,2,105,2|2|2,0:0|0:0|0:0,0:0:0:0:
280,216,53071,2,0,P|192:208|168:192,2,105,2|2|2,0:0|0:0|0:0,0:0:0:0:
344,216,53960,1,4,0:0:0:0:
256,192,54182,12,0,55737,0:0:0:0:
256,200,56182,5,2,0:0:0:0:
320,200,56626,1,2,0:0:0:0:
392,200,57071,1,2,0:0:0:0:
472,200,57515,2,0,P|432:128|376:96,1,140,4|8,0:0|0:0,0:0:0:0:
304,96,58182,2,0,L|144:96,1,140,4|4,0:0|0:0,0:0:0:0:
96,96,58848,2,0,P|88:192|128:248,1,140,8|4,0:0|0:0,0:0:0:0:
160,224,59515,2,0,L|248:224,1,70,0|8,0:0|0:0,0:0:0:0:
288,224,59960,2,0,P|336:216|408:136,1,140,4|4,0:0|0:0,0:0:0:0:
408,88,60626,6,0,B|408:40|408:40|304:40,2,140,8|4|8,0:0|0:0|0:0,0:0:0:0:
368,160,61737,1,4,0:0:0:0:
288,160,61960,2,0,L|136:160,1,140,4|8,0:0|0:0,0:0:0:0:
152,232,62626,1,4,0:0:0:0:
224,232,62848,1,4,0:0:0:0:
352,232,63293,1,4,0:0:0:0:
448,232,63737,1,4,0:0:0:0:
448,152,64182,1,4,0:0:0:0:
360,152,64626,2,0,L|208:152,1,140,4|8,0:0|0:0,0:0:0:0:
160,152,65293,1,0,0:0:0:0:
80,152,65515,2,0,P|64:224|112:272,1,140,4|8,0:0|0:0,0:0:0:0:
160,272,66182,1,4,0:0:0:0:
232,272,66404,2,0,L|400:272,1,140,0|8,0:0|0:0,0:0:0:0:
432,272,67071,1,0,0:0:0:0:
488,224,67293,6,0,P|464:160|392:112,1,140,4|8,0:0|0:0,0:0:0:0:
320,128,68182,2,4,L|176:128,2,140,4|4|4,0:0|0:0|0:0,0:0:0:0:
376,128,70404,1,4,0:0:0:0:
448,128,70848,1,4,0:0:0:0:
448,200,71293,1,4,0:0:0:0:
376,200,71737,2,0,L|264:200,2,105,4|0|0,0:0|0:0|0:0,0:0:0:0:
424,272,72848,1,4,0:0:0:0:
352,272,73071,1,8,0:0:0:0:
424,200,73293,1,4,0:0:0:0:
360,200,73515,2,0,L|248:200,2,105,0|0|0,0:0|0:0|0:0,0:0:0:0:
360,120,74626,5,0,0:0:0:0:
296,120,74848,2,0,L|200:120,1,70,8|0,0:0|0:0,0:0:0:0:
160,120,75293,2,0,P|160:160|224:216,2,105,4|4|4,0:0|0:0|0:0,0:0:0:0:
256,136,76182,2,0,L|376:136,2,105,4|4|4,0:0|0:0|0:0,0:0:0:0:
192,136,77071,1,4,0:0:0:0:
112,136,77515,1,4,0:0:0:0:
112,216,77960,1,4,0:0:0:0:
192,216,78404,1,4,0:0:0:0:
256,216,78848,2,0,L|416:216,1,140,0|8,0:0|0:0,0:0:0:0:
472,216,79737,2,0,P|448:152|408:120,2,105,0|0|0,0:0|0:0|0:0,0:0:0:0:
416,256,80626,1,4,0:0:0:0:
320,256,81071,6,0,L|144:256,1,175,4|0,0:0|0:0,0:0:0:0:
152,176,82404,2,0,L|272:176,2,105,2|0|0,0:0|0:0|0:0,0:0:0:0:
256,192,83293,12,0,87293,0:0:0:0:
