osu file format v14

[General]
AudioFilename: Tsunagu Kizuna.mp3
AudioLeadIn: 1000
PreviewTime: 56819
Countdown: 0
SampleSet: Normal
StackLeniency: 0.7
Mode: 1
LetterboxInBreaks: 0
WidescreenStoryboard: 0

[Editor]
DistanceSpacing: 0.8
BeatDivisor: 4
GridSize: 32
TimelineZoom: 1

[Metadata]
Title:Tsunagu Kizuna
TitleUnicode:ツナグキズナ
Artist:Team. Nekokan[Neko] feat. Amaoto Junca
ArtistUnicode:Team. ねこかん[猫] feat. 天乙准花
Creator:Nardoxyribonucleic
Version:Muzukashii
Source:ヨスガノソラ
Tags:Yosuga no Sora Insert Song TV Size Kyle Y IamKwaN StarForYou
BeatmapID:302559
BeatmapSetID:93566

[Difficulty]
HPDrainRate:5
CircleSize:5
OverallDifficulty:4
ApproachRate:5
SliderMultiplier:1.4
SliderTickRate:1

[Events]
//Background and Video events
0,0,"Sora2.jpg",0,120
//Break Periods
//Storyboard Layer 0 (Background)
//Storyboard Layer 1 (Fail)
//Storyboard Layer 2 (Pass)
//Storyboard Layer 3 (Foreground)
//Storyboard Sound Samples

[TimingPoints]
-292,444.444444444444,4,1,0,65,1,0
15707,-100,4,1,0,55,0,0
29930,-100,4,1,0,65,0,0
44152,-100,4,1,0,75,0,0
58374,-100,4,1,0,85,0,1
81485,-100,4,1,0,75,0,0
84152,-100,4,1,0,50,0,0
85041,-100,4,1,0,35,0,0
85930,-100,4,1,0,20,0,0
86819,-100,4,1,0,5,0,0

[HitObjects]
256,192,1041,5,0,0:0:0:0:
256,192,1263,1,0,0:0:0:0:
256,192,1485,1,8,0:0:0:0:
256,192,1930,1,0,0:0:0:0:
256,192,2152,1,8,0:0:0:0:
256,192,2596,1,0,0:0:0:0:
256,192,2819,1,8,0:0:0:0:
256,192,3263,1,8,0:0:0:0:
256,192,3707,1,0,0:0:0:0:
256,192,3930,1,8,0:0:0:0:
256,192,4374,1,0,0:0:0:0:
256,192,4596,1,8,0:0:0:0:
256,192,4819,1,0,0:0:0:0:
256,192,5041,1,8,0:0:0:0:
256,192,5485,1,0,0:0:0:0:
256,192,5707,1,8,0:0:0:0:
256,192,6152,1,0,0:0:0:0:
256,192,6374,1,0,0:0:0:0:
256,192,6596,1,8,0:0:0:0:
256,192,6819,1,8,0:0:0:0:
256,192,7263,1,8,0:0:0:0:
256,192,7485,1,0,0:0:0:0:
256,192,7707,5,8,0:0:0:0:
256,192,7930,1,8,0:0:0:0:
256,192,8152,1,8,0:0:0:0:
256,192,8263,1,8,0:0:0:0:
256,192,8374,1,8,0:0:0:0:
256,192,8596,1,0,0:0:0:0:
256,192,9041,1,0,0:0:0:0:
256,192,9263,1,8,0:0:0:0:
256,192,9930,1,0,0:0:0:0:
256,192,10374,1,0,0:0:0:0:
256,192,10596,1,8,0:0:0:0:
256,192,11263,1,8,0:0:0:0:
256,192,11485,1,0,0:0:0:0:
256,192,11707,1,8,0:0:0:0:
256,192,11930,1,8,0:0:0:0:
256,192,12152,1,0,0:0:0:0:
256,192,12596,1,0,0:0:0:0:
256,192,12819,1,0,0:0:0:0:
256,192,13263,1,8,0:0:0:0:
256,192,13374,1,8,0:0:0:0:
256,192,13485,1,8,0:0:0:0:
256,192,13707,1,4,0:0:0:0:
256,192,14819,1,8,0:0:0:0:
256,192,15152,1,0,0:0:0:0:
256,192,15485,1,0,0:0:0:0:
256,192,15707,1,4,0:0:0:0:
256,192,16374,1,8,0:0:0:0:
256,192,17041,1,0,0:0:0:0:
256,192,17263,1,0,0:0:0:0:
256,192,17485,1,0,0:0:0:0:
256,192,18152,1,0,0:0:0:0:
256,192,18374,1,8,0:0:0:0:
256,192,18596,1,0,0:0:0:0:
256,192,18819,1,8,0:0:0:0:
256,192,19041,1,0,0:0:0:0:
256,192,19263,1,0,0:0:0:0:
256,192,19930,1,8,0:0:0:0:
256,192,20596,1,0,0:0:0:0:
256,192,20819,1,0,0:0:0:0:
256,192,21041,1,0,0:0:0:0:
256,192,21707,1,0,0:0:0:0:
256,192,21930,1,8,0:0:0:0:
256,192,22152,1,8,0:0:0:0:
256,192,22374,1,0,0:0:0:0:
256,192,22596,1,0,0:0:0:0:
256,192,22819,1,8,0:0:0:0:
256,192,23485,1,0,0:0:0:0:
256,192,23707,1,8,0:0:0:0:
256,192,24152,1,0,0:0:0:0:
256,192,24374,1,0,0:0:0:0:
256,192,24596,1,0,0:0:0:0:
256,192,25263,1,0,0:0:0:0:
256,192,25485,1,8,0:0:0:0:
256,192,25707,1,8,0:0:0:0:
256,192,25930,1,8,0:0:0:0:
256,192,26152,1,0,0:0:0:0:
256,192,26374,1,8,0:0:0:0:
256,192,26819,1,0,0:0:0:0:
256,192,27041,1,8,0:0:0:0:
256,192,27485,1,0,0:0:0:0:
256,192,27707,1,8,0:0:0:0:
256,192,27930,1,0,0:0:0:0:
256,192,28152,1,0,0:0:0:0:
256,192,29041,1,8,0:0:0:0:
256,192,29263,1,0,0:0:0:0:
256,192,29485,1,0,0:0:0:0:
256,192,29707,5,12,0:0:0:0:
256,192,29930,1,4,0:0:0:0:
256,192,30374,1,8,0:0:0:0:
256,192,30596,1,0,0:0:0:0:
256,192,30819,1,0,0:0:0:0:
256,192,30930,1,0,0:0:0:0:
256,192,31041,1,0,0:0:0:0:
256,192,31263,1,8,0:0:0:0:
256,192,31707,1,0,0:0:0:0:
256,192,32152,1,8,0:0:0:0:
256,192,32374,1,0,0:0:0:0:
256,192,32596,1,8,0:0:0:0:
256,192,32819,1,8,0:0:0:0:
256,192,32930,1,8,0:0:0:0:
256,192,33041,1,8,0:0:0:0:
256,192,33263,1,0,0:0:0:0:
256,192,33485,1,0,0:0:0:0:
256,192,33819,1,8,0:0:0:0:
256,192,34152,1,0,0:0:0:0:
256,192,34596,1,0,0:0:0:0:
256,192,34819,1,8,0:0:0:0:
256,192,35041,1,0,0:0:0:0:
256,192,35263,1,0,0:0:0:0:
256,192,35596,1,8,0:0:0:0:
256,192,35930,1,0,0:0:0:0:
256,192,36374,1,0,0:0:0:0:
256,192,36596,1,8,0:0:0:0:
256,192,36819,1,0,0:0:0:0:
256,192,36930,1,0,0:0:0:0:
256,192,37041,1,0,0:0:0:0:
256,192,37263,1,0,0:0:0:0:
256,192,37485,1,8,0:0:0:0:
256,192,37930,1,0,0:0:0:0:
256,192,38374,1,8,0:0:0:0:
256,192,38596,1,0,0:0:0:0:
256,192,38819,1,8,0:0:0:0:
256,192,39263,1,8,0:0:0:0:
256,192,39485,1,8,0:0:0:0:
256,192,39596,1,8,0:0:0:0:
256,192,39707,1,8,0:0:0:0:
256,192,39930,1,0,0:0:0:0:
256,192,40152,1,8,0:0:0:0:
256,192,40374,1,0,0:0:0:0:
256,192,40819,1,0,0:0:0:0:
256,192,41041,1,8,0:0:0:0:
256,192,41263,1,0,0:0:0:0:
256,192,41374,1,0,0:0:0:0:
256,192,41485,1,0,0:0:0:0:
256,192,41707,1,0,0:0:0:0:
256,192,41930,1,8,0:0:0:0:
256,192,42152,1,0,0:0:0:0:
256,192,43041,1,0,0:0:0:0:
256,192,43263,1,8,0:0:0:0:
256,192,43707,1,8,0:0:0:0:
256,192,44152,5,4,0:0:0:0:
256,192,44596,1,8,0:0:0:0:
256,192,44819,1,0,0:0:0:0:
256,192,45263,1,8,0:0:0:0:
256,192,45485,1,8,0:0:0:0:
256,192,45707,1,0,0:0:0:0:
256,192,45930,1,8,0:0:0:0:
256,192,46374,1,8,0:0:0:0:
256,192,46596,1,0,0:0:0:0:
256,192,46707,1,0,0:0:0:0:
256,192,46819,1,0,0:0:0:0:
256,192,47041,1,0,0:0:0:0:
256,192,47263,1,8,0:0:0:0:
256,192,47485,1,0,0:0:0:0:
256,192,47707,1,8,0:0:0:0:
256,192,48152,1,0,0:0:0:0:
256,192,48374,1,0,0:0:0:0:
256,192,48819,1,0,0:0:0:0:
256,192,49041,1,8,0:0:0:0:
256,192,49263,1,0,0:0:0:0:
256,192,49485,1,0,0:0:0:0:
256,192,49707,1,8,0:0:0:0:
256,192,50152,1,8,0:0:0:0:
256,192,50596,1,0,0:0:0:0:
256,192,50819,1,8,0:0:0:0:
256,192,51041,1,0,0:0:0:0:
256,192,51263,1,8,0:0:0:0:
256,192,51596,1,0,0:0:0:0:
256,192,51930,1,8,0:0:0:0:
256,192,52596,1,0,0:0:0:0:
256,192,53041,1,12,0:0:0:0:
256,192,53374,1,0,0:0:0:0:
256,192,53707,1,0,0:0:0:0:
256,192,53930,1,12,0:0:0:0:
256,192,54263,1,8,0:0:0:0:
256,192,54596,1,8,0:0:0:0:
256,192,54819,1,4,0:0:0:0:
256,192,55707,1,0,0:0:0:0:
256,192,56152,1,8,0:0:0:0:
256,192,56596,1,8,0:0:0:0:
256,192,57041,1,4,0:0:0:0:
256,192,57485,1,12,0:0:0:0:
256,192,57930,1,12,0:0:0:0:
256,192,58374,1,4,0:0:0:0:
256,192,58707,1,0,0:0:0:0:
256,192,59041,1,8,0:0:0:0:
256,192,59263,1,0,0:0:0:0:
256,192,59374,1,0,0:0:0:0:
256,192,59485,1,0,0:0:0:0:
256,192,59707,1,8,0:0:0:0:
256,192,59930,1,8,0:0:0:0:
256,192,60152,1,0,0:0:0:0:
256,192,60485,1,0,0:0:0:0:
256,192,60819,1,8,0:0:0:0:
256,192,61707,1,0,0:0:0:0:
256,192,61930,1,8,0:0:0:0:
256,192,62263,1,0,0:0:0:0:
256,192,62596,1,0,0:0:0:0:
256,192,62819,1,8,0:0:0:0:
256,192,63152,1,0,0:0:0:0:
256,192,63485,1,12,0:0:0:0:
256,192,63707,1,8,0:0:0:0:
256,192,64152,1,8,0:0:0:0:
256,192,64374,1,0,0:0:0:0:
256,192,64485,1,0,0:0:0:0:
256,192,64596,1,0,0:0:0:0:
256,192,64819,1,0,0:0:0:0:
256,192,65041,1,8,0:0:0:0:
256,192,65485,1,0,0:0:0:0:
256,192,65930,1,8,0:0:0:0:
256,192,66152,1,0,0:0:0:0:
256,192,66374,1,8,0:0:0:0:
256,192,66707,1,0,0:0:0:0:
256,192,67041,1,8,0:0:0:0:
256,192,67263,1,0,0:0:0:0:
256,192,67930,1,0,0:0:0:0:
256,192,68152,1,8,0:0:0:0:
256,192,68596,1,8,0:0:0:0:
256,192,69041,1,0,0:0:0:0:
256,192,69485,1,8,0:0:0:0:
256,192,69707,1,0,0:0:0:0:
256,192,69930,1,8,0:0:0:0:
256,192,70152,1,8,0:0:0:0:
256,192,70263,1,8,0:0:0:0:
256,192,70374,1,8,0:0:0:0:
256,192,70596,1,0,0:0:0:0:
256,192,70819,1,12,0:0:0:0:
256,192,71263,1,4,0:0:0:0:
256,192,71707,1,12,0:0:0:0:
256,192,72152,1,12,0:0:0:0:
256,192,72596,1,4,0:0:0:0:
256,192,72930,1,0,0:0:0:0:
256,192,73263,1,8,0:0:0:0:
256,192,73485,1,0,0:0:0:0:
256,192,73596,1,0,0:0:0:0:
256,192,73707,1,0,0:0:0:0:
256,192,73930,1,8,0:0:0:0:
256,192,74152,1,8,0:0:0:0:
256,192,74374,1,0,0:0:0:0:
256,192,74707,1,0,0:0:0:0:
256,192,75041,1,8,0:0:0:0:
256,192,75930,1,0,0:0:0:0:
256,192,76152,1,8,0:0:0:0:
256,192,76485,1,0,0:0:0:0:
256,192,76819,1,0,0:0:0:0:
256,192,77041,1,8,0:0:0:0:
256,192,77374,1,0,0:0:0:0:
256,192,77707,1,12,0:0:0:0:
256,192,77930,1,8,0:0:0:0:
256,192,78374,1,8,0:0:0:0:
256,192,78596,1,0,0:0:0:0:
256,192,78707,1,0,0:0:0:0:
256,192,78819,1,0,0:0:0:0:
256,192,79041,1,0,0:0:0:0:
256,192,79263,1,8,0:0:0:0:
256,192,79707,1,0,0:0:0:0:
256,192,80152,1,8,0:0:0:0:
256,192,80374,1,0,0:0:0:0:
256,192,80596,5,8,0:0:0:0:
256,192,80930,1,0,0:0:0:0:
256,192,81263,1,0,0:0:0:0:
256,192,81485,1,12,0:0:0:0:
256,192,81930,1,12,0:0:0:0:
256,192,83041,1,0,0:0:0:0:
256,192,83263,1,8,0:0:0:0:
256,192,83485,1,0,0:0:0:0:
256,192,83596,1,0,0:0:0:0:
256,192,83819,1,0,0:0:0:0:
256,192,83930,1,0,0:0:0:0:
256,192,84152,12,0,86819,0:0:0:0:
