osu file format v9

[General]
AudioFilename: ver .mp3
AudioLeadIn: 0
PreviewTime: 66197
Countdown: 1
SampleSet: Soft
StackLeniency: 0.7
Mode: 0
LetterboxInBreaks: 1

[Editor]
DistanceSpacing: 1
BeatDivisor: 2
GridSize: 8

[Metadata]
Title:Connect (Arrange Ver.)
Artist:Team dmp
Creator:se-sukeEila
Version:Easy
Source:Puella Magi Madoka Magica
Tags:

[Difficulty]
HPDrainRate:4
CircleSize:3
OverallDifficulty:3
ApproachRate:3
SliderMultiplier:0.8
SliderTickRate:1

[Events]
//Background and Video events
0,0,"18272872.png"
//Break Periods
2,12572,21903
2,90743,98703
//Storyboard Layer 0 (Background)
//Storyboard Layer 1 (Fail)
//Storyboard Layer 2 (Pass)
//Storyboard Layer 3 (Foreground)
//Storyboard Sound Samples
//Background Colour Transformations
3,100,163,162,255

[TimingPoints]
1401,342.857142857143,4,2,0,65,1,0
67229,-100,4,2,0,75,0,1
89168,-100,4,2,0,65,0,0
113858,-100,4,2,0,65,0,1

[Colours]
Combo1 : 0,255,0
Combo2 : 0,255,255
Combo3 : 255,128,64
Combo4 : 255,128,255

[HitObjects]
168,88,1401,2,0,B|256:40|336:96,1,160,0|8
464,160,2772,1,2
328,248,3458,2,0,B|248:296|160:240,1,160,8|4
240,104,4829,1,0
88,152,5515,2,0,B|88:56,2,80,8|0|0
88,312,6886,5,4
248,32,8258,1,4
408,312,9629,1,4
256,192,10315,12,0,12372
72,96,23343,6,0,B|160:96,1,80
232,96,24029,1,8
392,96,24715,2,0,B|392:192,1,80,0|2
232,192,25743,2,0,B|128:192,1,80,0|4
72,192,26429,1,0
288,296,27458,6,0,B|120:296,1,160,8|8
48,152,28829,2,0,B|88:72|184:48,1,160
328,64,30201,2,0,B|407:83|447:163,1,160
216,240,31572,5,4
336,136,32258,1,4
184,88,32943,2,0,B|288:88,1,80,8|0
264,168,33629,2,0,B|176:168,1,80,8|0
104,168,34315,5,4
176,312,35001,1,2
336,312,35686,1,2
248,176,36372,1,2
120,80,37058,6,0,B|216:80,1,80,4|0
280,80,37743,1,2
416,168,38429,1,0
288,264,39115,1,4
96,192,39801,6,0,B|160:136,1,80,4|0
392,104,41172,2,0,B|320:176,1,80,4|0
280,216,41858,1,0
128,264,42543,6,0,B|128:128,2,120,4|4|4
208,264,43915,2,0,B|320:264,1,80
288,184,44601,1,8
136,144,45286,6,4,B|152:64|248:0|352:64|360:168,1,320
72,288,48029,6,8,B|256:288,2,160
352,136,50772,6,8,B|168:136,2,160
224,240,52829,1,2
304,104,53515,5,2
384,240,54201,1,2
384,240,54886,2,0,B|216:240,1,160,4|4
64,240,56258,5,4
144,104,56943,1,0
224,240,57629,1,2
304,104,58315,1,0
304,104,59001,2,4,B|408:128|352:256,2,160
144,80,61058,1,0
272,168,61743,5,4
128,240,62429,2,0,B|184:304|288:280,1,160,0|4
304,128,63801,1,2
256,192,64486,12,4,65858
280,136,66543,6,0,B|176:136,1,80
120,136,67229,1,4
120,296,67915,1,2
280,296,68601,1,4
280,296,69286,2,0,B|280:184,1,80,2|0
280,136,69972,5,4
440,136,70658,1,8
280,136,71343,2,0,B|168:136,2,80,2|0|2
120,136,72715,5,4
120,296,73401,1,4
264,232,74086,2,0,B|152:232,1,80,4|0
160,152,74772,2,0,B|272:152,1,80
312,120,75458,6,0,B|400:120,1,80,4|0
392,200,76143,2,0,B|304:200,1,80
240,168,76829,1,8
184,224,77172,1,8
128,168,77515,1,8
184,112,77858,1,8
248,64,78201,6,0,B|328:72|376:176,1,160,4|0
224,232,79572,2,0,B|136:232,2,80
312,232,80601,1,0
312,232,80943,6,0,B|312:72,2,160,4|0|4
192,120,83001,1,2
192,120,83686,2,0,B|192:296,2,160
352,88,85743,6,0,B|352:176,1,80
352,248,86429,1,8
272,248,86772,1,8
192,248,87115,1,8
112,248,87458,1,8
120,168,87801,2,0,B|128:120|200:96,2,80,4|0|0
256,192,89172,12,0,90543
256,192,100143,12,0,101515
104,112,102201,6,0,B|272:112,1,160,0|4
344,112,103229,1,2
344,272,103915,1,0
264,272,104258,2,0,B|80:272,1,160,4|0
104,192,105286,1,2
184,192,105629,2,0,B|360:192,1,160,4|0
216,96,107001,2,0,B|312:96,2,80
120,224,108372,6,4,B|136:304|232:368|336:304|344:200,1,320
392,64,110429,1,0
232,64,111115,2,0,B|48:64,1,160
72,224,112486,2,0,B|240:224,1,160
232,64,113858,5,4
392,64,114543,1,0
392,224,115229,1,0
232,224,115915,1,0
128,104,116601,6,0,B|80:184|128:272,1,160,4|0
272,320,117972,2,0,B|312:246|264:166,1,160,4|0
392,64,119343,5,8
392,144,119686,1,8
392,224,120029,1,8
392,304,120372,1,8
312,304,120715,2,0,B|200:304,1,80,8|0
152,304,121401,1,0
152,224,121743,1,0
152,144,122086,2,0,B|328:144,1,160,4|0
376,192,123115,1,0
320,248,123458,2,0,B|136:248,1,160,4|0
256,192,124829,12,0,127572
256,144,128943,5,2
320,192,129286,1,2
256,240,129629,1,2
192,192,129972,1,2
256,192,130315,12,0,131686
