osu file format v4

[General]
AudioFilename: Maemuki Roketto Dan.mp3
AudioLeadIn: 0
AudioHash: 73b3f70014dc81cd525921e12b92cda9
PreviewTime: 52089
Countdown: 1
SampleSet: Normal
EditorBookmarks: 7357,68053,78169,123058,136335,168571

[Metadata]
Title:Maemuki Roketto-dan!
Artist:Team Rocket
Creator:Sinistro
Version:Normal

[Difficulty]
HPDrainRate:4
CircleSize:4
OverallDifficulty:4
SliderMultiplier: 1.4
SliderTickRate: 1

[Events]
//Background and Video events
0,-100000,"Team Rocket.jpg"
//Break Periods
2,68253,76729
2,123251,135128
//Storyboard Layer 0 (Background)
//Storyboard Layer 1 (Failing)
//Storyboard Layer 2 (Passing)
//Storyboard Layer 3 (Foreground)
//Storyboard Sound Samples
//Background Colour Transformations
3,100,163,162,255

[TimingPoints]
2300,316.105579263474,4,1,0,100

[HitObjects]
480,197,7357,1,0
255,194,7989,1,0
31,195,8622,1,0
254,194,9254,1,0
41,123,9886,5,0
256,61,10518,1,0
471,122,11150,1,0
309,168,11625,6,2,B|309:168|303:229|303:281|303:364|228:364|146:364|72:364|72:282|72:229|68:156,1,490
74,60,13047,5,0
297,59,13679,1,0
183,251,14312,1,0
256,192,14944,12,4,16840
256,37,17473,1,0
31,34,18105,1,0
137,230,18737,1,0
360,226,19369,1,0
181,353,20001,6,2,B|181:353|323:353,2,140
256,141,21266,1,2
479,141,21898,1,2
274,48,22530,6,0,B|274:48|474:251,1,280
254,186,23795,1,0
256,297,24111,1,0
162,234,24427,1,0
162,345,24743,1,6
50,342,25059,6,0,B|50:342|50:64,1,262.5
288,77,26324,1,2
399,79,26640,1,2
399,190,26956,1,4
256,192,27588,12,4,32013
65,320,32646,1,0
176,319,32962,1,0
288,317,33278,1,0
482,207,33910,5,0
370,206,34226,1,0
258,206,34542,1,0
34,202,35174,6,2,B|34:202|34:134|57:93|84:64|112:26|183:26|218:64|243:95|253:140|259:211,1,420
146,207,36439,5,0
90,304,36755,1,0
201,304,37071,1,0
424,303,37703,6,2,B|424:303|424:156,3,140
426,50,38968,1,0
327,103,39284,1,0
215,104,39600,1,0
103,105,39916,1,6
105,216,40232,6,0,B|105:216|105:267|123:310|158:340|175:342,2,140
103,103,41180,1,0
199,162,41497,2,6,B|199:162|485:161,1,280
327,326,42761,6,0,B|327:326|282:279|234:279|208:315|178:356|121:356|70:316,1,280
72,204,43709,1,2
72,92,44025,2,0,B|72:92|117:45|165:45|191:81|221:122|278:122|329:82,1,280
439,81,44974,1,2
440,192,45290,6,0,B|440:192|395:239|347:239|321:203|291:162|234:162|183:202,1,280
72,202,46238,1,2
72,314,46554,2,0,B|72:314|117:361|165:361|191:325|221:284|278:284|329:324,1,280
476,155,47819,6,0,B|476:155|183:155,1,280
84,153,48767,1,4
255,297,49399,5,2
256,185,49715,2,0,B|256:185|403:185,2,140
480,182,50980,1,0
256,191,51612,5,2
161,130,51928,1,2
69,65,52244,1,6
292,64,52876,6,2,B|292:64|421:320,2,280
67,64,54773,1,2
178,64,55089,1,2
289,64,55405,6,2,B|289:64|160:320,2,280
383,267,57302,1,6
159,266,57934,6,0,B|159:266|306:266,3,140
233,174,59199,1,0
456,177,59831,1,2
454,65,60147,1,2
342,62,60463,2,0,B|342:62|54:62,3,280
256,192,62992,12,4,68049
49,45,78165,6,0,B|49:45|193:45,3,140
300,47,79429,1,0
411,48,79745,1,0
355,145,80061,1,0
468,337,80694,6,0,B|468:337|309:337,3,140
216,336,81958,1,2
220,111,82590,1,2
443,109,83223,6,2,B|443:109|338:214,3,140
254,275,84487,1,0
257,163,84803,2,2,B|257:163|106:163,1,140
121,50,85435,1,6
232,49,85751,6,0,B|232:49|375:49,1,140
456,122,86384,2,0,B|456:122|313:122,1,140
394,201,87016,1,2
476,276,87332,1,2
397,355,87648,1,6
180,296,88280,6,2,C|180:296|179:74|196:47|313:57|334:113|306:155|182:162|348:299,2,840
462,263,93338,6,0,B|462:263|462:119,3,140
350,116,94602,1,0
257,52,94918,1,0
164,115,95235,1,0
186,337,95867,6,0,B|186:337|345:337,3,140
437,335,97131,1,2
441,110,97763,1,2
217,104,98396,6,2,B|217:104|112:209,3,140
115,314,99660,1,0
226,314,99976,1,6
226,314,100134,1,6
394,313,100608,5,6
395,201,100924,2,0,B|395:201|395:58,1,140
283,63,101557,2,0,B|283:63|283:206,1,140
171,204,102189,1,2
114,300,102505,1,2
226,300,102821,1,6
449,300,103453,6,0,B|449:300|402:255|402:207|438:181|479:151|479:94|439:43,1,280
327,45,104402,1,2
215,47,104718,2,0,B|215:47|262:92|262:140|226:166|185:196|185:253|225:304,1,280
111,300,105666,1,2
222,301,105982,6,0,B|222:301|267:254|315:254|341:290|371:331|428:331|479:291,1,280
477,180,106930,1,2
472,67,107247,2,0,B|472:67|427:114|379:114|353:78|323:37|266:37|215:77,1,280
216,285,108471,6,0,B|216:285|69:285,2,140
342,285,109459,1,2
342,285,109617,1,2
343,173,109933,5,2
341,61,110250,1,2
341,61,110408,2,2,B|341:61|48:61,1,280
62,285,111672,1,0
286,282,112304,5,2
397,283,112620,1,2
397,171,112936,1,6
173,161,113569,6,2,B|173:161|429:32,2,280
381,242,115465,1,2
437,338,115781,1,2
325,337,116098,6,2,B|325:337|69:208,2,280
278,117,117994,1,2
56,152,118626,6,0,B|56:152|56:299,3,140
168,292,119891,1,0
169,68,120523,1,2
280,67,120839,1,2
391,66,121155,2,0,B|391:66|391:354,3,280
362,88,136328,5,0
138,88,136960,1,0
255,281,137593,1,0
254,57,138225,1,0
477,57,138857,5,0
477,168,139173,1,2
478,279,139489,1,0
282,168,140122,5,2
282,56,140438,1,2
186,113,140754,2,2,B|186:113|132:113|84:130|84:199|84:267|130:283|187:283,1,280
407,282,142018,1,0
408,58,142650,5,0
296,58,142966,1,0
184,57,143283,2,2,B|184:57|36:57,1,140
42,168,143915,6,2,B|42:168|332:167,1,280
467,337,145179,1,2
243,337,145811,1,2
70,194,146444,6,0,B|70:194|222:194,3,140
322,194,147708,2,2,B|322:194|474:194,3,140
460,82,148972,2,0,B|460:82|306:82,1,140
208,80,149605,2,0,B|208:80|54:80,1,140
66,192,150237,2,2,B|66:192|66:335,2,140
256,73,151501,5,0
257,184,151817,1,0
257,295,152134,1,0
481,293,152766,5,2
482,181,153082,1,2
482,69,153398,1,2
258,65,154030,5,0
146,65,154346,1,0
34,66,154662,1,0
31,290,155295,5,6
142,290,155611,1,6
254,291,155927,1,6
478,124,156717,6,2,B|478:124|320:124,4,140
339,219,158456,1,0
59,218,159246,6,2,B|59:218|214:218,2,140
200,308,160352,1,2
424,310,160985,1,2
169,194,161775,5,0
169,83,162091,1,0
224,83,162249,2,2,B|224:83|376:83,4,140
256,192,164146,12,4,168571
