osu file format v5

[General]
AudioFilename: Double Trouble (Team Rocket).mp3
AudioLeadIn: 0
PreviewTime: -1
Countdown: 1
SampleSet: Normal

[Metadata]
Title:Double Trouble
Artist:Team Rocket
Creator:Neku
Version:Magikarp

[Difficulty]
HPDrainRate:5
CircleSize:5
OverallDifficulty:5
SliderMultiplier:1.4
SliderTickRate:1

[Events]
//Background and Video events
0,0,"teamrocket.jpg"
//Break Periods
2,160429,171807
2,209180,211113
//Storyboard Layer 0 (Background)
//Storyboard Layer 1 (Failing)
//Storyboard Layer 2 (Passing)
//Storyboard Layer 3 (Foreground)
//Storyboard Sound Samples
//Background Colour Transformations
3,100,163,162,255

[TimingPoints]
8980,555.555555555556,4,1,0,100

[HitObjects]
192,192,10646,1,0
448,192,11757,1,0
352,192,12313,1,0
256,160,15091,1,0
160,384,16202,1,0
256,160,18424,1,0
224,192,20646,1,0
352,192,21202,1,0
64,192,22868,1,0
160,192,23424,1,0
256,160,26202,1,0
256,256,27313,1,0
256,0,28424,1,0
256,192,29535,1,0
32,256,30646,5,0
224,160,31757,1,0
288,192,32313,1,0
416,0,33424,1,0
352,160,34535,1,0
32,192,36202,1,0
128,224,36757,1,0
224,224,37313,1,0
320,160,37868,1,0
64,256,39535,1,0
160,192,40091,1,0
352,256,41202,1,0
384,32,42313,1,0
192,160,43424,1,0
128,160,46618,5,0
256,192,47313,1,0
352,224,47868,1,0
256,32,48980,1,0
128,224,50091,1,0
320,192,51202,1,0
128,256,52174,5,0
224,256,52730,1,0
320,192,53424,1,0
96,224,54535,5,0
288,256,55507,1,0
320,128,56063,1,0
224,192,56757,1,0
160,256,57174,1,0
128,192,59535,5,0
320,224,60646,1,0
96,192,61757,1,0
288,128,62868,1,0
128,256,63980,1,0
288,128,65091,1,0
192,320,66202,1,0
224,128,67313,1,0
224,352,68424,1,0
224,128,69535,1,0
224,320,70646,1,0
224,192,71202,1,0
352,192,71757,1,0
64,192,72591,2,0,B|64:32,2,140
160,64,74535,6,0,B|384:128,1,210
320,224,76202,1,0
0,128,77868,5,0
160,160,78424,1,0
320,224,79535,1,0
160,96,80646,1,0
288,256,81757,1,0
96,224,82868,1,0
96,0,83980,2,0,B|384:352,1,420
384,128,86757,2,0,B|64:256,1,280
160,192,89535,1,0
256,192,90091,1,0
320,256,90646,1,0
416,192,91202,1,0
480,192,95091,5,0
256,192,96202,1,0
224,256,97313,1,0
160,96,98424,1,0
352,192,99535,1,0
128,192,100646,1,0
256,320,101757,1,0
352,160,102868,1,0
192,192,104535,1,0
448,288,106202,1,0
256,224,107313,1,0
160,192,107868,1,0
512,160,109535,1,0
256,256,110646,1,0
64,160,113146,6,0,B|352:160|224:320|64:128|96:96,3,350
256,192,117313,5,0
224,320,117868,1,0
192,192,118424,1,0
416,192,119535,1,0
224,256,120646,1,0
192,32,121757,1,0
352,160,122868,1,0
192,288,123980,1,0
128,96,125091,1,0
288,128,126202,1,0
224,320,127313,1,0
96,160,128424,1,0
64,192,129535,2,0,B|448:128,2,280
192,352,132730,2,0,B|192:32,1,315
288,384,135785,5,0
224,224,136757,1,0
320,160,137313,1,0
256,128,137730,1,0
64,256,138841,1,0
128,192,139535,5,0
32,128,140646,2,0,B|384:128|416:128,1,350
352,288,142868,1,0
128,256,143980,1,0
288,128,145091,1,0
96,64,146202,1,0
128,256,147313,1,0
352,224,149535,1,0
224,256,150091,1,0
96,224,150646,1,0
192,128,151202,1,0
352,192,153424,1,0
192,224,153980,1,0
224,160,155646,1,2
128,224,159118,6,2,B|416:224,1,280
64,192,172128,6,2,B|480:192,1,373.333333333333
256,192,175646,5,2
192,192,177313,1,2
288,224,177868,1,2
384,192,178424,1,2
384,288,178980,1,2
160,256,180091,1,2
352,224,181202,1,2
128,256,182313,1,2
320,224,183424,1,2
128,320,184535,1,2
224,128,185646,1,2
384,128,186202,1,2
320,320,187313,1,2
160,224,188424,2,2,B|448:0|96:96|224:256|64:32|0:160,3,420
320,192,195091,1,2
256,192,195646,1,2
256,192,196757,12,2,197868
256,192,198980,1,2
448,288,200091,1,2
224,288,201202,1,2
128,128,202313,1,2
320,192,203424,1,2
384,320,203980,1,2
128,128,205646,1,2
224,160,206202,1,2
320,160,206757,1,2
96,224,207868,1,2
192,256,208424,1,2
288,256,208980,1,2
384,224,212313,5,2
352,288,212868,1,2
256,224,213424,1,2
64,352,214535,1,2
128,256,215091,1,2
224,224,215646,1,2
256,192,217313,1,2
416,320,218424,1,2
384,256,218980,1,2
320,192,219535,1,2
128,256,220646,1,2
224,64,221757,1,2
288,256,222868,1,2
384,256,223424,1,2
