osu file format v9

[General]
AudioFilename: Tsunagu Kizuna.mp3
AudioLeadIn: 1996
PreviewTime: 57040
Countdown: 1
SampleSet: Soft
StackLeniency: 0.7
Mode: 0
LetterboxInBreaks: 1

[Editor]
DistanceSpacing: 1.6
BeatDivisor: 4
GridSize: 8

[Metadata]
Title:Tsunagu Kizuna (TV Size)
Artist:Team Nekokan feat. Amaoto Junca
Creator:KRZY
Version:Normal
Source:Yosuga no Sora
Tags:Heatherfield samiljul

[Difficulty]
HPDrainRate:4
CircleSize:4
OverallDifficulty:4
ApproachRate:4
SliderMultiplier:1
SliderTickRate:2

[Events]
//Background and Video events
Video,0,"Yosuga no Sora -Tsunagu Kizuna.avi"
0,0,"BG.jpg"
//Break Periods
//Storyboard Layer 0 (Background)
//Storyboard Layer 1 (Fail)
//Storyboard Layer 2 (Pass)
//Storyboard Layer 3 (Foreground)
//Storyboard Sound Samples
//Background Colour Transformations
3,100,163,162,255

[TimingPoints]
-280,444.444444444444,4,2,1,20,1,0
7275,-100,4,2,2,40,0,0
7720,-100,4,2,2,60,0,0
8164,-100,4,2,2,90,0,0
8720,-100,4,2,1,61,0,0
8942,-100,4,2,2,61,0,0
9164,-100,4,2,1,61,0,0
9386,-100,4,2,2,61,0,0
9609,-100,4,2,1,61,0,0
9831,-100,4,2,2,61,0,0
10497,-100,4,2,1,61,0,0
10720,-100,4,2,2,61,0,0
10942,-100,4,2,1,61,0,0
11164,-100,4,2,2,61,0,0
11386,-100,4,2,1,61,0,0
11609,-100,4,2,2,61,0,0
14831,-100,4,2,1,60,0,0
28386,-100,4,2,2,21,0,0
28609,-100,4,2,2,30,0,0
28831,-100,4,2,2,41,0,0
29053,-100,4,2,2,51,0,0
29275,-100,4,2,2,61,0,0
29497,-100,4,2,2,70,0,0
29720,-100,4,2,2,80,0,0
30053,-100,4,2,1,80,0,0
30275,-100,4,2,2,80,0,0
31831,-100,4,2,1,80,0,0
32053,-100,4,2,2,80,0,0
33609,-100,4,2,1,80,0,0
33831,-100,4,2,2,80,0,0
34053,-100,4,2,1,80,0,0
34275,-100,4,2,2,80,0,0
34497,-100,4,2,1,80,0,0
34720,-100,4,2,2,80,0,0
35386,-100,4,2,1,80,0,0
35609,-100,4,2,2,80,0,0
35831,-100,4,2,1,80,0,0
36053,-100,4,2,2,80,0,0
36275,-100,4,2,1,80,0,0
36497,-100,4,2,2,80,0,0
41164,-100,4,2,1,80,0,0
41386,-100,4,2,2,80,0,0
41609,-100,4,2,1,80,0,0
41831,-100,4,2,2,80,0,0
42386,-100,4,2,2,20,0,0
42831,-100,4,2,2,40,0,0
43275,-100,4,2,2,60,0,0
43720,-100,4,2,2,80,0,0
44275,-100,4,2,1,80,0,0
44497,-100,4,2,2,80,0,0
44720,-100,4,2,1,80,0,0
44942,-100,4,2,2,80,0,0
46053,-100,4,2,1,80,0,0
46275,-100,4,2,2,80,0,0
46497,-100,4,2,1,80,0,0
46720,-100,4,2,2,80,0,0
47831,-100,4,2,1,80,0,0
48053,-100,4,2,2,80,0,0
49609,-100,4,2,1,80,0,0
49831,-100,4,2,2,80,0,0
53275,-100,4,2,1,80,0,0
53386,-100,4,2,2,80,0,0
53497,-100,4,2,1,80,0,0
53609,-100,4,2,2,80,0,0
54164,-100,4,2,1,80,0,0
54275,-100,4,2,2,80,0,0
54386,-100,4,2,1,80,0,0
54497,-100,4,2,2,80,0,0
58386,-100,4,2,2,70,0,1
58831,-100,4,2,1,70,0,1
58942,-100,4,2,2,70,0,1
59386,-100,4,2,1,70,0,1
59609,-100,4,2,2,70,0,1
60609,-100,4,2,1,70,0,1
60720,-100,4,2,2,70,0,1
62386,-100,4,2,1,70,0,1
62497,-100,4,2,2,70,0,1
63275,-100,4,2,1,70,0,1
63386,-100,4,2,2,70,0,1
65609,-100,4,2,1,70,0,1
65831,-100,4,2,2,70,0,1
66831,-100,4,2,1,70,0,1
66942,-100,4,2,2,70,0,1
67386,-100,4,2,1,70,0,1
67609,-100,4,2,2,70,0,1
69275,-100,4,2,1,70,0,1
69497,-100,4,2,2,70,0,1
69720,-100,4,2,1,70,0,1
70386,-100,4,2,2,70,0,1
70609,-100,4,2,1,70,0,1
70831,-100,4,2,2,70,0,0
72609,-100,4,2,2,70,0,1
73053,-100,4,2,1,70,0,1
73164,-100,4,2,2,70,0,1
73609,-100,4,2,1,70,0,1
73831,-100,4,2,2,70,0,1
74831,-100,4,2,1,70,0,1
74942,-100,4,2,2,70,0,1
76609,-100,4,2,1,70,0,1
76720,-100,4,2,2,70,0,1
77497,-100,4,2,1,70,0,1
77609,-100,4,2,2,70,0,1
77942,-100,4,2,2,71,0,1
81053,-100,4,2,1,71,0,1
81164,-100,4,2,2,71,0,1
82164,-100,4,2,1,71,0,1
82831,-100,4,2,1,50,0,0
84164,-100,4,2,2,0,0,0

[Colours]
Combo1 : 72,72,72
Combo2 : 255,255,255

[HitObjects]
197,108,1498,2,0,B|120:133|94:209,2,150,2|0|0
315,108,3275,2,0,B|391:133|417:209,2,150,2|0|0
292,226,5053,2,0,B|140:226|140:226,2,150,2|0|0
256,344,6831,1,2
368,312,7275,1,2
384,192,7720,1,2
368,72,8164,1,2
256,40,8609,6,0,B|152:40|152:40,3,100
80,128,10386,2,0,B|184:128|184:128,3,100
256,192,12164,12,2,13720
256,216,14831,6,0,B|256:136|256:136,2,75,2|2|2
256,280,15720,6,0,B|328:316|402:279,2,150,2|0|0
200,280,17275,1,2
144,280,17498,1,2
368,192,18386,1,8
256,48,19053,1,2
256,104,19275,6,0,B|184:68|110:105,2,150,2|0|0
312,104,20831,1,2
368,104,21053,1,2
256,320,21942,1,8
128,192,22609,1,2
72,192,22831,6,0,B|36:264|73:338,2,150,2|0|0
72,136,24386,1,2
72,80,24609,1,2
256,80,25275,1,0
256,80,25497,2,0,B|360:80|360:80,1,100,8|0
416,80,26164,1,2
416,136,26386,6,0,B|530:229|414:302|414:302,2,200,2|0|2
416,72,28386,2,8,B|416:16,6,50
352,72,29942,6,0,B|248:72|248:72,1,100,0|8
128,72,30831,1,0
96,120,31053,1,0
128,168,31275,1,8
40,256,31720,2,0,B|113:329,1,100,0|8
232,328,32609,1,0
280,360,32831,1,0
328,328,33053,1,8
416,248,33497,6,0,B|448:200|416:154|416:154,3,100,0|8|0|8
304,112,35275,2,0,B|254:82|205:114|205:114,3,100,0|8|0|8
120,192,37053,5,0
16,256,37497,1,8
120,320,37942,2,0,B|120:400|120:400,2,50,0|0|8
224,256,38831,1,0
328,320,39275,1,8
424,256,39720,2,0,B|424:200,3,50,0|0|8|0
424,88,40831,5,0
424,88,41053,2,0,B|304:88,2,100,8|0|8
368,192,42386,1,8
256,240,42831,1,8
144,192,43275,1,8
256,144,43720,1,8
368,192,44164,6,0,B|400:144|368:98|368:98,2,100,0|8|0
368,248,45275,1,0
368,304,45497,1,8
256,344,45942,2,0,B|208:376|162:344|162:344,2,100,0|8|0
256,288,47053,1,0
256,232,47275,1,8
256,112,47720,6,0,B|352:56,1,100,0|8
352,184,48609,2,0,B|352:240|352:240,2,50,0|0|8
256,112,49497,2,0,B|160:56,1,100,0|8
160,184,50386,2,0,B|160:240|160:240,2,50,0|0|8
40,184,51275,5,0
40,304,51720,1,8
159,304,52164,1,0
215,304,52386,1,0
271,304,52609,1,8
390,304,53053,2,0,B|430:373,2,75,8|8|0
390,243,53942,2,8,B|430:173,2,75,8|8|0
256,192,54831,12,4,56609
256,112,57053,5,2
176,250,57497,1,2
336,250,57942,1,2
456,248,58386,6,0,B|456:168,2,75,0|0|8
456,312,59275,2,0,B|408:344|362:312|362:312,1,100,0|8
312,352,59942,1,0
252,364,60164,6,0,B|252:284,2,75,2|0|8
192,352,61053,2,0,B|143:324|143:324,1,50
97,295,61497,2,0,B|69:246|69:246,1,50,8|0
64,192,61942,6,0,B|-16:192,2,75,0|0|8
120,168,62831,2,0,B|189:128,2,75,0|0|12
72,128,63720,5,2
192,72,64164,1,2
320,72,64609,1,2
440,128,65053,1,2
440,248,65497,6,0,B|440:360|440:360,1,100,4|8
379,348,66164,1,2
319,348,66386,2,0,B|239:348,2,75,0|0|8
319,287,67275,2,0,B|319:175|319:175,1,100,0|8
319,126,67942,1,2
259,126,68164,2,0,B|187:126,3,50,0|0|8|2
148,126,69053,2,0,B|105:176|91:214|105:248|148:302,2,200,0|0|4
256,240,71275,5,4
364,126,71720,1,4
256,240,72164,1,4
148,126,72609,6,0,B|53:126|53:126,2,75,0|0|8
187,80,73497,2,0,B|225:36|277:55|277:55,1,100,0|8
336,72,74164,1,2
364,126,74386,6,0,B|459:126|459:126,2,75,0|0|8
330,176,75275,2,0,B|274:208,1,50
226,201,75720,2,0,B|170:169,1,50,8|0
148,125,76164,6,0,B|195:43|195:43,2,75,0|0|8
112,176,77053,2,0,B|17:176|17:176,2,75,0|0|12
144,232,77942,5,2
192,352,78386,1,2
320,352,78831,1,2
368,232,79275,1,2
256,168,79720,1,4
24,231,80609,6,0,B|24:143,2,75,0|0|8
24,290,81497,1,4
128,344,81942,2,0,B|192:356|232:349|255:320|280:256,1,200,4|0
280,194,83053,1,0
280,134,83275,2,0,B|280:38,2,75
256,192,84164,12,0,87330
