osu file format v9

[General]
AudioFilename: Tsunagu Kizuna.mp3
AudioLeadIn: 1996
PreviewTime: 57040
Countdown: 1
SampleSet: Soft
StackLeniency: 0.7
Mode: 0
LetterboxInBreaks: 1

[Editor]
DistanceSpacing: 0.8
BeatDivisor: 4
GridSize: 8

[Metadata]
Title:Tsunagu Kizuna (TV Size)
Artist:Team Nekokan feat. Amaoto Junca
Creator:KRZY
Version:Insane
Source:Yosuga no Sora
Tags:Heatherfield samiljul

[Difficulty]
HPDrainRate:7
CircleSize:5
OverallDifficulty:8
ApproachRate:8
SliderMultiplier:1.4
SliderTickRate:2

[Events]
//Background and Video events
Video,0,"Yosuga no Sora -Tsunagu Kizuna.avi"
0,0,"BG.jpg"
//Break Periods
//Storyboard Layer 0 (Background)
//Storyboard Layer 1 (Fail)
//Storyboard Layer 2 (Pass)
//Storyboard Layer 3 (Foreground)
//Storyboard Sound Samples
//Background Colour Transformations
3,100,163,162,255

[TimingPoints]
-280,444.444444444444,4,2,1,20,1,0
7720,-100,4,2,2,30,0,0
7831,-100,4,2,2,40,0,0
7942,-100,4,2,2,50,0,0
8053,-100,4,2,2,60,0,0
8164,-100,4,2,2,70,0,0
8275,-100,4,2,2,80,0,0
8386,-100,4,2,2,90,0,0
8609,-100,4,2,2,80,0,0
12275,-100,4,2,1,80,0,0
12720,-100,4,2,2,80,0,0
13831,-100,4,2,2,0,0,0
15720,-100,4,2,1,70,0,0
28164,-100,4,2,2,69,0,0
37164,-100,4,2,1,69,0,0
37386,-100,4,2,2,69,0,0
41275,-100,4,2,2,60,0,0
41497,-100,4,2,2,50,0,0
41720,-100,4,2,2,40,0,0
41942,-100,4,2,2,30,0,0
42386,-100,4,2,2,39,0,0
42831,-100,4,2,2,60,0,0
43275,-100,4,2,2,80,0,0
43720,-100,4,2,2,80,0,0
47831,-100,4,2,1,80,0,0
48053,-100,4,2,2,80,0,0
54831,-100,4,2,2,30,0,0
55053,-100,4,2,2,40,0,0
55275,-100,4,2,2,50,0,0
55497,-100,4,2,2,60,0,0
55720,-100,4,2,2,70,0,0
55942,-100,4,2,2,80,0,0
56164,-100,4,2,2,90,0,0
56386,-100,4,2,2,100,0,0
58386,-100,4,2,2,70,0,1
62275,-100,4,2,1,70,0,1
62497,-100,4,2,2,70,0,1
63164,-100,4,2,1,70,0,1
63386,-100,4,2,2,70,0,1
63831,-100,4,2,1,70,0,1
64053,-100,4,2,2,70,0,1
64720,-100,4,2,1,70,0,1
64942,-100,4,2,2,70,0,1
70831,-100,4,2,2,70,0,0
72609,-100,4,2,2,70,0,1
82053,-100,4,2,1,70,0,1
82720,-100,4,2,2,70,0,1
82831,-100,4,2,2,70,0,0
83053,-100,4,2,2,30,0,0
83053,-100,4,2,2,50,0,0
84053,-100,4,2,2,0,0,0

[Colours]
Combo1 : 72,72,72
Combo2 : 255,255,255

[HitObjects]
256,88,1053,1,0
256,192,1275,1,0
353,234,1498,2,0,B|249:315|160:234|160:234,2,210,2|0|0
159,150,3275,2,0,B|263:69|352:150|352:150,2,210,2|0|0
256,336,5053,6,0,B|182:394|124:332|124:332,1,140,2|0
64,251,5720,2,0,B|138:193|196:255|196:255,1,140
191,251,6386,1,0
291,220,6609,1,0
392,192,6831,5,0
328,112,7053,1,0
392,192,7275,1,0
328,272,7498,1,0
264,192,7720,1,10
232,192,7831,1,0
200,192,7942,1,8
168,192,8053,1,0
136,192,8164,1,10
104,192,8275,1,8
72,192,8386,1,0
32,288,8609,5,0
112,352,8831,2,0,B|192:352,2,70,0|2|0
128,248,9498,1,0
144,144,9720,2,0,B|144:64|144:64,2,70,0|2|0
224,208,10386,1,0
224,208,10609,1,0
304,272,10831,1,2
304,272,11053,1,0
320,168,11275,1,0
400,232,11498,1,0
416,128,11720,1,2
336,64,11942,1,0
240,104,12164,6,0,B|239:103|122:78|72:200,1,210
72,200,13053,1,0
72,304,13275,1,10
96,328,13386,1,8
128,336,13498,1,0
160,328,13609,1,8
184,304,13720,1,2
256,192,13831,12,0,15275
80,32,15720,6,0,B|232:32|232:32,1,140
168,96,16386,2,0,B|299:172|299:172,1,140
360,216,17053,1,0
432,264,17275,1,2
480,336,17498,1,2
472,80,18164,5,0
472,184,18386,1,8
472,80,18609,1,0
384,136,18831,1,0
472,80,19053,1,2
384,32,19275,2,0,B|232:32|232:32,1,140,2|0
296,96,19942,2,0,B|164:172|164:172,1,140
104,216,20609,1,0
40,272,20831,1,2
0,344,21053,1,2
256,344,21720,5,0
312,256,21942,1,8
368,344,22164,1,0
424,256,22386,1,0
480,344,22609,1,2
424,256,22831,2,0,B|366:182|428:124|428:124,1,140,2|0
477,192,23497,2,0,B|535:118|473:60|473:60,1,140
392,55,24164,2,0,B|305:18|265:93|265:93,1,140,0|2
40,192,25275,5,0
104,112,25497,1,8
40,192,25720,1,0
104,272,25942,1,0
40,192,26164,1,2
40,192,26386,2,0,B|119:206|192:199|238:136|257:66|257:66,1,280,2|0
344,48,27497,1,0
416,96,27720,1,8
464,168,27942,1,0
440,248,28164,5,0
424,280,28275,1,0
400,304,28386,1,8
368,320,28497,1,8
336,328,28609,1,0
304,320,28720,1,8
272,304,28831,1,0
248,280,28942,1,0
224,248,29053,1,8
176,160,29275,1,0
152,136,29386,1,8
120,120,29497,1,8
88,136,29609,1,8
64,160,29720,1,4
32,264,29942,5,0
96,344,30164,1,0
160,264,30386,2,0,B|200:304|200:304,2,35,0|8|0
232,184,30831,1,0
256,152,30942,1,8
280,128,31053,1,0
304,152,31164,1,0
328,184,31275,1,8
424,224,31497,6,0,B|440:178,3,35,0|0|0|8
440,160,31942,1,0
440,128,32053,1,0
432,96,32164,1,8
344,40,32386,1,0
240,24,32609,1,0
209,32,32720,2,0,B|131:52,1,70,8|0
107,59,33053,1,8
104,160,33275,1,0
24,232,33497,5,0
104,304,33720,1,0
104,304,33942,2,0,B|192:304,1,70,8|0
264,248,34386,2,0,B|264:296,2,35,0|8|0
354,304,34831,2,0,B|442:304,1,70,8|0
472,208,35275,6,0,B|472:160,3,35,0|8|0|0
472,136,35720,1,8
400,64,35942,1,0
376,40,36053,1,0
344,24,36164,1,0
312,16,36275,1,8
280,24,36386,1,0
248,40,36497,1,0
224,64,36609,1,8
160,152,36831,1,0
136,176,36942,1,8
112,208,37053,6,0,B|53:282|115:340|115:340,1,140,0|8
111,336,37720,1,0
216,352,37942,1,0
248,336,38053,1,8
280,328,38164,1,0
312,336,38275,1,0
344,352,38386,1,8
448,336,38609,1,0
475,234,38831,5,0
475,234,38942,2,0,B|484:186,3,35,8|0|0|8
376,192,39497,1,0
376,88,39720,1,0
376,88,39831,1,8
376,88,39942,1,0
376,192,40164,1,8
376,296,40386,1,0
176,352,40831,5,0
176,352,40942,1,0
176,352,41053,1,8
80,304,41275,1,0
56,280,41386,1,0
40,248,41497,1,0
32,216,41609,1,8
40,184,41720,1,0
56,152,41831,1,0
80,128,41942,1,8
176,88,42164,1,0
280,64,42386,6,0,B|360:64|360:64,1,70
406,153,42831,2,0,B|326:153|326:153,1,70
407,230,43275,2,0,B|329:230|339:230,1,70
280,320,43720,2,0,B|360:320|360:320,1,70
208,320,44164,5,0
104,320,44386,2,0,B|70:353,2,35,0|0|8
157,228,44831,1,0
157,228,45053,1,0
56,192,45275,1,0
56,192,45386,1,0
56,192,45497,1,8
157,156,45720,1,0
157,156,45942,5,0
104,64,46164,2,0,B|70:30,2,35,0|0|8
208,64,46609,1,0
312,64,46831,1,0
344,48,46942,1,8
376,40,47053,1,0
408,48,47164,1,0
440,64,47275,1,8
376,144,47497,1,0
376,144,47720,6,0,B|435:218|373:276|373:276,1,140,0|8
440,352,48386,1,0
416,328,48497,1,0
384,344,48609,1,0
352,352,48720,1,8
320,344,48831,1,0
288,328,48942,1,0
264,352,49053,1,8
160,352,49275,1,0
64,312,49497,6,0,B|64:224,1,70
64,72,49942,2,0,B|64:160,1,70,8|0
152,192,50386,1,0
184,192,50497,1,8
216,192,50609,1,0
307,140,50831,1,8
307,244,51053,1,0
307,348,51275,6,0,B|363:291,1,70
381,273,51609,1,0
405,248,51720,1,8
479,174,51942,1,0
464,70,52164,1,0
379,8,52386,1,0
347,24,52497,1,0
315,32,52609,1,8
283,24,52720,1,0
251,8,52831,1,0
160,64,53053,6,0,B|160:16|160:16,2,35,8|0|0
160,120,53386,2,0,B|160:168|160:168,2,35,8|0|0
112,96,53720,1,8
40,176,53942,5,8
256,352,54275,1,8
472,176,54609,1,8
256,192,54831,12,4,56609
32,192,57053,5,0
256,16,57497,1,4
480,192,57942,1,4
256,368,58386,5,4
158,233,58609,1,8
158,233,58720,1,0
354,234,58942,1,0
354,234,59053,1,8
352,64,59275,5,0
320,56,59386,1,8
288,64,59497,1,0
176,32,59720,1,8
200,144,59942,1,0
96,112,60164,5,0
96,280,60386,1,8
96,280,60497,1,0
256,344,60720,1,0
256,344,60831,1,8
368,320,61053,5,0
448,248,61275,1,0
448,136,61497,1,8
368,56,61720,1,0
256,40,61942,6,0,B|144:40|144:40,2,105,0|0|8
184,120,62831,2,0,B|296:120|296:120,2,105,0|0|8
79,128,63720,6,4,B|21:202|83:260|83:260,1,140
433,256,64609,2,4,B|491:182|429:124|429:124,1,140
288,40,65497,5,0
176,40,65720,1,0
288,40,65942,1,8
176,40,66164,1,0
104,128,66386,1,0
96,160,66497,1,8
104,192,66609,1,0
48,288,66831,1,8
160,288,67053,1,0
256,352,67275,5,0
256,240,67497,1,0
368,240,67720,1,8
368,352,67942,1,0
464,296,68164,1,0
472,264,68275,1,8
464,232,68386,1,0
464,120,68609,2,0,B|464:32|464:32,1,70,8|0
360,80,69053,5,0
256,32,69275,1,0
152,80,69497,1,8
48,128,69720,1,0
48,240,69942,1,0
152,288,70164,1,8
184,320,70275,1,8
216,344,70386,1,0
256,360,70497,1,0
296,344,70609,1,0
336,320,70720,1,0
360,288,70831,1,4
104,72,71275,5,4
408,72,71720,1,4
256,360,72164,1,4
256,360,72609,5,4
408,288,72831,1,8
408,288,72942,1,0
256,208,73164,1,0
256,208,73275,1,8
104,288,73497,5,0
104,256,73609,1,8
104,224,73720,1,0
32,136,73942,1,8
104,48,74164,1,8
216,48,74386,5,0
256,208,74609,1,8
256,208,74720,1,0
376,96,74942,1,0
376,96,75053,1,8
440,192,75275,6,0,B|488:192,2,35,0|8|0
408,296,75720,1,8
312,352,75942,1,0
200,352,76164,5,0
80,232,76386,1,8
80,232,76497,2,0,B|80:160,1,70
80,162,76831,1,8
120,56,77053,5,0
221,190,77275,1,8
221,190,77386,2,0,B|293:190,1,70
291,190,77720,1,4
400,192,77942,5,0
288,320,78164,1,0
256,328,78275,1,8
224,320,78386,1,0
80,224,78609,1,8
71,191,78720,1,0
80,158,78831,1,0
152,72,79053,1,0
256,32,79275,1,8
360,72,79497,1,0
464,120,79720,5,0
464,232,79942,1,0
464,120,80164,1,8
360,168,80386,1,0
360,280,80609,1,0
343,308,80720,1,8
314,325,80831,1,0
208,344,81053,1,8
96,328,81275,1,0
40,232,81497,5,4
129,26,81942,2,0,B|190:77|257:108|328:76|379:25|379:25,1,280,4|0
384,136,83053,5,0
384,136,83164,1,0
384,136,83275,2,0,B|384:216|384:216,1,70
384,206,83609,2,0,B|327:262|327:262,1,70
335,256,83942,1,0
256,192,84053,12,0,87330
