osu file format v14

[General]
AudioFilename: Team Nekokan- No Sleep Until Clear! (----------).mp3
AudioLeadIn: 1500
PreviewTime: 91449
Countdown: 1
SampleSet: Normal
StackLeniency: 0.7
Mode: 0
LetterboxInBreaks: 1
WidescreenStoryboard: 0

[Editor]
Bookmarks: 38103,49129,56912,59669,70613,106204,107582,108880,110096,112852,115203,117230,120392,133120,142768,154361,186628,192083,193276,208599,211517,213868,219462,232051
DistanceSpacing: 1.2
BeatDivisor: 4
GridSize: 4
TimelineZoom: 1

[Metadata]
Title:No sleep Until clear
TitleUnicode:No sleep Until clear
Artist:Team Nekokan
ArtistUnicode:Team Nekokan
Creator:arfrate
Version:Hopeless
Source:Mega Man2
Tags:airman sleep megaman
BeatmapID:201440
BeatmapSetID:69982

[Difficulty]
HPDrainRate:7
CircleSize:4
OverallDifficulty:7
ApproachRate:9
SliderMultiplier:2.59999990463257
SliderTickRate:1

[Events]
//Background and Video events
0,0,"BG.jpg",0,0
//Break Periods
2,59729,70118
2,198525,208103
//Storyboard Layer 0 (Background)
//Storyboard Layer 1 (Fail)
//Storyboard Layer 2 (Pass)
//Storyboard Layer 3 (Foreground)
//Storyboard Sound Samples

[TimingPoints]
1158,324.289266025295,4,1,1,79,1,0
20615,-133.333333333333,4,1,1,79,0,0
21588,-100,4,1,1,79,0,0
25641,-133.333333333333,4,1,1,79,0,0
26452,-100,4,1,1,79,0,0
78338,-133.333333333333,4,1,1,79,0,0
78825,-100,4,1,1,79,0,0
104930,-133.333333333333,4,1,1,79,0,0
105254,-100,4,1,1,79,0,0
130630,-133.333333333333,4,1,1,79,0,0
132414,-133.333333333333,4,1,1,79,0,0
169765,-100,4,1,1,79,0,0
176899,-66.6666666666667,4,1,1,79,0,1
198325,-100,4,1,1,79,0,0
208599,-66.6666666666667,4,1,1,79,0,0
213382,-100,4,1,1,79,0,0

[Colours]
Combo1 : 128,128,192
Combo2 : 4,35,157
Combo3 : 255,9,237
Combo4 : 45,232,23
Combo5 : 255,128,64

[HitObjects]
256,192,1158,12,4,2374,0:0:0:0:
418,50,2455,5,0,0:0:0:0:
433,92,2536,1,0,0:0:0:0:
440,128,2617,1,0,0:0:0:0:
442,166,2698,1,0,0:0:0:0:
436,201,2779,1,0,0:0:0:0:
419,235,2860,1,0,0:0:0:0:
399,264,2941,1,0,0:0:0:0:
371,285,3022,1,0,0:0:0:0:
338,295,3103,1,0,0:0:0:0:
307,298,3184,1,0,0:0:0:0:
273,293,3265,1,0,0:0:0:0:
243,277,3346,1,0,0:0:0:0:
217,259,3428,6,0,B|107:246|93:119|206:87,1,259.999990463257
391,82,3914,1,0,0:0:0:0:
480,220,4076,2,0,P|478:289|440:334,2,129.999995231629
421,175,4481,1,0,0:0:0:0:
350,201,4563,1,0,0:0:0:0:
320,268,4644,1,0,0:0:0:0:
260,314,4725,1,0,0:0:0:0:
188,317,4806,1,0,0:0:0:0:
139,264,4887,2,0,P|72:204|97:113,2,129.999995231629
172,72,5373,6,0,B|234:21|323:76,1,129.999995231629
294,60,5698,2,0,B|371:52|417:123,1,129.999995231629
407,109,6022,2,0,P|435:166|415:227,1,129.999995231629
304,308,6346,2,0,P|248:348|185:322,2,129.999995231629
396,332,6833,5,0,0:0:0:0:
464,232,6995,1,0,0:0:0:0:
464,232,7076,1,0,0:0:0:0:
464,232,7157,1,0,0:0:0:0:
396,124,7319,1,0,0:0:0:0:
288,64,7481,2,0,B|226:30|226:30|187:66|136:49,4,129.999995231628
424,340,8292,5,0,0:0:0:0:
352,216,8454,1,0,0:0:0:0:
288,336,8616,5,0,0:0:0:0:
240,352,8697,1,0,0:0:0:0:
192,356,8778,1,0,0:0:0:0:
144,344,8859,1,0,0:0:0:0:
104,324,8940,1,0,0:0:0:0:
76,280,9021,1,0,0:0:0:0:
64,228,9102,1,0,0:0:0:0:
64,184,9183,1,0,0:0:0:0:
80,136,9264,1,0,0:0:0:0:
156,48,9427,5,0,0:0:0:0:
240,116,9589,1,0,0:0:0:0:
300,32,9751,1,0,0:0:0:0:
400,52,9913,6,0,B|400:124|400:124|324:184,1,129.999995231629
347,257,10238,2,0,B|275:257|275:257|240:212,1,129.999995231629
268,120,10562,6,0,B|196:120|196:120|136:196,1,129.999995231629
80,168,10887,2,0,B|80:240|80:240|156:300,1,129.999995231629
248,316,11210,6,0,L|376:232,1,129.999995231629
428,140,11535,2,0,B|417:45|290:-2|226:62,1,259.999990463257
112,116,12021,5,0,0:0:0:0:
108,136,12102,1,0,0:0:0:0:
104,152,12183,1,0,0:0:0:0:
44,256,12345,5,0,0:0:0:0:
88,356,12507,1,0,0:0:0:0:
120,184,12669,1,0,0:0:0:0:
168,284,12832,2,0,B|244:284|244:284|288:252,1,129.999995231629
336,52,13156,1,0,0:0:0:0:
336,52,13318,2,0,B|388:36|448:84|440:148,1,129.999995231629
388,192,13642,1,0,0:0:0:0:
452,264,13805,2,0,B|420:324|348:332|296:312,1,129.999995231629
256,192,14129,12,0,15021,0:0:0:0:
92,272,15102,5,0,0:0:0:0:
112,324,15183,1,0,0:0:0:0:
160,352,15264,1,0,0:0:0:0:
216,356,15345,1,0,0:0:0:0:
272,324,15426,1,0,0:0:0:0:
296,276,15507,1,0,0:0:0:0:
288,228,15588,1,0,0:0:0:0:
260,180,15669,1,0,0:0:0:0:
240,132,15750,1,0,0:0:0:0:
252,76,15831,1,0,0:0:0:0:
292,40,15912,1,0,0:0:0:0:
344,28,15993,1,0,0:0:0:0:
396,40,16074,1,0,0:0:0:0:
428,84,16155,1,0,0:0:0:0:
316,296,16399,6,0,B|404:296|404:296|452:252,1,129.999995231629
244,296,16723,2,0,B|156:296|156:296|108:252,1,129.999995231629
128,144,17047,6,0,B|56:140|56:140|60:92|24:44,2,129.999995231629
288,48,17534,2,0,B|388:12|488:76|484:188,1,259.999990463257
480,284,18021,1,0,0:0:0:0:
368,328,18183,2,0,P|304:348|208:324,1,129.999995231629
242,340,18507,1,0,0:0:0:0:
76,260,18669,6,0,B|32:212|32:212|32:144,1,129.999995231629
124,36,18993,2,0,B|168:84|168:84|168:152,1,129.999995231629
192,300,19318,5,0,0:0:0:0:
320,168,19479,1,0,0:0:0:0:
148,236,19642,1,0,0:0:0:0:
364,236,19804,1,0,0:0:0:0:
192,168,19966,1,0,0:0:0:0:
320,300,20128,1,0,0:0:0:0:
256,128,20291,1,0,0:0:0:0:
256,328,20453,1,0,0:0:0:0:
180,88,20615,6,0,B|292:80|292:80|304:152|384:152,1,195.000000286102
336,328,21263,2,0,B|224:336|224:336|212:264|132:264,1,195.000000286102
96,176,21750,5,0,0:0:0:0:
56,80,21912,2,0,B|128:20|248:20|328:80,1,259.999990463257
388,136,22398,1,0,0:0:0:0:
388,136,22560,1,0,0:0:0:0:
492,152,22723,2,0,P|460:244|384:264,1,129.999995231629
268,72,23047,6,0,B|308:140|308:140|296:200,1,129.999995231629
184,172,23371,1,0,0:0:0:0:
236,264,23533,1,0,0:0:0:0:
128,264,23696,1,0,0:0:0:0:
168,352,23858,2,0,B|308:352|308:352|356:224,1,259.999990463257
350,239,24344,1,0,0:0:0:0:
488,88,24506,5,0,0:0:0:0:
392,184,24668,1,0,0:0:0:0:
372,32,24830,1,0,0:0:0:0:
312,164,24992,1,0,0:0:0:0:
244,32,25154,1,0,0:0:0:0:
232,164,25317,1,0,0:0:0:0:
132,56,25479,1,0,0:0:0:0:
156,184,25641,6,0,B|140:208|140:208|132:212|132:212|140:220|140:220|128:220|128:220|136:228|136:228|124:228|124:228|132:236|132:236|120:236|120:236|128:244|128:244|116:244|116:244|124:252|124:252|112:252|112:252|120:260|120:260|100:296,1,195.000000286102
328,256,26290,5,0,0:0:0:0:
316,336,26452,2,0,P|384:344|440:300,1,129.999995231629
456,220,26776,1,0,0:0:0:0:
456,220,26857,1,0,0:0:0:0:
456,220,26938,1,0,0:0:0:0:
432,108,27101,2,0,B|344:104|344:104|264:40|264:40|184:36,1,259.999990463257
160,124,27587,1,0,0:0:0:0:
160,124,27668,1,0,0:0:0:0:
160,124,27749,1,0,0:0:0:0:
68,92,27911,6,0,P|44:196|92:240,1,129.999995231629
68,312,28236,1,0,0:0:0:0:
192,328,28398,2,0,P|264:308|300:256,1,129.999995231629
408,228,28722,1,0,0:0:0:0:
316,156,28884,1,0,0:0:0:0:
316,156,29046,2,0,B|288:96|288:96|204:64,1,129.999995231629
228,73,29290,1,0,0:0:0:0:
228,73,29371,1,0,0:0:0:0:
48,88,29533,2,0,B|88:144|88:144|176:188,1,129.999995231629
160,60,29857,1,0,0:0:0:0:
240,128,30019,1,0,0:0:0:0:
288,40,30181,1,0,0:0:0:0:
388,64,30343,6,0,B|384:128|468:172|468:172|392:264,1,259.999990463257
324,336,30830,1,0,0:0:0:0:
224,344,30992,1,0,0:0:0:0:
168,264,31154,1,0,0:0:0:0:
264,244,31317,1,0,0:0:0:0:
196,176,31479,1,0,0:0:0:0:
272,120,31641,2,0,B|232:84|224:28|224:28|44:112,1,259.999990463257
104,220,32289,5,0,0:0:0:0:
104,220,32370,1,0,0:0:0:0:
104,220,32451,2,0,B|156:256|156:256|252:244,1,129.999995231629
352,136,32776,5,0,0:0:0:0:
246,192,32938,1,0,0:0:0:0:
313,294,33100,1,0,0:0:0:0:
417,232,33262,1,0,0:0:0:0:
357,76,33424,5,0,0:0:0:0:
202,181,33586,1,0,0:0:0:0:
314,348,33749,1,0,0:0:0:0:
473,245,33911,1,0,0:0:0:0:
422,104,34073,5,0,0:0:0:0:
236,118,34235,1,0,0:0:0:0:
250,319,34398,1,0,0:0:0:0:
439,308,34560,1,0,0:0:0:0:
232,144,34721,5,0,0:0:0:0:
28,184,34883,1,0,0:0:0:0:
232,88,35046,1,0,0:0:0:0:
28,128,35208,1,0,0:0:0:0:
228,32,35370,5,0,0:0:0:0:
28,64,35532,1,0,0:0:0:0:
232,88,35694,1,0,0:0:0:0:
28,128,35856,1,0,0:0:0:0:
192,200,36019,5,0,0:0:0:0:
220,244,36100,1,0,0:0:0:0:
216,292,36181,1,0,0:0:0:0:
180,332,36262,1,0,0:0:0:0:
128,336,36343,1,0,0:0:0:0:
80,316,36424,1,0,0:0:0:0:
60,272,36505,1,0,0:0:0:0:
68,224,36586,1,0,0:0:0:0:
96,180,36667,1,0,0:0:0:0:
144,156,36748,1,0,0:0:0:0:
196,152,36829,1,0,0:0:0:0:
248,160,36910,1,0,0:0:0:0:
296,176,36991,1,0,0:0:0:0:
336,208,37073,5,0,0:0:0:0:
376,240,37154,1,0,0:0:0:0:
428,252,37235,1,0,0:0:0:0:
472,224,37316,1,0,0:0:0:0:
480,172,37397,2,0,B|496:88|460:20|376:-4|292:4|236:36|204:112|232:184,1,454.9999833107
196,340,38127,6,0,P|132:332|100:272,1,129.999995231629
72,148,38451,2,0,B|88:81|88:81|180:64,1,129.999995231629
244,48,38775,1,0,0:0:0:0:
324,116,38937,1,0,0:0:0:0:
300,208,39099,1,0,0:0:0:0:
356,296,39262,6,0,P|424:296|468:232,1,129.999995231629
484,144,39586,1,0,0:0:0:0:
428,48,39748,2,0,P|368:24|276:36,1,129.999995231629
88,36,40072,2,0,B|24:84|20:216|112:264,1,259.999990463257
220,288,40559,1,0,0:0:0:0:
372,192,40721,1,0,0:0:0:0:
276,112,40883,1,0,0:0:0:0:
320,288,41045,1,0,0:0:0:0:
180,188,41207,1,0,0:0:0:0:
296,128,41369,6,0,P|296:56|204:56,1,129.999995231629
128,32,41694,1,0,0:0:0:0:
168,128,41856,1,0,0:0:0:0:
56,128,42018,6,0,B|43:194|43:194|81:291,1,129.999995231629
128,336,42342,2,0,B|204:344|204:344|268:288,1,129.999995231629
392,224,42667,6,0,B|496:188|492:60|384:32,1,259.999990463257
288,116,43153,1,0,0:0:0:0:
148,124,43315,6,0,P|100:172|104:244,2,129.999995231629
252,188,43802,1,0,0:0:0:0:
252,188,43964,1,0,0:0:0:0:
308,68,44126,1,0,0:0:0:0:
308,68,44207,1,0,0:0:0:0:
308,68,44288,1,0,0:0:0:0:
440,52,44450,6,0,P|484:100|480:172,1,129.999995231629
456,344,44774,2,0,B|388:344|388:344|284:276|284:276|208:276,1,259.999990463257
108,232,45261,5,0,0:0:0:0:
104,128,45423,1,0,0:0:0:0:
104,128,45504,1,0,0:0:0:0:
104,128,45585,1,0,0:0:0:0:
192,68,45747,1,0,0:0:0:0:
316,40,45909,6,0,P|384:40|432:84,1,129.999995231629
392,164,46234,1,0,0:0:0:0:
488,208,46396,1,0,0:0:0:0:
460,296,46558,6,0,P|389:310|333:282,1,129.999995231629
84,320,46882,2,0,P|141:302|206:321,1,129.999995231629,0|0,0:0|0:0,3:0:0:0:
248,192,47206,1,0,0:0:0:0:
304,64,47368,6,0,B|359:95|381:159|392:232|304:292,1,259.999990463257
316,284,47774,1,0,0:0:0:0:
316,284,47855,1,0,0:0:0:0:
240,204,48017,5,0,0:0:0:0:
132,168,48179,1,0,0:0:0:0:
168,268,48341,1,0,0:0:0:0:
96,340,48504,2,0,B|32:308|32:308|32:248,1,129.999995231629
44,88,48828,2,0,B|96:56|96:56|168:72,1,129.999995231629
164,188,49152,5,0,0:0:0:0:
76,276,49314,1,0,0:0:0:0:
200,280,49477,2,0,P|136:296|76:276,1,129.999995231629
200,280,49801,1,0,0:0:0:0:
76,276,49963,1,0,0:0:0:0:
348,188,50125,5,0,0:0:0:0:
436,276,50287,1,0,0:0:0:0:
312,280,50450,2,0,P|376:296|436:276,1,129.999995231629
312,280,50774,1,0,0:0:0:0:
436,276,50936,1,0,0:0:0:0:
325,148,51098,6,0,P|270:97|276:24,1,129.999995231629
412,68,51422,2,0,P|454:111|451:198,1,129.999995231629,0|0,0:0|0:0,3:0:0:0:
440,280,51747,1,0,0:0:0:0:
440,280,51828,1,0,0:0:0:0:
440,280,51909,1,0,0:0:0:0:
328,276,52071,2,0,B|280:344|180:376|72:332,1,259.999990463257
168,252,52557,1,0,0:0:0:0:
80,184,52719,2,0,P|40:120|84:52,1,129.999995231629
200,40,53044,2,0,B|312:8|400:72|400:176,1,259.999990463257
432,256,53530,5,0,0:0:0:0:
320,336,53692,2,0,P|248:280|240:236,1,129.999995231629
152,256,54017,2,0,P|152:196|120:136,1,129.999995231629
224,32,54341,5,0,0:0:0:0:
292,352,54504,1,0,0:0:0:0:
294,33,54665,5,0,0:0:0:0:
221,352,54828,1,0,0:0:0:0:
357,64,54990,5,0,0:0:0:0:
156,322,55153,1,0,0:0:0:0:
402,119,55314,5,0,0:0:0:0:
110,268,55477,1,0,0:0:0:0:
419,188,55638,5,0,0:0:0:0:
92,199,55801,1,0,0:0:0:0:
405,257,55962,5,0,0:0:0:0:
104,129,56125,1,0,0:0:0:0:
363,314,56287,5,0,0:0:0:0:
144,71,56450,1,0,0:0:0:0:
301,347,56611,5,0,0:0:0:0:
205,35,56774,1,0,0:0:0:0:
216,180,56935,5,0,0:0:0:0:
208,228,57016,1,0,0:0:0:0:
220,276,57097,1,0,0:0:0:0:
264,304,57178,1,0,0:0:0:0:
316,312,57259,1,0,0:0:0:0:
364,300,57340,1,0,0:0:0:0:
408,272,57421,1,0,0:0:0:0:
440,232,57502,1,0,0:0:0:0:
452,184,57583,1,0,0:0:0:0:
444,132,57665,1,0,0:0:0:0:
424,88,57746,5,0,0:0:0:0:
384,56,57827,1,0,0:0:0:0:
336,36,57908,1,0,0:0:0:0:
284,40,57989,1,0,0:0:0:0:
240,68,58070,1,0,0:0:0:0:
212,112,58151,1,0,0:0:0:0:
224,164,58232,1,0,0:0:0:0:
268,188,58313,1,0,0:0:0:0:
316,188,58394,1,0,0:0:0:0:
360,168,58475,1,0,0:0:0:0:
372,124,58556,1,0,0:0:0:0:
360,76,58637,1,0,0:0:0:0:
316,48,58718,1,0,0:0:0:0:
264,44,58800,1,0,0:0:0:0:
72,56,59205,22,0,B|52:92|88:132|88:132|60:140|60:140|88:152|88:152|64:160|64:160|128:188|28:200|132:256,1,259.999990463257
40,52,70718,6,0,B|68:76|72:112|72:112|88:108|88:108|72:124|72:124|92:124|92:124|52:192|160:240,1,259.999990463257
256,208,71204,5,0,0:0:0:0:
264,316,71366,1,0,0:0:0:0:
360,276,71529,1,0,0:0:0:0:
360,176,71691,2,0,P|419:128|413:45,1,129.999995231629
240,16,72015,2,0,P|173:65|184:152,1,129.999995231629
52,216,72339,5,0,0:0:0:0:
176,288,72501,2,0,P|252:304|328:256,1,129.999995231629
428,240,72826,1,0,0:0:0:0:
448,112,72988,2,0,B|465:71|435:39|435:39|360:43|373:-15,4,129.999995231629
195,285,73798,6,0,B|144:316|200:350|200:350|147:367|171:361,1,129.999995231629
120,200,74122,2,0,B|60:152|47:218|47:218|12:174|-2:187,1,129.999995231629
250,109,74446,2,0,B|304:88|256:44|256:44|312:36|286:37,1,129.999995231629
324,216,74771,2,0,B|364:280|398:223|398:223|415:276|434:269,1,129.999995231629
408,252,75095,1,0,0:0:0:0:
424,136,75258,5,0,0:0:0:0:
424,136,75420,1,0,0:0:0:0:
320,72,75582,1,0,0:0:0:0:
320,72,75663,1,0,0:0:0:0:
320,72,75744,1,0,0:0:0:0:
256,268,75907,5,0,0:0:0:0:
244,160,76069,1,0,0:0:0:0:
152,228,76231,1,0,0:0:0:0:
132,128,76393,5,0,0:0:0:0:
104,104,76474,1,0,0:0:0:0:
64,100,76555,1,0,0:0:0:0:
32,124,76636,1,0,0:0:0:0:
28,156,76717,2,0,B|24:288|24:288|152:336,1,259.999990463257
256,336,77204,5,0,0:0:0:0:
256,336,77366,1,0,0:0:0:0:
368,336,77528,1,0,0:0:0:0:
456,268,77690,1,0,0:0:0:0:
368,336,77852,1,0,0:0:0:0:
456,268,78014,1,0,0:0:0:0:
456,160,78177,1,0,0:0:0:0:
376,72,78339,2,0,B|312:24|224:16|148:56|112:136,1,292.500000429154
148,216,78987,21,0,0:0:0:0:
248,248,79149,1,0,0:0:0:0:
348,248,79311,2,0,B|397:294|397:294|371:346|440:376,2,129.999995231629
256,188,79798,1,0,0:0:0:0:
348,136,79960,2,0,B|397:90|397:90|371:38|440:8,2,129.999995231629
204,308,80446,6,0,B|152:256|152:256|152:148,1,129.999995231629
224,192,80771,2,0,B|264:148|264:148|264:56,1,129.999995231629
84,64,81095,6,0,P|52:152|72:212,1,129.999995231629
188,316,81419,2,0,B|204:356|280:360|308:320,1,129.999995231629
396,272,81744,1,0,0:0:0:0:
444,180,81906,1,0,0:0:0:0:
336,152,82068,1,0,0:0:0:0:
300,56,82230,2,0,B|224:24|224:24|140:64,1,129.999995231629
92,88,82554,1,0,0:0:0:0:
96,188,82717,1,0,0:0:0:0:
168,248,82879,2,0,B|280:292|280:292|420:208,1,259.999990463257
344,56,83527,6,0,B|320:32|284:56|284:56|244:80|220:60,1,129.999995231629
228,64,83852,1,0,0:0:0:0:
140,152,84014,21,0,0:0:0:0:
104,184,84095,1,0,0:0:0:0:
84,228,84176,1,0,0:0:0:0:
84,276,84257,1,0,0:0:0:0:
108,320,84338,1,0,0:0:0:0:
152,340,84419,1,0,0:0:0:0:
200,348,84500,1,0,0:0:0:0:
248,332,84581,1,0,0:0:0:0:
288,304,84662,1,0,0:0:0:0:
304,260,84743,1,0,0:0:0:0:
308,212,84825,1,0,0:0:0:0:
392,156,84987,6,0,P|384:84|440:24,2,129.999995231629
336,316,85473,5,0,0:0:0:0:
214,211,85635,1,0,0:0:0:0:
330,83,85797,1,0,0:0:0:0:
452,188,85959,1,0,0:0:0:0:
394,295,86121,5,0,0:0:0:0:
236,268,86283,1,0,0:0:0:0:
269,98,86445,1,0,0:0:0:0:
428,125,86607,1,0,0:0:0:0:
434,243,86770,21,0,0:0:0:0:
288,304,86932,1,0,0:0:0:0:
227,139,87094,1,0,0:0:0:0:
377,80,87256,1,0,0:0:0:0:
404,316,87419,5,0,0:0:0:0:
320,232,87581,1,0,0:0:0:0:
240,320,87743,1,0,0:0:0:0:
184,216,87905,1,0,0:0:0:0:
256,136,88067,1,0,0:0:0:0:
140,72,88229,1,0,0:0:0:0:
52,168,88392,1,0,0:0:0:0:
128,288,88554,1,0,0:0:0:0:
184,176,88716,1,0,0:0:0:0:
272,264,88878,1,0,0:0:0:0:
296,144,89040,1,0,0:0:0:0:
328,88,89202,5,0,0:0:0:0:
360,128,89283,1,0,0:0:0:0:
348,176,89365,1,0,0:0:0:0:
300,188,89446,1,0,0:0:0:0:
252,164,89527,1,0,0:0:0:0:
248,112,89608,1,0,0:0:0:0:
280,68,89689,1,0,0:0:0:0:
332,52,89770,1,0,0:0:0:0:
388,56,89851,1,0,0:0:0:0:
432,80,89932,2,0,L|512:100,9,64.9999976158143
495,95,90742,6,0,B|504:148|468:164|468:164|468:188|468:188|452:204|452:204|456:224|456:224|440:240|440:240|448:260|448:260|428:272|428:272|432:296|432:296|356:344,1,324.999988079071
212,352,91310,2,0,P|144:368|88:300,1,129.999995231629
164,276,91635,2,0,L|168:132,1,129.999995231629
108,88,91959,2,0,P|172:60|236:96,1,129.999995231629
344,104,92283,1,0,0:0:0:0:
344,104,92445,1,0,0:0:0:0:
464,120,92607,6,0,B|464:184|464:184|420:232,1,129.999995231629
328,336,92931,2,0,B|328:260|328:260|276:200,1,129.999995231629
124,200,93256,1,0,0:0:0:0:
152,216,93337,1,0,0:0:0:0:
180,232,93418,1,0,0:0:0:0:
228,328,93580,5,0,0:0:0:0:
260,312,93661,1,0,0:0:0:0:
288,296,93742,1,0,0:0:0:0:
416,268,93904,5,0,0:0:0:0:
372,164,94067,1,0,0:0:0:0:
256,168,94229,1,0,0:0:0:0:
228,272,94391,1,0,0:0:0:0:
328,340,94553,2,0,B|412:296|436:172|368:104,1,259.999990463257
256,160,95039,1,0,0:0:0:0:
128,120,95201,2,0,P|84:176|96:252,1,129.999995231629
152,312,95526,1,0,0:0:0:0:
256,344,95688,6,0,B|304:292|304:292|412:280|412:280|468:208,1,259.999990463257
384,80,96175,1,0,0:0:0:0:
384,80,96256,1,0,0:0:0:0:
384,80,96337,1,0,0:0:0:0:
244,36,96499,6,0,P|184:88|160:164,1,129.999995231629
84,200,96823,1,0,0:0:0:0:
204,224,96985,1,0,0:0:0:0:
96,296,97147,1,0,0:0:0:0:
188,320,97309,6,0,B|260:320|260:320|312:256,1,129.999995231629
296,274,97634,1,0,0:0:0:0:
376,112,97796,5,0,0:0:0:0:
456,176,97958,1,0,0:0:0:0:
368,232,98120,2,0,P|376:300|436:324,1,129.999995231629
256,328,98444,6,0,B|184:328|184:328|152:272,1,129.999995231629
72,196,98769,2,0,B|140:172|140:172|140:88,1,129.999995231629
208,40,99093,5,0,0:0:0:0:
288,100,99255,1,0,0:0:0:0:
208,40,99417,1,0,0:0:0:0:
288,100,99579,1,0,0:0:0:0:
376,36,99741,2,0,B|444:68|476:136|468:208|392:268,1,259.999990463257
344,164,100228,21,0,0:0:0:0:
244,192,100390,1,0,0:0:0:0:
188,104,100552,1,0,0:0:0:0:
84,60,100714,2,0,B|40:64|48:96|48:96|28:104|28:104|12:120|8:152|32:176,1,129.999995231629
36,196,100958,5,0,0:0:0:0:
64,244,101039,1,0,0:0:0:0:
112,268,101120,1,0,0:0:0:0:
168,276,101201,1,0,0:0:0:0:
220,268,101282,1,0,0:0:0:0:
264,244,101363,1,0,0:0:0:0:
296,204,101444,1,0,0:0:0:0:
316,160,101525,1,0,0:0:0:0:
384,48,101687,6,0,B|480:124|480:124|464:280,1,259.999990463257
465,260,102174,1,0,0:0:0:0:
284,338,102336,6,0,B|264:328|213:345|213:345|180:308|168:312,1,129.999995231629
167,311,102660,1,0,0:0:0:0:
392,320,102822,1,0,0:0:0:0:
168,312,102984,2,0,B|180:308|213:345|213:345|264:328|313:345,1,129.999995231629
212,236,103309,22,0,B|191:225|140:242|140:242|107:205|95:209,1,129.999995231629
94,208,103633,1,0,0:0:0:0:
319,217,103795,1,0,0:0:0:0:
95,209,103957,2,0,B|107:205|140:242|140:242|191:225|212:236,1,129.999995231629
352,184,104281,5,0,0:0:0:0:
348,80,104444,1,0,0:0:0:0:
240,136,104606,1,0,0:0:0:0:
232,32,104768,1,0,0:0:0:0:
116,104,104930,38,0,B|44:136|28:240|80:292,1,195.000000286102
64,272,105335,1,0,0:0:0:0:
64,272,105417,1,0,0:0:0:0:
196,316,105579,1,0,0:0:0:0:
340,292,105741,5,0,0:0:0:0:
376,268,105822,1,0,0:0:0:0:
398,227,105903,1,0,0:0:0:0:
444,108,106065,2,0,P|468:64|448:8,2,64.9999976158143
368,208,106389,1,0,0:0:0:0:
336,120,106552,1,0,0:0:0:0:
464,204,106714,6,0,P|456:264|408:312,1,129.999995231629
332,244,107038,1,0,0:0:0:0:
256,312,107200,2,0,P|208:264|200:204,1,129.999995231629
124,244,107524,2,0,P|128:288|156:328,2,64.9999976158143
48,284,107849,2,0,P|44:232|16:200,2,64.9999976158143
80,152,108173,6,0,P|120:168|180:124,1,64.9999976158143
148,96,108335,2,0,P|188:80|248:124,1,64.9999976158143,0|0,0:0|0:0,0:0:0:0:
232,148,108497,2,0,P|268:164|332:120,1,64.9999976158143,0|0,0:0|0:0,0:0:0:0:
300,100,108660,2,0,P|336:84|400:128,1,64.9999976158143,0|0,0:0|0:0,0:0:0:0:
384,148,108822,2,0,P|420:164|484:120,1,64.9999976158143,0|0,0:0|0:0,0:0:0:0:
392,244,108984,6,0,P|383:285|317:315,1,64.9999976158143,0|0,0:0|0:0,0:0:0:0:
308,256,109146,2,0,P|260:264|215:208,1,64.9999976158143,0|0,0:0|0:0,0:0:0:0:
260,188,109308,2,0,P|234:157|248:84,1,64.9999976158143,0|0,0:0|0:0,0:0:0:0:
304,116,109470,2,0,P|314:75|382:46,1,64.9999976158143,0|0,0:0|0:0,0:0:0:0:
388,112,109632,2,0,P|426:103|475:167,1,64.9999976158143,0|0,0:0|0:0,0:0:0:0:
432,180,109794,2,0,P|462:206|451:280,1,64.9999976158143,0|0,0:0|0:0,0:0:0:0:
256,192,110038,12,0,111902,0:0:0:0:
468,88,112064,6,0,B|508:132|392:136|480:148|480:148|456:160|456:160|484:168|484:168|460:176|460:176|488:188|488:188|460:204|464:248,1,259.999990463257
348,324,112713,5,0,0:0:0:0:
304,344,112794,1,0,0:0:0:0:
256,352,112875,1,0,0:0:0:0:
208,348,112956,1,0,0:0:0:0:
160,336,113037,1,0,0:0:0:0:
112,320,113119,1,0,0:0:0:0:
76,288,113200,1,0,0:0:0:0:
52,240,113281,1,0,0:0:0:0:
40,192,113362,1,0,0:0:0:0:
40,144,113443,1,0,0:0:0:0:
52,96,113524,1,0,0:0:0:0:
80,60,113605,1,0,0:0:0:0:
124,36,113686,1,0,0:0:0:0:
176,28,113767,1,0,0:0:0:0:
220,36,113848,5,0,0:0:0:0:
264,64,113929,1,0,0:0:0:0:
284,108,114010,1,0,0:0:0:0:
284,160,114091,1,0,0:0:0:0:
248,200,114172,1,0,0:0:0:0:
212,232,114254,1,0,0:0:0:0:
204,280,114335,1,0,0:0:0:0:
216,324,114416,1,0,0:0:0:0:
260,348,114497,1,0,0:0:0:0:
308,352,114578,1,0,0:0:0:0:
348,336,114659,1,0,0:0:0:0:
380,296,114740,1,0,0:0:0:0:
384,248,114821,1,0,0:0:0:0:
384,200,114902,2,0,P|423:128|448:129,4,64.9999976158143
384,200,115307,5,0,0:0:0:0:
408,152,115388,1,0,0:0:0:0:
408,100,115469,1,0,0:0:0:0:
384,56,115551,1,0,0:0:0:0:
336,36,115632,1,0,0:0:0:0:
284,32,115713,1,0,0:0:0:0:
236,56,115794,1,0,0:0:0:0:
208,92,115875,1,0,0:0:0:0:
208,144,115956,1,0,0:0:0:0:
200,192,116037,1,0,0:0:0:0:
160,228,116118,5,0,0:0:0:0:
116,232,116199,1,0,0:0:0:0:
72,220,116280,1,0,0:0:0:0:
56,172,116361,1,0,0:0:0:0:
76,124,116442,1,0,0:0:0:0:
124,96,116523,1,0,0:0:0:0:
176,88,116604,1,0,0:0:0:0:
224,112,116686,1,0,0:0:0:0:
268,148,116767,1,0,0:0:0:0:
308,180,116848,1,0,0:0:0:0:
352,200,116929,1,0,0:0:0:0:
408,200,117010,1,0,0:0:0:0:
456,184,117091,2,0,P|488:136|476:80,5,64.9999976158143
452,184,117577,21,0,0:0:0:0:
420,228,117658,1,0,0:0:0:0:
376,256,117739,1,0,0:0:0:0:
328,276,117820,1,0,0:0:0:0:
272,284,117902,1,0,0:0:0:0:
220,280,117983,1,0,0:0:0:0:
168,264,118064,1,0,0:0:0:0:
120,240,118145,1,0,0:0:0:0:
84,200,118226,1,0,0:0:0:0:
64,152,118307,1,0,0:0:0:0:
64,104,118388,1,0,0:0:0:0:
84,60,118469,1,0,0:0:0:0:
124,24,118550,1,0,0:0:0:0:
176,16,118631,5,0,0:0:0:0:
228,28,118712,1,0,0:0:0:0:
272,56,118793,1,0,0:0:0:0:
296,104,118874,1,0,0:0:0:0:
288,156,118955,1,0,0:0:0:0:
252,192,119037,1,0,0:0:0:0:
200,212,119118,1,0,0:0:0:0:
152,196,119199,1,0,0:0:0:0:
100,200,119280,1,0,0:0:0:0:
64,236,119361,1,0,0:0:0:0:
44,284,119442,1,0,0:0:0:0:
64,332,119523,1,0,0:0:0:0:
108,356,119604,5,0,0:0:0:0:
160,352,119685,1,0,0:0:0:0:
204,328,119766,1,0,0:0:0:0:
252,308,119847,1,0,0:0:0:0:
304,300,119928,1,0,0:0:0:0:
356,304,120009,1,0,0:0:0:0:
404,328,120090,1,0,0:0:0:0:
444,352,120172,2,0,P|488:318|470:258,2,64.9999976158143,0|0|0,0:0|0:0|0:0,2:0:0:0:
340,296,120496,6,0,P|307:246|321:201,1,64.9999976158143
264,284,120658,2,0,P|238:234|255:188,1,64.9999976158143,0|0,0:0|0:0,0:0:0:0:
188,264,120820,2,0,P|156:216|173:169,1,64.9999976158143,0|0,0:0|0:0,0:0:0:0:
67,41,120982,2,0,P|72:42|112:84,1,64.9999976158143,0|0,0:0|0:0,0:0:0:0:
273,166,121145,2,0,P|268:168|212:160,1,64.9999976158143,0|0,0:0|0:0,3:0:0:0:
36,168,121307,2,0,P|56:160|98:162,1,64.9999976158143,0|0,0:0|0:0,0:0:0:0:
215,29,121470,2,0,P|210:61|192:88,1,64.9999976158143
153,138,121631,1,0,0:0:0:0:
328,52,121793,6,0,B|395:37|395:37|463:84,1,129.999995231629
488,212,122117,1,0,0:0:0:0:
392,216,122280,1,0,0:0:0:0:
328,292,122442,2,0,B|284:312|276:324|276:324|260:308|260:308|256:356|248:356|220:260|212:264|228:352|224:356|200:312|200:312|196:336|148:360,1,259.999990463257
64,88,123090,6,0,P|47:145|71:196,3,64.9999976158143
121,147,123415,2,0,P|172:172|228:154,3,64.9999976158143
252,180,123739,2,0,P|246:236|201:276,3,64.9999976158143
320,256,124064,2,0,P|293:306|236:324,3,64.9999976158143
225,243,124387,6,0,P|214:183|169:148,3,64.9999976158143,0|0|0|0,0:0|0:0|0:0|0:0,0:0:0:0:
220,325,124712,2,0,P|159:319|116:354,3,64.9999976158143
80,288,125036,2,0,P|85:344|136:381,3,64.9999976158143,0|0|0|0,0:0|0:0|0:0|0:0,0:0:0:0:
79,208,125361,2,0,P|135:214|183:177,3,64.9999976158143
184,148,125685,6,0,P|128:140|77:172,3,64.9999976158143
248,200,126009,2,0,P|255:198|311:206,3,64.9999976158143,0|0|0|0,0:0|0:0|0:0|0:0,0:0:0:0:
200,260,126333,2,0,P|156:257|136:264,3,64.9999976158143,0|0|0|0,0:0|0:0|0:0|0:0,0:0:0:0:
240,324,126657,2,0,P|261:320|313:342,3,64.9999976158143
376,348,126982,6,0,P|383:294|371:270,3,64.9999976158143,0|0|0|0,0:0|0:0|0:0|0:0,0:0:0:0:
388,216,127306,2,0,P|334:207|311:217,3,64.9999976158143,0|0|0|0,0:0|0:0|0:0|0:0,0:0:0:0:
324,136,127630,2,0,P|318:128|268:106,3,64.9999976158143,0|0|0|0,0:0|0:0|0:0|0:0,0:0:0:0:
188,128,127955,2,0,P|192:119|193:65,3,64.9999976158143
56,76,128279,22,0,B|-24:112|120:140|40:164|40:164|76:180|76:180|56:200|56:200|84:216|84:216|68:272|116:304|116:304|172:280|224:304,1,389.999985694885
260,260,128927,1,0,0:0:0:0:
308,344,129090,1,0,0:0:0:0:
396,312,129252,2,0,B|444:320|496:296|528:236|504:132,1,194.999992847443
488,124,129576,6,0,P|460:92|486:25,4,64.9999976158143
408,156,129981,2,0,P|429:199|456:214,5,64.9999976158143
368,228,130468,2,0,P|342:226|297:203,3,64.9999976158143
252,120,130792,2,0,P|160:100|84:168,1,195.000000286102
76,204,131198,5,0,0:0:0:0:
48,240,131279,1,0,0:0:0:0:
56,288,131360,1,0,0:0:0:0:
88,316,131441,1,0,0:0:0:0:
136,316,131522,1,0,0:0:0:0:
172,284,131603,1,0,0:0:0:0:
176,236,131684,1,0,0:0:0:0:
160,188,131765,1,0,0:0:0:0:
120,164,131846,1,0,0:0:0:0:
104,120,131928,5,0,0:0:0:0:
116,72,132009,1,0,0:0:0:0:
152,40,132090,1,0,0:0:0:0:
200,32,132171,1,0,0:0:0:0:
252,28,132252,1,0,0:0:0:0:
304,32,132333,1,0,0:0:0:0:
356,40,132414,1,0,0:0:0:0:
400,68,132495,1,0,0:0:0:0:
432,104,132577,1,0,0:0:0:0:
448,144,132658,1,0,0:0:0:0:
444,200,132739,1,0,0:0:0:0:
416,240,132820,1,0,0:0:0:0:
368,256,132901,1,0,0:0:0:0:
316,240,132981,1,0,0:0:0:0:
268,220,133062,2,0,B|218:187|161:203|129:259|133:314|189:346,1,243.750000357628
276,344,134035,6,0,B|355:363|400:329|444:294|456:212,1,243.750000357628
416,32,134603,2,0,B|437:69|437:69|427:122,1,97.5000001430512
316,108,135251,5,0,0:0:0:0:
256,176,135413,1,0,0:0:0:0:
200,68,135575,1,0,0:0:0:0:
56,40,135738,53,0,0:0:0:0:
56,132,136062,2,0,B|16:168|96:192|32:220|32:220|41:232|116:260|-60:272|92:332|53:332,1,195.000000286102
40,300,136548,1,0,0:0:0:0:
40,300,136710,1,0,0:0:0:0:
192,276,137035,1,0,0:0:0:0:
232,144,137359,1,0,0:0:0:0:
352,64,137683,6,0,B|416:56|464:88|476:144|448:212,1,195.000000286102,0|0,0:0|0:0,3:0:0:0:
458,185,138170,1,0,0:0:0:0:
404,268,138332,1,0,0:0:0:0:
404,268,138494,1,0,0:0:0:0:
304,304,138656,1,0,0:0:0:0:
32,320,139467,53,0,0:0:0:0:
128,352,139629,1,0,0:0:0:0:
80,236,139791,1,0,0:0:0:0:
172,268,139953,2,0,B|240:216|240:216|240:76,1,195.000000286102
380,84,140440,1,0,0:0:0:0:
476,172,140602,2,0,B|380:172|380:172|312:256,1,195.000000286102
468,320,141088,5,0,0:0:0:0:
364,344,141250,2,0,B|256:344|256:344|178:278,1,195.000000286102
92,264,141737,1,0,0:0:0:0:
92,264,141899,1,0,0:0:0:0:
72,160,142061,1,0,0:0:0:0:
160,112,142223,1,0,0:0:0:0:
184,212,142385,2,0,P|219:240|271:240,1,97.5000001430512
376,240,142710,53,0,0:0:0:0:
376,240,142791,1,0,0:0:0:0:
376,240,142872,1,0,0:0:0:0:
480,240,143034,6,0,P|466:171|404:172,1,97.5000001430512
480,240,143358,1,0,0:0:0:0:
480,240,143521,1,0,0:0:0:0:
480,240,143683,2,0,P|466:309|404:308,1,97.5000001430512
132,328,144331,54,0,P|68:324|32:268,1,97.5000001430512
108,240,144656,1,0,0:0:0:0:
36,188,144818,1,0,0:0:0:0:
108,136,144980,1,0,0:0:0:0:
40,88,145142,2,0,P|64:48|120:36,1,97.5000001430512
200,40,145466,1,0,0:0:0:0:
272,104,145629,1,0,0:0:0:0:
192,156,145791,2,0,B|212:200|212:200|256:228,1,97.5000001430512
168,300,146277,5,0,0:0:0:0:
272,336,146439,2,0,P|324:348|380:300,1,97.5000001430512
456,288,146763,1,0,0:0:0:0:
484,200,146926,2,0,B|496:152|496:152|464:88,1,97.5000001430512
288,64,147574,54,0,B|236:60|236:60|184:124,1,97.5000001430512
144,192,147898,1,0,0:0:0:0:
128,300,148061,2,0,B|164:344|164:344|236:352,1,97.5000001430512
308,336,148385,1,0,0:0:0:0:
492,268,148709,5,0,0:0:0:0:
488,184,148871,2,0,B|432:152|528:120|456:72,1,97.5000001430512
76,28,149844,54,0,P|96:80|68:140,1,97.5000001430512
80,220,150168,1,0,0:0:0:0:
128,312,150331,2,0,B|200:308|264:264|296:196,1,195.000000286102
416,56,151141,5,0,0:0:0:0:
468,152,151303,1,0,0:0:0:0:
352,172,151465,1,0,0:0:0:0:
292,72,151628,2,0,B|264:72|252:4|228:132|212:68|164:68,1,97.5000001430512
204,80,151952,1,0,0:0:0:0:
96,80,152276,5,0,0:0:0:0:
32,192,152438,1,0,0:0:0:0:
88,312,152601,1,0,0:0:0:0:
220,80,152925,5,0,0:0:0:0:
96,192,153087,1,0,0:0:0:0:
212,312,153249,1,0,0:0:0:0:
352,80,153573,5,0,0:0:0:0:
160,192,153735,1,0,0:0:0:0:
352,312,153897,1,0,0:0:0:0:
464,196,154222,6,0,B|408:200|408:200|344:172,1,97.5000001430512
272,160,154546,1,0,0:0:0:0:
84,120,154708,2,0,B|140:116|140:116|192:144,1,97.5000001430512
208,248,155033,1,0,0:0:0:0:
208,248,155195,1,0,0:0:0:0:
392,320,155357,6,0,B|336:320|336:320|280:352,1,97.5000001430512
176,352,155681,1,0,0:0:0:0:
176,352,155843,1,0,0:0:0:0:
40,216,156006,2,0,B|40:272|40:272|72:328,1,97.5000001430512
216,192,156330,1,0,0:0:0:0:
260,192,156411,1,0,0:0:0:0:
304,192,156492,1,0,0:0:0:0:
448,124,156654,54,0,B|448:72|448:72|408:36,1,97.5000001430512
312,32,156979,1,0,0:0:0:0:
312,32,157141,1,0,0:0:0:0:
124,76,157303,2,0,B|176:76|176:76|216:28,1,97.5000001430512
296,124,157627,5,0,0:0:0:0:
344,284,157789,2,0,B|391:256|391:256|400:192,1,97.5000001430512,0|0,0:0|0:0,0:0:0:0:
332,112,158114,5,0,0:0:0:0:
310,78,158195,1,0,0:0:0:0:
285,39,158276,1,0,0:0:0:0:
234,127,158438,5,0,0:0:0:0:
209,166,158519,1,0,0:0:0:0:
188,200,158600,1,0,0:0:0:0:
144,296,158762,22,0,B|172:356|256:376|320:328,1,195.000000286102
248,256,159411,1,0,0:0:0:0:
256,144,160059,5,0,0:0:0:0:
192,40,160221,2,0,B|116:32|72:140|132:192,1,195.000000286102
324,100,161356,5,0,0:0:0:0:
504,120,161519,1,0,0:0:0:0:
356,200,161681,1,0,0:0:0:0:
424,36,161843,1,0,0:0:0:0:
460,208,162005,6,0,B|440:268|380:268|380:268|344:300|280:284,1,195.000000286102
212,224,162492,1,0,0:0:0:0:
108,264,162654,1,0,0:0:0:0:
44,176,162816,2,0,B|44:112|104:64|184:64,1,195.000000286102
424,52,163951,6,0,B|424:112|424:112|468:184|468:184|468:248,1,195.000000286102
368,288,164599,5,0,0:0:0:0:
268,264,164761,1,0,0:0:0:0:
316,356,164924,1,0,0:0:0:0:
220,344,165086,2,0,B|192:352|184:324|160:308|160:308|128:336|128:336|120:296|120:296|64:320|24:280|44:208,1,292.500000429154
128,184,165896,53,0,0:0:0:0:
230,156,166058,1,0,0:0:0:0:
142,101,166221,1,0,0:0:0:0:
232,64,166383,2,0,B|252:44|273:63|301:65|301:65|315:25|315:25|342:56|342:56|379:7|433:22|452:93,1,292.500000429154
472,216,167194,5,0,0:0:0:0:
388,328,167518,1,0,0:0:0:0:
388,328,167680,2,0,B|320:356|248:324|224:256,1,195.000000286102
152,200,168491,5,0,0:0:0:0:
160,156,168572,1,0,0:0:0:0:
176,116,168653,1,0,0:0:0:0:
204,80,168734,1,0,0:0:0:0:
244,62,168815,1,0,0:0:0:0:
288,52,168896,1,0,0:0:0:0:
336,60,168977,1,0,0:0:0:0:
380,80,169058,1,0,0:0:0:0:
416,124,169139,2,0,B|388:216|388:216|264:264,1,195.000000286102
144,292,169788,6,0,B|114:304|116:229|116:229|43:253|69:187,1,129.999995231629
32,136,170112,1,0,0:0:0:0:
104,32,170274,1,0,0:0:0:0:
168,140,170437,1,0,0:0:0:0:
287,287,170761,6,0,B|255:286|288:218|288:218|211:209|262:160,1,129.999995231629
240,88,171085,1,0,0:0:0:0:
356,28,171247,1,0,0:0:0:0:
368,151,171410,1,0,0:0:0:0:
460,232,171734,21,0,0:0:0:0:
368,344,171896,1,0,0:0:0:0:
460,296,172058,1,0,0:0:0:0:
312,320,172220,1,0,0:0:0:0:
352,224,172382,2,0,B|272:192|272:192|252:116|252:116|148:80,1,259.999990463257
72,124,172869,5,0,0:0:0:0:
48,144,172950,1,0,0:0:0:0:
40,172,173031,1,0,0:0:0:0:
48,272,173193,1,0,0:0:0:0:
148,300,173355,1,0,0:0:0:0:
244,272,173517,2,0,P|292:240|300:152,1,129.999995231629
308,172,173842,1,0,0:0:0:0:
308,172,174004,1,0,0:0:0:0:
512,128,174328,6,0,B|508:208|480:268|428:300|336:296,1,259.999990463257
68,216,174976,5,0,0:0:0:0:
193,86,175139,1,0,0:0:0:0:
68,216,175300,21,0,0:0:0:0:
193,86,175463,1,0,0:0:0:0:
54,81,175626,5,0,0:0:0:0:
204,225,175787,1,0,0:0:0:0:
54,81,175950,5,0,0:0:0:0:
204,225,176111,1,0,0:0:0:0:
288,344,176274,6,0,B|164:304|164:304|104:152,1,259.999990463257
96,44,176922,6,0,B|160:96|196:84|220:-28|220:56|220:56|240:24|240:24|244:104|288:60|276:0|376:60,1,390.000000572205
456,128,177409,1,0,0:0:0:0:
464,232,177571,2,0,B|452:304|388:360|296:340,1,195.000000286102
212,352,177895,1,0,0:0:0:0:
208,256,178057,1,0,0:0:0:0:
300,208,178219,6,0,B|346:171|263:152|332:133|332:133|258:54|345:14,1,195.000000286102
96,36,178544,2,0,B|50:73|133:92|64:111|64:111|138:190|51:230,1,195.000000286102
204,188,178868,1,0,0:0:0:0:
120,292,179030,1,0,0:0:0:0:
236,280,179192,2,0,B|254:330|254:330|320:378,2,97.5000001430512
104,224,179517,6,0,P|56:152|128:64,1,195.000000286102
264,48,179841,2,0,B|332:28|412:62|437:131,1,195.000000286102
492,204,180165,1,0,0:0:0:0:
392,248,180327,1,0,0:0:0:0:
448,332,180489,2,0,B|388:372|312:356|280:288,1,195.000000286102
88,168,180814,6,0,B|100:264|156:300|280:288,1,195.000000286102
408,232,181138,2,0,B|448:168|421:93|336:63,1,195.000000286102
240,52,181462,1,0,0:0:0:0:
168,136,181624,1,0,0:0:0:0:
264,176,181787,1,0,0:0:0:0:
396,176,181949,6,0,B|356:264|356:264|252:284,1,195.000000286102
144,240,182273,1,0,0:0:0:0:
240,180,182435,1,0,0:0:0:0:
148,120,182597,1,0,0:0:0:0:
232,36,182760,2,0,B|344:24|344:24|420:112,1,195.000000286102
400,88,183003,1,0,0:0:0:0:
400,88,183084,1,0,0:0:0:0:
508,152,183246,5,0,0:0:0:0:
444,264,183408,1,0,0:0:0:0:
328,192,183570,1,0,0:0:0:0:
280,192,183651,1,0,0:0:0:0:
236,192,183732,1,0,0:0:0:0:
68,176,183895,5,0,0:0:0:0:
68,176,184057,1,0,0:0:0:0:
124,88,184219,1,0,0:0:0:0:
228,60,184381,1,0,0:0:0:0:
336,32,184543,2,0,B|439:52|439:52|470:193,1,195.000000286102
480,292,184867,2,0,B|396:348|396:348|296:336,1,195.000000286102
302,336,185192,1,0,0:0:0:0:
248,204,185354,6,0,B|220:192|220:168|240:144|280:140|324:152|344:184|352:212|332:268|284:336|200:360|72:264|60:148|168:28|292:32|368:136|368:176,1,585.000000858307
428,152,186002,1,0,0:0:0:0:
388,292,186165,1,0,0:0:0:0:
488,236,186327,1,0,0:0:0:0:
328,216,186489,1,0,0:0:0:0:
224,168,186651,1,0,0:0:0:0:
224,168,186732,1,0,0:0:0:0:
224,168,186813,1,0,0:0:0:0:
128,224,186975,5,0,0:0:0:0:
36,152,187137,1,0,0:0:0:0:
80,52,187300,6,0,B|192:52|192:52|304:104,1,195.000000286102
344,216,187624,1,0,0:0:0:0:
344,216,187705,1,0,0:0:0:0:
344,216,187786,1,0,0:0:0:0:
304,356,187948,5,0,0:0:0:0:
80,296,188110,1,0,0:0:0:0:
256,296,188272,1,0,0:0:0:0:
80,296,188434,2,0,B|168:336|168:336|296:280,1,195.000000286102
256,296,188759,1,0,0:0:0:0:
356,244,188921,5,0,0:0:0:0:
140,180,189083,1,0,0:0:0:0:
308,188,189245,5,0,0:0:0:0:
140,180,189407,2,0,B|232:232|232:232|352:164,1,195.000000286102
314,184,189732,1,0,0:0:0:0:
432,128,189894,5,0,0:0:0:0:
500,212,190056,1,0,0:0:0:0:
452,304,190218,2,0,B|408:360|312:360|252:296,1,195.000000286102
44,40,190542,6,0,L|112:112,1,97.5000001430512
132,184,190705,2,0,L|228:108,1,97.5000001430512
224,40,190867,6,0,L|300:108,1,97.5000001430512
296,200,191029,2,0,L|376:128,1,97.5000001430512
436,112,191191,6,0,L|468:216,1,97.5000001430512
488,268,191353,2,4,L|372:312,1,97.5000001430512,4|0,0:0|0:0,0:0:0:0:
356,360,191515,6,4,L|260:296,1,97.5000001430512,4|0,0:0|0:0,0:0:0:0:
264,232,191677,2,4,L|148:300,1,97.5000001430512,4|0,0:0|0:0,0:0:0:0:
180,352,191840,6,4,L|44:352,1,97.5000001430512,4|0,0:0|0:0,0:0:0:0:
40,280,192326,6,0,B|40:168|40:168|140:104,1,195.000000286102
160,40,192650,1,0,0:0:0:0:
224,128,192812,1,0,0:0:0:0:
276,40,192975,1,0,0:0:0:0:
344,104,193137,5,0,0:0:0:0:
344,272,193299,1,0,0:0:0:0:
168,272,193461,1,0,0:0:0:0:
168,104,193623,1,0,0:0:0:0:
376,159,193785,5,0,0:0:0:0:
292,305,193947,1,0,0:0:0:0:
139,217,194109,1,0,0:0:0:0:
223,71,194271,1,0,0:0:0:0:
376,224,194434,5,0,0:0:0:0:
230,308,194596,1,0,0:0:0:0:
142,155,194758,1,0,0:0:0:0:
288,71,194920,1,0,0:0:0:0:
360,304,195082,5,0,0:0:0:0:
144,276,195244,1,0,0:0:0:0:
164,76,195406,1,0,0:0:0:0:
376,100,195568,1,0,0:0:0:0:
256,192,195731,12,0,198325,0:0:0:0:
188,36,208703,6,0,B|256:108|256:108|244:220,1,195.000000286102
292,308,209027,1,0,0:0:0:0:
204,288,209189,1,0,0:0:0:0:
344,232,209351,1,0,0:0:0:0:
120,92,209676,6,0,B|214:120|214:120|260:223,1,195.000000286102
346,275,210000,1,0,0:0:0:0:
240,320,210162,1,0,0:0:0:0:
348,168,210324,1,0,0:0:0:0:
88,188,210648,6,0,B|181:156|181:156|278:215,1,195.000000286102
377,208,210972,1,0,0:0:0:0:
324,324,211134,1,0,0:0:0:0:
323,88,211296,1,0,0:0:0:0:
100,260,211621,6,0,B|172:192|172:192|284:203,1,195.000000286102
371,155,211945,1,0,0:0:0:0:
396,304,212107,1,0,0:0:0:0:
252,44,212269,1,0,0:0:0:0:
168,336,212593,6,0,B|187:239|187:239|286:184,1,195.000000286102
330,95,212917,1,0,0:0:0:0:
428,220,213081,1,0,0:0:0:0:
164,60,213243,1,0,0:0:0:0:
140,192,213567,5,0,0:0:0:0:
372,192,213729,1,0,0:0:0:0:
256,192,213891,12,0,217458,0:0:0:0:
308,172,217540,5,0,0:0:0:0:
256,156,217621,1,0,0:0:0:0:
204,168,217702,1,0,0:0:0:0:
160,196,217783,1,0,0:0:0:0:
140,244,217864,1,0,0:0:0:0:
140,296,217945,1,0,0:0:0:0:
168,336,218026,1,0,0:0:0:0:
220,352,218107,1,0,0:0:0:0:
336,316,218269,1,0,0:0:0:0:
336,316,218431,1,0,0:0:0:0:
444,348,218593,2,0,B|484:308|484:308|484:228,1,129.999995231629
480,80,218918,6,0,B|444:32|444:32|348:32,1,129.999995231629
260,40,219242,1,0,0:0:0:0:
172,88,219404,1,0,0:0:0:0:
96,160,219566,2,0,B|20:228|64:344|184:332,1,259.999990463257
176,332,219972,1,0,0:0:0:0:
176,332,220053,1,0,0:0:0:0:
328,232,220215,5,0,0:0:0:0:
472,260,220377,2,0,P|464:316|404:348,1,129.999995231629
252,296,220701,5,0,0:0:0:0:
252,296,220782,1,0,0:0:0:0:
252,296,220863,1,0,0:0:0:0:
156,220,221026,2,0,P|132:168|180:112,1,129.999995231629
264,92,221350,5,0,0:0:0:0:
300,180,221512,1,0,0:0:0:0:
392,160,221674,1,0,0:0:0:0:
436,240,221836,2,0,P|396:304|316:312,1,129.999995231629
236,304,222161,5,0,0:0:0:0:
132,268,222323,1,0,0:0:0:0:
68,168,222485,2,0,B|136:168|164:72|164:72|248:160|248:160|312:40|388:104,1,389.999985694885
440,164,223134,5,0,0:0:0:0:
440,164,223296,1,0,0:0:0:0:
352,256,223458,1,0,0:0:0:0:
380,280,223539,1,0,0:0:0:0:
412,304,223620,1,0,0:0:0:0:
284,308,223782,1,0,0:0:0:0:
248,280,223863,1,0,0:0:0:0:
216,252,223944,1,0,0:0:0:0:
132,152,224106,5,0,0:0:0:0:
264,152,224269,1,0,0:0:0:0:
336,36,224431,1,0,0:0:0:0:
336,36,224593,1,0,0:0:0:0:
504,64,224755,1,0,0:0:0:0:
492,100,224836,1,0,0:0:0:0:
480,144,224917,1,0,0:0:0:0:
396,124,225079,5,0,0:0:0:0:
308,108,225241,1,0,0:0:0:0:
292,144,225322,1,0,0:0:0:0:
276,180,225404,1,0,0:0:0:0:
188,244,225566,5,0,0:0:0:0:
208,276,225647,1,0,0:0:0:0:
228,308,225728,1,0,0:0:0:0:
256,192,226052,12,0,230430,0:0:0:0:
256,72,230754,5,0,0:0:0:0:
256,312,231079,1,0,0:0:0:0:
100,232,231403,6,0,P|136:232|161:208,1,64.9999976158143
192,188,231565,1,0,0:0:0:0:
236,172,231646,1,0,0:0:0:0:
280,160,231727,2,0,P|328:156|360:188,1,64.9999976158143
384,188,231889,1,0,0:0:0:0:
420,224,231970,2,0,P|440:260|424:308,1,64.9999976158143
