osu file format v11

[General]
AudioFilename: Team Nekokan - No Sleep Until Clear.mp3
AudioLeadIn: 0
PreviewTime: 38153
Countdown: 0
SampleSet: None
StackLeniency: 0.2
Mode: 0
LetterboxInBreaks: 1

[Editor]
Bookmarks: 22424
DistanceSpacing: 0.8
BeatDivisor: 4
GridSize: 4

[Metadata]
Title:No Sleep Until Cleared
TitleUnicode:No Sleep Until Cleared
Artist:Team Nekokan
ArtistUnicode:Team Nekokan
Creator:until
Version:No Sleep
Source:Megaman
Tags:team nekokan no sleep until clear hiya
BeatmapID:208445
BeatmapSetID:73112

[Difficulty]
HPDrainRate:3
CircleSize:4
OverallDifficulty:7
ApproachRate:10
SliderMultiplier:2
SliderTickRate:2

[Events]
//Background and Video events
0,0,"sample.jpg"
//Break Periods
2,59758,62999
2,159646,168078
2,198564,205697
//Storyboard Layer 0 (Background)
//Storyboard Layer 1 (Fail)
//Storyboard Layer 2 (Pass)
//Storyboard Layer 3 (Foreground)
//Storyboard Sound Samples
//Background Colour Transformations
3,100,0,0,0

[TimingPoints]
3776,324.324324324324,4,1,1,100,1,0
38802,324.324324324324,4,1,1,100,1,1
59558,324.324324324324,4,1,1,100,1,0
91990,324.324324324324,4,1,1,100,1,1
112745,324.324324324324,4,1,1,100,1,0
133501,324.324324324324,4,1,1,100,1,0
168528,324.324324324324,4,1,1,100,1,0
169825,324.324324324324,4,1,1,100,1,1
176635,324.324324324324,4,1,1,100,1,0
177608,-66.6666666666667,4,1,1,100,0,1
198364,-66.6666666666667,4,1,1,100,0,0
208742,-66.6666666666667,4,1,1,100,0,1
217823,324.324324324324,4,1,1,100,1,0
225931,324.324324324324,4,1,1,100,1,1
226255,324.324324324324,4,1,1,100,1,0
232092,324.324324324324,4,1,1,100,1,1
232416,324.324324324324,4,1,1,100,1,0

[Colours]
Combo1 : 0,0,255
Combo2 : 0,0,128
Combo3 : 17,118,236
Combo4 : 9,249,246

[HitObjects]
208,72,2478,1,4,0:0:0
208,72,2559,1,0,0:0:0
208,72,2640,1,0,0:0:0
208,72,2722,1,0,0:0:0
208,72,2803,1,0,0:0:0
304,72,2884,5,4,0:0:0
304,72,2965,1,0,0:0:0
304,72,3046,1,0,0:0:0
304,72,3127,1,0,0:0:0
304,72,3208,1,0,0:0:0
304,72,3289,1,0,0:0:0
156,144,3451,5,0,0:0:0
360,140,3613,1,0,0:0:0
256,192,3776,2,0,B|256:296,2,100,0|0|0,0:0|0:0|0:0,0:0:0
156,296,4262,1,0,0:0:0
356,296,4424,1,0,0:0:0
84,48,4748,5,0,0:0:0
84,152,4911,1,0,0:0:0
188,96,5073,2,0,B|188:200,1,100,0|0,0:0|0:0,0:0:0
184,336,5397,1,0,0:0:0
328,336,5559,1,0,0:0:0
256,240,5721,1,0,0:0:0
184,40,6046,5,0,0:0:0
328,40,6208,1,0,0:0:0
140,152,6370,1,0,0:0:0
372,152,6532,1,0,0:0:0
256,104,6694,1,0,0:0:0
256,240,6857,1,0,0:0:0
480,156,7343,5,0,0:0:0
480,276,7505,1,0,0:0:0
392,344,7667,2,0,B|392:244,1,100,0|0,0:0|0:0,0:0:0
312,40,7992,2,0,B|312:144,1,100,0|0,0:0|0:0,0:0:0
228,344,8316,2,0,B|228:240,1,100,0|0,0:0|0:0,0:0:0
256,44,8640,1,0,0:0:0
256,44,8721,1,0,0:0:0
256,44,8802,1,0,0:0:0
256,44,8883,1,0,0:0:0
256,44,8965,1,0,0:0:0
184,28,9938,6,0,B|92:68,1,100,0|0,0:0|0:0,0:0:0
164,104,10262,2,0,B|72:144,1,100,0|0,0:0|0:0,0:0:0
164,232,10586,2,0,B|72:272,1,100,0|0,0:0|0:0,0:0:0
144,308,10910,2,0,B|52:348,1,100,0|0,0:0|0:0,0:0:0
256,128,11235,5,0,0:0:0
256,264,11397,1,0,0:0:0
328,28,11559,6,0,B|420:68,1,100,0|0,0:0|0:0,0:0:0
348,104,11883,2,0,B|440:144,1,100,0|0,0:0|0:0,0:0:0
348,232,12207,2,0,B|440:272,1,100,0|0,0:0|0:0,0:0:0
368,308,12531,2,0,B|460:348,1,100,0|0,0:0|0:0,0:0:0
256,192,12857,12,0,14154,0:0:0
256,344,14478,5,0,0:0:0
44,32,14803,1,0,0:0:0
468,32,15126,1,0,0:0:0
176,129,15451,5,0,0:0:0
176,129,15532,1,0,0:0:0
176,129,15613,1,0,0:0:0
344,228,15775,1,0,0:0:0
336,129,15938,5,0,0:0:0
336,129,16019,1,0,0:0:0
336,129,16100,1,0,0:0:0
168,228,16262,1,0,0:0:0
32,344,16424,5,0,0:0:0
256,344,16586,1,0,0:0:0
496,344,16748,1,0,0:0:0
56,44,17559,6,0,B|156:44,1,100,0|0,0:0|0:0,0:0:0
240,116,17884,2,0,B|140:116,1,100,0|0,0:0|0:0,0:0:0
56,192,18208,2,0,B|256:192,1,200,0|0,0:0|0:0,0:0:0
344,68,18694,5,0,0:0:0
432,112,18857,2,0,B|460:140|464:180|432:216,1,100,0|0,0:0|0:0,0:0:0
472,264,19181,2,0,B|435:278|396:265|376:221,1,100,0|0,0:0|0:0,0:0:0
356,176,19505,2,0,B|322:196|308:234|330:276,1,100,0|0,0:0|0:0,0:0:0
356,320,19830,2,0,B|319:334|280:321|260:277,1,100,0|0,0:0|0:0,0:0:0
176,156,20154,1,0,0:0:0
256,20,20316,2,0,B|256:224,1,200
464,340,20965,5,0,0:0:0
48,340,21289,1,0,0:0:0
256,48,21613,1,0,0:0:0
188,112,21776,1,0,0:0:0
328,112,21938,5,0,0:0:0
392,188,22100,2,0,B|444:168,2,50,0|0|0,0:0|0:0|0:0,0:0:0
376,276,22424,2,0,B|341:316|287:311,1,100,0|0,0:0|0:0,0:0:0
204,256,22748,2,0,B|152:272,2,50,0|0|0,0:0|0:0|0:0,0:0:0
404,56,23073,1,0,0:0:0
272,184,23235,1,0,0:0:0
144,316,23397,2,0,B|106:354,2,50,0|0|0,0:0|0:0|0:0,0:0:0
60,148,23721,6,0,B|108:148|163:148,1,100,0|0,0:0|0:0,0:0:0
452,236,24046,2,0,B|404:235|348:235,1,100,0|0,0:0|0:0,0:0:0
304,40,24532,2,0,B|172:192,1,200
108,304,25019,1,0,0:0:0
173,191,25181,1,0,0:0:0
285,256,25343,1,0,0:0:0
220,369,25505,1,0,0:0:0
174,127,25667,5,0,0:0:0
200,117,25748,1,0,0:0:0
226,106,25830,1,0,0:0:0
448,136,26153,5,0,0:0:0
64,248,26478,1,0,0:0:0
228,144,26802,1,0,0:0:0
240,168,26883,1,0,0:0:0
256,192,26964,1,0,0:0:0
268,216,27045,1,0,0:0:0
280,236,27126,1,0,0:0:0
96,176,27451,5,0,0:0:0
48,264,27613,1,0,0:0:0
120,340,27775,1,0,0:0:0
212,288,27938,1,0,0:0:0
192,192,28100,1,0,0:0:0
132,252,28262,2,0,B|132:302|187:338,1,100,0|0,0:0|0:0,0:0:0
304,332,28586,5,0,0:0:0
400,288,28748,1,0,0:0:0
304,236,28911,1,0,0:0:0
396,188,29073,1,0,0:0:0
300,128,29235,2,0,B|249:110,2,50,0|0|0,0:0|0:0|0:0,0:0:0
392,76,29559,2,0,B|336:52|284:32,1,100,0|0,0:0|0:0,0:0:0
88,40,29884,2,0,B|176:84,1,100,8|0,0:0|0:0,0:0:0
177,84,30208,5,0,0:0:0
177,84,30370,1,0,0:0:0
196,296,30532,1,0,0:0:0
368,148,30694,1,0,0:0:0
177,84,30857,1,0,0:0:0
188,192,31019,1,0,0:0:0
272,116,31181,1,0,0:0:0
272,116,31343,1,0,0:0:0
177,84,31505,1,0,0:0:0
392,88,31667,5,0,0:0:0
416,100,31748,1,0,0:0:0
432,120,31830,1,0,0:0:0
432,148,31911,1,0,0:0:0
420,172,31992,1,0,0:0:0
408,200,32073,1,0,0:0:0
412,232,32154,1,0,0:0:0
432,252,32316,5,4,0:0:0
184,244,32640,1,0,0:0:0
328,244,32803,1,4,0:0:0
256,104,33127,5,0,0:0:0
168,264,33289,1,0,0:0:0
344,264,33451,1,4,0:0:0
256,76,33775,5,0,0:0:0
148,284,33938,1,0,0:0:0
364,284,34100,1,4,0:0:0
256,48,34424,5,0,0:0:0
132,304,34586,1,0,0:0:0
380,304,34748,1,4,0:0:0
256,104,35073,5,0,0:0:0
344,192,35235,1,0,0:0:0
256,280,35397,1,0,0:0:0
168,192,35559,1,0,0:0:0
310,89,35721,5,0,0:0:0
358,246,35884,1,0,0:0:0
201,294,36046,1,0,0:0:0
153,137,36208,1,0,0:0:0
366,99,36370,5,0,0:0:0
348,302,36532,1,0,0:0:0
145,284,36694,1,0,0:0:0
163,81,36857,1,0,0:0:0
64,84,37019,6,0,B|88:33|141:27,2,100
64,112,37505,1,0,0:0:0
80,136,37586,1,0,0:0:0
104,152,37667,1,0,0:0:0
124,176,37748,1,0,0:0:0
128,204,37830,1,0,0:0:0
116,232,37911,1,0,0:0:0
96,248,37992,1,0,0:0:0
140,332,38153,5,0,0:0:0
372,52,38478,1,0,0:0:0
132,196,38802,5,0,0:0:0
192,304,38964,1,8,0:0:0
192,304,39045,1,0,0:0:0
192,304,39126,1,0,0:0:0
83,365,39288,2,0,B|47:332|29:278,1,100,8|0,0:0|0:0,0:0:0
57,178,39612,2,0,B|95:209|109:264,2,100,8|0|8,0:0|0:0|0:0,0:0:0
380,188,40099,5,0,0:0:0
320,80,40261,1,8,0:0:0
320,80,40342,1,0,0:0:0
320,80,40423,1,0,0:0:0
429,19,40585,2,0,B|464:51|482:105,1,100,8|0,0:0|0:0,0:0:0
455,206,40909,2,0,B|416:174|402:119,2,100,8|0|8,0:0|0:0|0:0,0:0:0
208,161,41396,5,0,0:0:0
303,222,41558,1,8,0:0:0
114,223,41720,5,0,0:0:0
397,160,41883,1,8,0:0:0
286,144,42045,5,0,0:0:0
225,239,42207,1,0,0:0:0
224,50,42369,5,0,0:0:0
287,333,42532,1,8,0:0:0
209,222,42693,5,0,0:0:0
304,161,42855,1,8,0:0:0
115,160,43017,5,0,0:0:0
398,223,43180,1,8,0:0:0
287,239,43342,5,0,0:0:0
226,144,43504,1,8,0:0:0
225,333,43666,5,0,0:0:0
288,50,43829,1,8,0:0:0
54,218,43991,5,0,0:0:0
84,100,44153,2,0,B|64:56,2,50,8|0|0,0:0|0:0|0:0,0:0:0
192,156,44477,1,8,0:0:0
40,244,44639,1,0,0:0:0
68,64,44801,1,8,0:0:0
220,164,44964,1,0,0:0:0
104,144,45126,1,8,0:0:0
458,166,45288,5,0,0:0:0
428,284,45450,2,0,B|448:328,2,50,8|0|0,0:0|0:0|0:0,0:0:0
320,228,45774,1,8,0:0:0
472,140,45936,1,0,0:0:0
444,320,46098,1,8,0:0:0
292,220,46261,1,0,0:0:0
408,240,46423,1,8,0:0:0
380,128,46585,5,0,0:0:0
392,104,46666,1,0,0:0:0
392,76,46747,1,8,0:0:0
376,56,46829,1,0,0:0:0
352,40,46910,1,0,0:0:0
324,40,46991,1,0,0:0:0
304,56,47072,1,8,0:0:0
288,84,47153,1,0,0:0:0
296,112,47234,1,0,0:0:0
312,136,47315,2,0,B|276:176,3,50,0|8|0|0,0:0|0:0|0:0|0:0,0:0:0
252,184,47639,2,0,B|204:172,3,50,0|8|0|0,0:0|0:0|0:0|0:0,0:0:0
184,152,47964,5,0,0:0:0
164,132,48045,1,8,0:0:0
136,128,48126,1,0,0:0:0
108,136,48207,1,0,0:0:0
88,156,48288,1,0,0:0:0
84,184,48369,1,8,0:0:0
96,208,48450,1,0,0:0:0
112,228,48531,1,0,0:0:0
136,244,48612,1,0,0:0:0
164,252,48693,1,8,0:0:0
184,276,48774,1,0,0:0:0
184,304,48856,1,0,0:0:0
256,28,49180,5,0,0:0:0
424,156,49342,1,0,0:0:0
348,336,49504,1,0,0:0:0
164,336,49666,1,0,0:0:0
88,156,49829,1,0,0:0:0
256,28,50153,5,0,0:0:0
88,156,50315,1,0,0:0:0
164,336,50477,1,0,0:0:0
348,336,50639,1,0,0:0:0
424,156,50802,1,0,0:0:0
188,124,51126,5,0,0:0:0
323,124,51288,1,0,0:0:0
188,259,51450,1,0,0:0:0
323,259,51612,1,0,0:0:0
256,192,51774,12,0,53072,0:0:0
472,192,53720,5,0,0:0:0
40,192,54045,1,0,0:0:0
316,192,54369,6,0,B|420:192,1,100,0|8,0:0|0:0,0:0:0
256,132,54693,2,0,B|256:28,1,100,0|8,0:0|0:0,0:0:0
196,192,55018,2,0,B|92:192,1,100,0|8,0:0|0:0,0:0:0
256,252,55342,2,0,B|256:356,1,100,0|8,0:0|0:0,0:0:0
372,76,55666,6,0,B|302:147,1,100,0|8,0:0|0:0,0:0:0
140,76,55991,2,0,B|211:146,1,100,0|8,0:0|0:0,0:0:0
140,308,56315,2,0,B|210:237,1,100,0|8,0:0|0:0,0:0:0
372,308,56639,2,0,B|301:238,1,100,0|8,0:0|0:0,0:0:0
256,192,56964,12,0,58910,0:0:0
32,188,59234,5,0,0:0:0
480,188,59558,1,0,0:0:0
80,76,63449,5,4,0:0:0
107,86,63530,1,0,0:0:0
133,95,63612,1,0,0:0:0
159,104,63693,1,0,0:0:0
186,113,63774,1,0,0:0:0
229,183,63936,1,4,0:0:0
256,192,64017,1,0,0:0:0
283,200,64098,1,0,0:0:0
326,270,64260,1,0,0:0:0
353,280,64341,1,0,0:0:0
379,289,64423,1,4,0:0:0
405,298,64504,1,0,0:0:0
432,307,64585,1,0,0:0:0
332,276,64909,6,0,B|285:277|285:277|252:236,1,100
332,276,65233,2,0,B|381:276|381:276|413:316,1,100
253,349,65558,1,0,0:0:0
412,205,65720,1,0,0:0:0
313,384,65882,1,0,0:0:0
352,169,66044,1,0,0:0:0
332,361,66206,6,0,B|366:328|366:328|360:277,1,100
332,193,66530,2,0,B|298:227|298:227|304:279,1,100
164,309,66855,2,0,B|197:343|197:343|248:338,1,100
500,245,67179,2,0,B|466:212|466:212|415:217,1,100,0|4,0:0|0:0,0:0:0
180,108,67503,6,0,B|228:108|228:108|260:148,1,100,0|0,0:0|0:0,0:0:0
180,108,67827,2,0,B|132:108|132:108|100:68,1,100,4|0,0:0|0:0,0:0:0
259,35,68152,1,0,0:0:0
100,179,68314,1,4,0:0:0
199,0,68476,1,0,0:0:0
160,215,68638,1,0,0:0:0
180,23,68801,6,0,B|146:56|146:56|152:107,1,100
180,191,69124,2,0,B|214:157|214:157|209:106,1,100
348,75,69449,2,0,B|316:41|316:41|264:46,1,100
12,139,69773,2,0,B|46:172|46:172|97:167,1,100,0|4,0:0|0:0,0:0:0
400,348,70747,6,0,B|296:348,1,100
236,272,71071,2,0,B|336:272,1,100
456,192,71395,2,0,B|232:192,1,200
256,192,71882,1,0,0:0:0
204,104,72044,1,0,0:0:0
132,196,72206,1,0,0:0:0
72,76,72368,2,0,B|104:32|160:32,1,100
328,96,72693,2,0,B|372:128|372:184,1,100
272,316,73017,2,0,B|228:345|177:326,1,100
52,220,73341,5,0,0:0:0
256,192,73503,1,0,0:0:0
464,136,73666,1,0,0:0:0
256,88,73828,1,0,0:0:0
464,32,74152,1,0,0:0:0
52,140,74476,1,0,0:0:0
464,256,74801,1,0,0:0:0
256,192,75125,5,0,0:0:0
168,192,75287,2,0,B|168:244|168:244|216:244|216:296,1,100
344,192,75612,2,0,B|344:140|344:140|296:140|296:88,1,100
108,40,75936,1,0,0:0:0
72,212,76098,1,0,0:0:0
108,40,76260,1,0,0:0:0
244,120,76422,1,0,0:0:0
428,56,76585,2,0,B|400:116|452:172,1,100
368,252,76909,2,0,B|396:192|344:136,1,100
156,100,77233,5,0,0:0:0
248,304,77395,1,0,0:0:0
340,32,77720,1,0,0:0:0
340,352,78044,1,0,0:0:0
172,32,78368,1,0,0:0:0
172,352,78692,1,0,0:0:0
256,40,79017,1,0,0:0:0
88,208,79341,1,0,0:0:0
424,208,79666,1,0,0:0:0
256,116,79990,5,0,0:0:0
256,148,80071,1,0,0:0:0
256,180,80152,1,0,0:0:0
256,212,80233,1,0,0:0:0
256,244,80314,1,0,0:0:0
412,56,80639,5,0,0:0:0
296,96,80801,1,0,0:0:0
432,72,80963,1,0,0:0:0
292,124,81125,1,0,0:0:0
452,92,81287,1,0,0:0:0
288,152,81449,2,0,B|248:180|248:180|200:164,1,100
44,104,81774,2,0,B|0:82,2,50
84,276,82098,2,0,B|56:340|140:364,1,100
240,268,82422,2,0,B|268:204|184:180,2,100
393,350,82909,6,0,B|463:280,1,100
340,296,83233,2,0,B|410:226,1,100
196,181,83557,1,0,0:0:0
357,73,83720,1,0,0:0:0
219,48,83882,1,0,0:0:0
324,204,84044,1,0,0:0:0
144,352,84206,5,0,0:0:0
144,352,84287,1,0,0:0:0
144,352,84368,1,0,0:0:0
48,184,84530,1,0,0:0:0
48,184,84612,1,0,0:0:0
48,184,84693,1,0,0:0:0
172,32,84855,5,0,0:0:0
156,52,84936,1,0,0:0:0
152,80,85017,1,0,0:0:0
168,100,85098,1,0,0:0:0
192,112,85179,1,0,0:0:0
212,128,85260,1,0,0:0:0
224,156,85341,1,0,0:0:0
216,188,85422,1,0,0:0:0
224,216,85503,1,0,0:0:0
120,128,85827,5,0,0:0:0
392,128,85990,1,4,0:0:0
256,280,86314,5,0,0:0:0
168,120,86476,1,0,0:0:0
344,120,86638,1,4,0:0:0
256,308,86962,5,0,0:0:0
148,100,87125,1,0,0:0:0
364,100,87287,1,4,0:0:0
256,336,87611,5,0,0:0:0
132,80,87773,1,0,0:0:0
380,80,87935,1,4,0:0:0
144,216,88260,6,0,B|92:180|44:228,1,100,0|0,0:0|0:0,0:0:0
100,272,88585,2,0,B|152:308|200:260,1,100
248,184,88909,1,0,0:0:0
248,184,89071,1,0,0:0:0
392,232,89233,1,0,0:0:0
392,232,89395,1,0,0:0:0
392,232,89557,5,0,0:0:0
327,125,89720,1,0,0:0:0
434,61,89882,1,0,0:0:0
498,167,90044,1,0,0:0:0
304,344,90206,6,0,B|356:355|407:319,2,100
288,324,90612,1,0,0:0:0
264,312,90693,1,0,0:0:0
236,320,90774,1,0,0:0:0
208,312,90855,1,0,0:0:0
192,292,90936,1,0,0:0:0
188,264,91017,1,0,0:0:0
196,236,91098,1,0,0:0:0
432,56,91341,5,0,0:0:0
80,328,91666,1,0,0:0:0
498,65,91990,5,0,0:0:0
255,131,92152,1,8,0:0:0
255,131,92233,1,0,0:0:0
255,131,92314,1,0,0:0:0
340,84,92476,2,0,B|359:35|359:35|407:24|407:24,1,100,8|0,0:0|0:0,0:0:0
414,113,92800,2,0,B|394:161|394:161|346:172|346:172,1,100,8|0,0:0|0:0,0:0:0
347,172,93125,1,8,0:0:0
14,319,93287,5,0,0:0:0
257,253,93449,1,8,0:0:0
257,253,93530,1,0,0:0:0
257,253,93611,1,0,0:0:0
172,300,93773,2,0,B|153:349|153:349|105:360|105:360,1,100,8|0,0:0|0:0,0:0:0
98,271,94097,2,0,B|118:223|118:223|166:212|166:212,1,100,8|0,0:0|0:0,0:0:0
165,212,94422,1,8,0:0:0
64,24,94584,5,0,0:0:0
448,24,94746,1,8,0:0:0
104,80,94908,1,0,0:0:0
408,80,95071,1,8,0:0:0
136,136,95233,1,0,0:0:0
376,136,95395,1,8,0:0:0
176,196,95557,1,0,0:0:0
336,196,95719,1,8,0:0:0
176,196,95881,5,0,0:0:0
336,196,96044,1,8,0:0:0
136,248,96206,1,0,0:0:0
376,248,96368,1,8,0:0:0
104,304,96530,1,0,0:0:0
408,304,96692,1,8,0:0:0
64,360,96854,1,0,0:0:0
448,360,97017,1,8,0:0:0
164,160,97179,6,0,B|264:160,1,100,2|8,0:0|0:0,0:0:0
348,224,97503,2,0,B|248:224,1,100,0|8,0:0|0:0,0:0:0
408,160,97827,2,0,B|432:60,1,100,0|8,0:0|0:0,0:0:0
104,224,98152,2,0,B|80:324,1,100,0|8,0:0|0:0,0:0:0
200,128,98476,2,0,B|156:168|200:228,1,100,0|8,0:0|0:0,0:0:0
312,256,98800,2,0,B|356:216|312:156,1,100,0|8,0:0|0:0,0:0:0
132,80,99125,2,0,B|88:120|132:180,1,100,0|8,0:0|0:0,0:0:0
380,304,99449,2,0,B|424:264|380:204,1,100,0|8,0:0|0:0,0:0:0
256,192,99773,1,0,0:0:0
256,192,99935,5,8,0:0:0
312,160,100098,1,0,0:0:0
200,224,100260,1,8,0:0:0
368,128,100422,1,0,0:0:0
144,256,100584,1,8,0:0:0
424,96,100746,1,0,0:0:0
88,288,100908,1,8,0:0:0
424,96,101071,1,0,0:0:0
144,256,101233,5,8,0:0:0
368,128,101395,1,0,0:0:0
200,224,101557,1,8,0:0:0
312,160,101719,1,0,0:0:0
256,192,101881,1,8,0:0:0
256,192,102044,1,0,0:0:0
256,48,102368,5,0,0:0:0
152,320,102530,1,0,0:0:0
408,152,102692,1,0,0:0:0
104,152,102855,1,0,0:0:0
360,320,103017,1,0,0:0:0
255,336,103341,5,0,0:0:0
359,64,103503,1,0,0:0:0
104,231,103665,1,0,0:0:0
408,232,103828,1,0,0:0:0
152,64,103990,1,0,0:0:0
338,109,104314,5,0,0:0:0
173,274,104476,1,0,0:0:0
173,109,104638,1,0,0:0:0
338,274,104800,1,0,0:0:0
256,192,104962,12,0,106260,0:0:0
136,96,106908,5,0,0:0:0
376,288,107233,5,0,0:0:0
60,328,107557,5,0,0:0:0
84,340,107638,1,0,0:0:0
108,356,107719,1,0,0:0:0
136,364,107800,1,0,0:0:0
164,356,107881,1,0,0:0:0
188,340,107962,1,0,0:0:0
216,336,108044,1,0,0:0:0
244,344,108125,1,0,0:0:0
272,340,108206,2,0,B|316:312,2,50
340,308,108449,2,0,B|392:300,2,50
416,288,108692,5,0,0:0:0
432,268,108773,1,0,0:0:0
436,240,108854,1,0,0:0:0
416,220,108935,1,0,0:0:0
384,212,109017,1,0,0:0:0
360,192,109098,1,0,0:0:0
348,168,109179,1,0,0:0:0
352,140,109260,1,0,0:0:0
368,120,109341,1,0,0:0:0
392,108,109422,1,0,0:0:0
416,96,109503,2,0,B|452:56,2,50
432,40,109746,2,0,B|380:20,2,50
256,192,110152,12,0,112098,0:0:0
308,44,112745,5,0,0:0:0
340,48,112826,1,0,0:0:0
368,64,112907,1,0,0:0:0
392,88,112988,1,0,0:0:0
404,116,113069,1,0,0:0:0
408,148,113150,1,0,0:0:0
400,180,113231,1,8,0:0:0
376,200,113312,1,0,0:0:0
344,212,113393,2,0,B|288:192,1,50
296,195,113555,2,0,B|240:192,1,50
246,192,113717,2,0,B|196:156,2,50,0|0|8,0:0|0:0|0:0,0:0:0
220,208,113961,5,0,0:0:0
200,232,114042,1,0,0:0:0
192,264,114123,1,0,0:0:0
192,296,114204,1,8,0:0:0
204,324,114285,1,0,0:0:0
228,344,114366,1,0,0:0:0
256,356,114447,1,0,0:0:0
288,360,114528,1,8,0:0:0
320,356,114609,2,0,B|376:352,1,50
369,352,114772,2,0,B|432:320,1,50,0|8,0:0|0:0,0:0:0
414,329,114934,2,0,B|464:356,3,50,0|0|0|8,0:0|0:0|0:0|0:0,0:0:0
432,300,115258,5,0,0:0:0
440,268,115339,1,0,0:0:0
436,236,115420,1,0,0:0:0
416,212,115501,1,8,0:0:0
392,192,115582,1,0,0:0:0
360,188,115663,1,0,0:0:0
328,180,115745,1,0,0:0:0
296,164,115826,1,8,0:0:0
272,140,115907,2,0,B|248:96,3,50,0|0|0|8,0:0|0:0|0:0|0:0,0:0:0
224,72,116231,2,0,B|168:48,3,50,0|0|0|8,0:0|0:0|0:0|0:0,0:0:0
148,44,116555,5,0,0:0:0
116,48,116636,1,0,0:0:0
88,64,116717,1,0,0:0:0
68,88,116799,1,8,0:0:0
56,116,116880,1,0,0:0:0
60,148,116961,1,0,0:0:0
76,176,117042,1,0,0:0:0
96,200,117123,2,0,B|144:232|212:208,1,100,8|0,0:0|0:0,0:0:0
192,213,117447,5,8,0:0:0
84,288,117609,1,0,0:0:0
188,364,117772,1,8,0:0:0
304,288,117934,1,0,0:0:0
308,128,118096,6,8,B|344:172,4,50,8|8|8|8|0,0:0|0:0|0:0|0:0|0:0,0:0:0
288,112,118501,1,0,0:0:0
260,104,118582,1,0,0:0:0
232,108,118663,1,0,0:0:0
212,124,118745,1,8,0:0:0
196,148,118826,1,0,0:0:0
192,176,118907,1,0,0:0:0
200,204,118988,1,0,0:0:0
220,224,119069,1,8,0:0:0
240,232,119150,1,0,0:0:0
268,240,119231,1,0,0:0:0
292,252,119312,1,0,0:0:0
308,272,119393,5,8,0:0:0
316,304,119474,1,0,0:0:0
308,332,119555,1,0,0:0:0
288,352,119636,1,0,0:0:0
260,364,119717,1,8,0:0:0
232,368,119799,1,0,0:0:0
204,360,119880,2,0,B|160:340|128:280,1,100,0|8,0:0|0:0,0:0:0
112,76,120204,2,0,B|156:44,3,50,0|0|8|0,0:0|0:0|0:0|0:0,0:0:0
180,40,120528,6,0,B|228:64,3,50,0|0|8|0,0:0|0:0|0:0|0:0,0:0:0
252,68,120853,2,0,B|308:48,3,50,0|0|8|0,0:0|0:0|0:0|0:0,0:0:0
328,48,121177,2,0,B|384:68,3,50,0|0|8|0,0:0|0:0|0:0|0:0,0:0:0
400,80,121501,2,0,B|420:136,3,50,0|0|8|0,0:0|0:0|0:0|0:0,0:0:0
412,156,121826,2,0,B|384:208,3,50,0|0|8|0,0:0|0:0|0:0|0:0,0:0:0
376,224,122150,1,0,0:0:0
380,252,122231,1,0,0:0:0
396,272,122312,1,8,0:0:0
420,288,122393,1,0,0:0:0
436,308,122474,1,0,0:0:0
256,112,123123,5,0,0:0:0
176,192,123285,1,8,0:0:0
256,272,123447,1,0,0:0:0
336,192,123609,1,8,0:0:0
336,192,123772,5,0,0:0:0
416,272,123934,1,8,0:0:0
496,192,124096,1,0,0:0:0
416,112,124258,1,8,0:0:0
256,112,124420,5,0,0:0:0
336,192,124582,1,8,0:0:0
256,272,124744,1,0,0:0:0
176,192,124906,1,8,0:0:0
176,192,125069,5,0,0:0:0
96,272,125231,1,8,0:0:0
16,192,125393,1,0,0:0:0
96,112,125555,1,8,0:0:0
288,160,125717,5,0,0:0:0
326,41,125880,1,8,0:0:0
451,76,126042,1,0,0:0:0
406,198,126204,1,8,0:0:0
288,160,126366,1,0,0:0:0
326,41,126528,1,8,0:0:0
451,76,126690,1,0,0:0:0
406,198,126853,1,8,0:0:0
224,224,127015,5,0,0:0:0
186,343,127178,1,8,0:0:0
61,308,127340,1,0,0:0:0
106,186,127502,1,8,0:0:0
224,224,127664,1,0,0:0:0
186,343,127826,1,8,0:0:0
61,308,127988,1,0,0:0:0
106,186,128151,1,8,0:0:0
112,144,128312,6,0,B|61:131,3,50,0|0|8|0,0:0|0:0|0:0|0:0,0:0:0
200,80,128636,2,0,B|176:32,3,50,0|2|8|2,0:0|0:0|0:0|0:0,0:0:0
312,80,128961,2,0,B|336:32,3,50,0|0|8|2,0:0|0:0|0:0|0:0,0:0:0
400,144,129285,2,0,B|450:131,3,50,0|2|8|0,0:0|0:0|0:0|0:0,0:0:0
400,240,129609,6,0,B|450:252,3,50,2|0|8|0,0:0|0:0|0:0|0:0,0:0:0
312,304,129933,2,0,B|336:352,3,50,2|2|10|2,0:0|0:0|0:0|0:0,0:0:0
200,304,130258,2,0,B|176:352,3,50,0|0|8|2,0:0|0:0|0:0|0:0,0:0:0
112,240,130582,2,0,B|61:252,3,50,0|2|8|0,0:0|0:0|0:0|0:0,0:0:0
256,192,130989,12,0,133583,0:0:0
256,56,134149,5,0,0:0:0
200,272,134637,1,0,0:0:0
312,272,134799,1,0,0:0:0
176,128,135284,1,0,0:0:0
336,128,135446,1,0,0:0:0
176,256,135609,1,0,0:0:0
336,256,135771,1,0,0:0:0
256,52,135933,1,0,0:0:0
256,332,136095,1,0,0:0:0
256,120,136581,5,0,0:0:0
356,196,136744,1,0,0:0:0
304,304,136906,1,0,0:0:0
208,304,137068,1,0,0:0:0
156,196,137230,1,0,0:0:0
256,352,137717,5,0,0:0:0
256,32,138041,1,0,0:0:0
256,192,138365,1,0,0:0:0
256,192,138446,1,0,0:0:0
256,192,138528,1,0,0:0:0
256,192,138609,1,0,0:0:0
256,192,138690,1,0,0:0:0
328,160,138852,6,0,B|376:136|408:88,2,100
256,192,139338,1,0,0:0:0
184,160,139501,2,0,B|136:136|104:88,2,100
256,192,139987,5,0,0:0:0
32,84,140311,1,0,0:0:0
480,156,140636,1,0,0:0:0
32,224,140960,1,0,0:0:0
480,292,141284,1,0,0:0:0
480,84,141609,1,0,0:0:0
32,156,141934,1,0,0:0:0
480,224,142258,1,0,0:0:0
32,292,142582,1,0,0:0:0
256,192,142906,6,0,B|276:192|256:176|240:192|256:208|272:192,9,25
256,88,143392,1,0,0:0:0
360,192,143554,1,0,0:0:0
256,296,143716,1,0,0:0:0
152,192,143878,1,0,0:0:0
208,132,144365,6,0,B|316:132,1,100
304,248,144690,2,0,B|196:248,2,100
412,108,145176,1,0,0:0:0
100,276,145501,1,0,0:0:0
100,108,145825,1,0,0:0:0
412,276,146149,1,0,0:0:0
168,80,146474,6,0,B|368:80,1,200
344,304,147122,2,0,B|144:304,1,200
256,120,147771,5,0,0:0:0
256,152,148095,1,0,0:0:0
256,184,148419,1,0,0:0:0
256,224,148744,1,0,0:0:0
256,192,149069,5,0,0:0:0
256,276,149230,2,0,B|308:276|308:276|336:232,1,100
256,108,149555,2,0,B|204:108|204:108|176:152,1,100
120,240,149879,2,0,B|120:292|120:292|164:320,1,100
392,144,150203,2,0,B|392:92|392:92|348:64,1,100
104,32,150528,2,0,B|52:32|52:32|24:76,1,100
408,352,150852,2,0,B|460:352|460:352|488:308,1,100
256,112,151176,5,0,0:0:0
256,272,151338,1,0,0:0:0
316,132,151500,1,0,0:0:0
196,252,151663,1,0,0:0:0
336,188,151825,5,0,0:0:0
176,188,151987,1,0,0:0:0
316,252,152149,1,0,0:0:0
196,132,152311,1,0,0:0:0
256,272,152473,1,0,0:0:0
256,112,152636,1,0,0:0:0
408,32,152798,5,0,0:0:0
104,352,152960,1,0,0:0:0
480,192,153122,1,0,0:0:0
32,192,153284,1,0,0:0:0
408,352,153446,1,0,0:0:0
104,32,153609,1,0,0:0:0
256,380,153771,1,0,0:0:0
256,4,153933,1,0,0:0:0
104,352,154095,1,0,0:0:0
408,32,154257,1,0,0:0:0
32,192,154419,5,0,0:0:0
480,192,154582,1,0,0:0:0
104,32,154744,1,0,0:0:0
408,352,154906,1,0,0:0:0
192,96,155068,5,0,0:0:0
320,96,155230,1,0,0:0:0
192,96,155392,1,0,0:0:0
320,96,155555,1,0,0:0:0
396,192,155717,5,0,0:0:0
116,192,155879,1,0,0:0:0
396,192,156041,1,0,0:0:0
116,192,156203,1,0,0:0:0
32,300,156365,5,0,0:0:0
480,300,156528,1,0,0:0:0
32,300,156690,1,0,0:0:0
480,300,156852,1,0,0:0:0
256,192,156933,12,0,158473,0:0:0
108,340,158798,5,0,0:0:0
456,176,159122,1,0,0:0:0
152,24,159446,1,0,0:0:0
116,224,168528,5,0,0:0:0
128,252,168609,1,0,0:0:0
160,260,168690,1,0,0:0:0
192,260,168771,1,0,0:0:0
220,248,168852,1,0,0:0:0
236,220,168933,1,0,0:0:0
252,192,169014,1,0,0:0:0
276,164,169095,1,0,0:0:0
292,136,169176,1,0,0:0:0
320,124,169257,1,0,0:0:0
352,124,169338,1,0,0:0:0
384,132,169419,1,0,0:0:0
396,160,169501,1,0,0:0:0
256,192,169825,5,0,0:0:0
120,88,169988,5,0,0:0:0
392,89,170150,1,0,0:0:0
392,293,170312,1,0,0:0:0
120,292,170474,1,0,0:0:0
84,120,170798,5,0,0:0:0
420,264,170961,1,0,0:0:0
84,264,171123,1,0,0:0:0
420,120,171285,1,0,0:0:0
256,192,171447,1,0,0:0:0
192,52,171771,5,0,0:0:0
320,332,171934,1,0,0:0:0
320,52,172096,1,0,0:0:0
192,332,172258,1,0,0:0:0
256,192,172501,12,0,173717,0:0:0
340,28,174366,5,0,0:0:0
156,28,174690,1,0,0:0:0
484,72,175015,5,0,0:0:0
28,156,175177,1,0,0:0:0
484,232,175339,1,0,0:0:0
24,308,175501,1,0,0:0:0
484,312,175663,5,0,0:0:0
28,228,175825,1,0,0:0:0
484,152,175987,1,0,0:0:0
24,76,176149,1,0,0:0:0
256,192,176311,5,0,0:0:0
256,192,176392,1,0,0:0:0
256,192,176473,1,0,0:0:0
256,192,176554,1,0,0:0:0
256,192,176635,1,0,0:0:0
312,40,176959,5,0,0:0:0
200,344,177283,1,0,0:0:0
460,324,177607,5,0,0:0:0
336,340,177770,1,0,0:0:0
336,340,177851,1,0,0:0:0
336,340,177932,1,0,0:0:0
316,212,178094,1,0,0:0:0
464,124,178256,1,0,0:0:0
312,40,178418,1,0,0:0:0
212,148,178580,2,0,B|288:148|288:148|340:200,1,149.999995529652
52,60,178905,5,0,0:0:0
176,44,179068,1,0,0:0:0
176,44,179149,1,0,0:0:0
176,44,179230,1,0,0:0:0
196,172,179392,1,0,0:0:0
48,260,179554,1,0,0:0:0
200,344,179716,1,0,0:0:0
300,236,179878,2,0,B|224:236|224:236|172:184,1,149.999995529652
328,40,180202,6,0,B|256:76|164:28,1,149.999995529652
184,344,180526,2,0,B|256:308|348:356,1,149.999995529652
408,264,180851,2,0,B|372:192|420:100,1,149.999995529652
104,120,181175,2,0,B|140:192|92:284,1,149.999995529652
348,100,181499,5,0,0:0:0
164,100,181662,1,0,0:0:0
348,284,181824,1,0,0:0:0
164,284,181986,1,0,0:0:0
440,60,182148,5,0,0:0:0
72,60,182310,1,0,0:0:0
440,324,182472,1,0,0:0:0
72,324,182635,1,0,0:0:0
44,132,182797,6,0,B|192:108,1,149.999995529652,4|0,0:0|0:0,0:0:0
468,252,183121,2,0,B|320:276,1,149.999995529652,4|0,0:0|0:0,0:0:0
44,60,183445,2,0,B|192:36,1,149.999995529652,4|0,0:0|0:0,0:0:0
468,324,183770,2,0,B|320:348,1,149.999995529652,4|0,0:0|0:0,0:0:0
468,132,184094,2,0,B|320:108,1,149.999995529652,4|0,0:0|0:0,0:0:0
44,252,184418,2,0,B|192:276,1,149.999995529652,4|0,0:0|0:0,0:0:0
468,60,184742,2,0,B|320:36,1,149.999995529652,4|0,0:0|0:0,0:0:0
44,324,185067,2,0,B|192:348,1,149.999995529652,4|0,0:0|0:0,0:0:0
256,192,185391,12,0,186689,0:0:0
456,232,187337,5,0,0:0:0
56,152,187662,1,0,0:0:0
256,192,187986,5,0,0:0:0
368,150,188148,1,0,0:0:0
297,304,188310,1,0,0:0:0
143,233,188472,1,0,0:0:0
214,79,188635,1,0,0:0:0
256,192,188959,5,0,0:0:0
143,150,189121,1,0,0:0:0
214,304,189283,1,0,0:0:0
368,233,189445,1,0,0:0:0
297,79,189608,1,0,0:0:0
408,156,189932,5,0,0:0:0
408,156,190094,1,0,0:0:0
104,228,190256,1,0,0:0:0
104,228,190418,1,0,0:0:0
256,192,190580,12,0,191878,0:0:0
256,192,192526,5,0,0:0:0
256,192,192851,1,0,0:0:0
256,32,193175,5,0,0:0:0
24,192,193499,1,0,0:0:0
256,352,193824,1,0,0:0:0
488,192,194148,1,0,0:0:0
124,32,194472,5,0,0:0:0
32,348,194797,1,0,0:0:0
480,348,195121,1,0,0:0:0
388,32,195445,1,0,0:0:0
256,192,195770,12,0,198364,0:0:0
256,192,206147,12,0,208093,0:0:0
256,28,208743,5,0,0:0:0
424,156,208905,1,0,0:0:0
348,336,209067,1,0,0:0:0
164,336,209229,1,0,0:0:0
88,156,209391,1,0,0:0:0
256,36,209715,5,0,0:0:0
148,176,209878,1,0,0:0:0
364,176,210040,1,0,0:0:0
64,336,210202,1,0,0:0:0
448,336,210364,1,0,0:0:0
92,64,210688,5,0,0:0:0
420,64,210851,1,0,0:0:0
92,320,211013,1,0,0:0:0
420,320,211175,1,0,0:0:0
256,192,211337,1,0,0:0:0
256,24,211661,5,0,0:0:0
152,360,211824,1,0,0:0:0
448,140,211986,1,0,0:0:0
64,140,212148,1,0,0:0:0
360,360,212310,1,0,0:0:0
44,340,212634,5,0,0:0:0
144,52,212797,1,0,0:0:0
256,296,212959,1,0,0:0:0
368,52,213121,1,0,0:0:0
468,340,213283,1,0,0:0:0
76,192,213607,5,0,0:0:0
436,192,213769,1,0,0:0:0
256,192,213931,12,0,217823,0:0:0
96,56,219120,5,0,0:0:0
404,144,219282,1,0,0:0:0
108,240,219445,1,0,0:0:0
416,328,219607,1,0,0:0:0
416,56,220093,5,0,0:0:0
108,144,220255,1,0,0:0:0
404,240,220418,1,0,0:0:0
96,328,220580,1,0,0:0:0
104,36,221066,6,0,B|104:84|52:140,1,100
408,348,221391,2,0,B|408:300|460:244,1,100
408,36,221715,2,0,B|408:84|460:140,1,100
104,348,222039,2,0,B|104:300|52:244,1,100,2|0,0:0|0:0,0:0:0
224,48,222363,1,0,0:0:0
288,336,222526,1,0,0:0:0
128,183,223336,5,0,0:0:0
153,158,223418,1,0,0:0:0
176,135,223499,1,0,0:0:0
199,112,223580,1,0,0:0:0
222,90,223661,1,0,0:0:0
244,67,223742,2,0,B|292:64,4,50,2|0|0|0|0,0:0|0:0|0:0|0:0|0:0,0:0:0
281,166,224146,5,0,0:0:0
258,189,224228,1,0,0:0:0
236,211,224309,1,0,0:0:0
264,319,224391,5,0,0:0:0
289,294,224473,1,0,0:0:0
312,271,224554,1,0,0:0:0
335,248,224635,1,0,0:0:0
357,226,224716,1,0,0:0:0
380,203,224797,2,0,B|383:155,4,50,0|0|0|0|2,0:0|0:0|0:0|0:0|0:0,0:0:0
258,189,225201,5,0,0:0:0
258,189,225282,1,0,0:0:0
258,189,225363,1,0,0:0:0
258,189,225445,1,0,0:0:0
258,189,225526,1,0,0:0:0
258,189,225607,1,0,0:0:0
256,192,225931,12,0,230471,0:0:0
156,320,230795,5,0,0:0:0
356,64,231119,5,0,0:0:0
256,0,231444,5,0,0:0:0
256,48,231525,5,0,0:0:0
256,96,231606,5,0,0:0:0
256,144,231687,5,0,0:0:0
256,192,231768,5,0,0:0:0
256,244,231849,5,0,0:0:0
256,292,231930,5,0,0:0:0
256,340,232011,5,0,0:0:0
256,384,232092,5,0,0:0:0
