osu file format v5

[General]
AudioFilename: Team Nekokan - No sleep until clear.mp3
AudioLeadIn: 0
PreviewTime: -1
Countdown: 1
SampleSet: Normal
StackLeniency: 0.7
Mode: 0
LetterboxInBreaks: 1

[Metadata]
Title:No Sleep Until Clear
Artist:Team Nekokan
Creator:Scooter1000
Version:Hard
Source:
Tags:Team Nekokan no sleep until clear

[Difficulty]
HPDrainRate:7
CircleSize:6
OverallDifficulty:7
SliderMultiplier:1.2
SliderTickRate:2

[Events]
//Background and Video events
1,-256,"180a18cbd729386365a5ded9d2433aee.avi"
//Break Periods
2,59362,69151
2,112551,132556
//Storyboard Layer 0 (Background)
//Storyboard Layer 1 (Failing)
//Storyboard Layer 2 (Passing)
//Storyboard Layer 3 (Foreground)
//Storyboard Sound Samples
//Background Colour Transformations
3,100,163,162,255

[TimingPoints]
17000,648.648648648649,4,1,0,100,1

[HitObjects]
64,32,17162,1,0
128,32,17648,1,0
160,32,17810,1,0
160,128,18459,1,0
224,128,18783,1,0
256,128,18945,1,0
288,128,19108,1,0
352,128,19432,1,0
416,128,21054,5,0
448,128,21216,1,0
448,192,21540,1,0
352,192,22351,1,0
320,192,22513,1,0
288,192,22675,1,0
256,192,22837,1,0
192,192,23486,5,0
128,192,23810,1,0
64,192,24135,1,0
64,128,24459,1,0
128,128,24783,1,0
160,128,24945,1,0
224,128,25270,1,0
320,128,27540,5,0
352,160,27702,1,0
320,192,27864,1,0
288,192,28027,1,0
256,192,28189,1,0
192,192,28675,1,0
128,192,29000,1,0
96,192,29162,1,0
64,192,29324,1,0
64,288,29972,1,0
128,288,30297,1,0
160,288,30459,1,0
288,288,31918,5,0
352,288,32243,1,0
384,288,32405,1,0
448,288,32729,1,0
480,256,32891,1,0
448,224,33054,1,0
384,224,33378,1,0
352,224,33540,1,0
320,224,33702,1,0
256,224,34027,5,0
224,224,34189,1,0
192,224,34351,1,0
96,224,34837,1,0
64,224,35000,1,0
64,160,35324,1,0
64,128,35486,1,0
96,96,35648,1,0
192,96,37108,1,0
288,96,37756,5,0
352,96,38081,1,0
416,96,38405,1,0
416,192,39054,1,0
416,224,39216,1,0
352,224,39540,1,0
256,224,40351,1,0
224,224,40513,1,0
192,224,40675,1,0
160,224,40837,1,0
128,224,41000,1,0
64,224,41324,1,0
64,288,41648,1,0
64,320,41810,1,0
128,320,42135,1,0
224,352,42945,5,0
288,352,43270,1,0
352,352,43594,1,0
416,320,44243,1,0
416,288,44405,1,0
384,256,44729,1,0
320,192,45540,1,0
288,192,45702,1,0
256,192,45864,1,0
224,192,46027,1,0
192,224,46189,1,0
256,256,47486,1,0
352,256,48135,5,0
448,256,48459,1,0
448,192,48783,1,4
448,160,48945,1,4
416,128,49108,1,4
384,128,49270,1,4
352,128,49432,1,4
288,128,49756,5,4
256,128,49918,1,4
224,128,50081,1,4
192,128,50243,1,4
160,128,50405,1,4
128,160,50729,5,4
160,192,50891,1,4
192,192,51054,1,4
224,192,51216,1,4
256,192,51378,1,4
320,192,52675,1,0
384,256,53324,5,0
320,256,53648,1,0
256,256,53972,1,0
192,256,54297,1,0
128,256,54621,1,0
64,256,54945,1,0
32,224,55270,1,0
64,192,55594,1,0
32,160,55918,1,0
64,128,56243,1,0
128,128,56567,1,0
224,192,58837,1,0
288,192,59162,1,0
96,128,70351,5,0
160,128,70675,1,0
192,128,70837,1,0
224,128,71000,1,0
288,128,71648,1,0
352,128,71972,1,0
384,128,72135,1,0
416,128,72297,1,0
448,160,72621,1,0
384,192,74243,5,0
352,192,74405,1,0
320,192,74567,1,0
288,192,74729,1,0
224,192,75540,1,0
192,192,75702,1,0
160,192,75864,1,0
128,192,76027,1,0
96,160,76351,1,0
32,160,76675,1,0
32,96,77000,1,0
32,32,77324,1,0
96,32,77648,1,0
192,32,77972,2,0,B|288:32,1,90
333,32,78621,2,0,B|384:97|221:160|191:158,1,210
160,160,80729,5,0
224,160,81054,1,0
256,160,81216,1,0
320,160,81702,1,0
352,160,81864,1,0
384,160,82027,1,0
416,160,82189,1,0
448,192,82351,1,0
416,224,82513,1,0
352,224,83162,1,0
288,224,83486,1,0
256,224,83648,1,0
160,224,85108,5,0
128,224,85270,1,0
96,224,85432,1,0
64,224,85594,1,4
32,256,85918,5,0
64,288,86081,1,0
96,288,86243,1,0
160,288,86567,5,0
192,288,86729,1,0
224,288,86891,1,4
288,288,87216,5,0
320,288,87378,1,0
352,288,87540,1,4
416,288,87864,5,0
448,256,88027,1,0
448,224,88189,1,0
448,160,88513,5,0
448,128,88675,1,0
448,96,88837,1,0
384,96,90945,5,0
320,96,91270,1,0
256,96,91594,1,0
160,96,92243,1,0
128,96,92405,1,0
160,96,92729,1,0
128,160,93540,5,0
106,190,93702,1,0
88,225,93864,1,0
96,256,94026,1,0
128,288,94189,1,0
185,317,94513,1,0
254,318,94837,1,0
287,317,94999,1,0
352,319,95324,1,0
352,352,96134,5,0
288,352,96459,1,0
224,352,96783,1,0
128,352,97432,1,0
96,352,97594,1,0
64,320,97918,1,0
64,256,98729,5,0
64,224,98891,1,0
64,192,99053,1,0
96,192,99216,1,0
128,192,99378,2,0,B|320:192,1,180
320,128,100675,1,0
256,128,101324,5,0
192,128,101648,1,0
128,160,101972,6,4,B|128:128,4,30
64,160,102945,6,4,B|64:128,4,30
64,224,103918,6,0,B|96:224,3,30
128,224,104567,2,0,B|384:224,1,240
352,192,106513,5,0
416,192,106837,1,0
480,192,107162,1,4
480,128,107486,1,4
416,128,107810,1,0
352,128,108135,1,0
288,128,108459,1,4
224,128,108783,1,0
160,128,109108,1,0
96,128,109432,1,0
96,192,109756,1,0
192,192,112027,1,0
320,192,112351,1,0
96,96,133756,5,0
128,160,134243,1,0
159,222,134405,2,0,B|180:194|244:165,1,90
256,224,135054,1,0
288,288,135216,1,0
323,227,135378,2,0,B|367:304,1,60
448,288,136189,1,0
448,224,136513,1,0
448,160,136837,1,0
448,96,139108,5,0
416,96,139270,1,0
384,96,139432,1,0
352,96,139594,1,0
288,96,139918,1,0
256,96,140081,1,0
192,96,140405,1,0
160,96,140567,1,0
128,96,140729,1,0
64,96,141216,1,0
32,128,141378,1,0
64,160,141702,1,0
128,160,142027,1,0
192,160,143972,5,0
256,160,144297,1,4
288,160,144459,1,0
320,160,144621,1,0
352,160,144783,1,0
384,192,145108,1,0
352,224,145432,1,0
320,224,145594,1,0
256,224,146081,5,0
224,224,146243,1,0
192,224,146405,1,0
224,224,146567,1,0
256,224,146729,1,0
192,224,147054,1,0
160,224,147216,1,0
128,224,147378,1,4
64,224,147702,1,0
32,224,147864,1,0
0,224,148027,1,0
32,288,148351,1,0
64,288,148513,1,0
96,288,148675,1,4
192,288,149486,5,0
224,288,149648,1,0
256,288,149810,1,0
288,288,149972,1,0
352,288,150783,5,0
384,288,150945,1,0
416,288,151108,1,0
448,288,151270,1,0
448,224,151918,1,0
384,224,152243,1,0
352,224,152405,1,0
288,224,152891,1,4
224,224,153216,1,0
160,224,153540,1,0
96,224,153864,1,0
64,192,154351,1,0
128,192,154837,2,0,B|384:192,1,240
398,225,156459,2,0,B|249:254|97:223,1,300
96,160,158405,5,0
96,96,158729,1,0
96,160,159054,1,0
160,160,159702,1,0
192,160,159864,1,0
256,160,160189,1,0
320,160,161000,5,0
352,160,161162,1,0
384,160,161324,1,0
416,160,161486,1,0
448,160,161648,1,0
480,192,161972,1,0
448,224,162297,1,0
480,256,162459,1,0
448,288,162783,1,0
352,288,163594,5,0
288,288,163918,1,0
224,288,164243,1,0
128,288,164891,1,0
96,288,165054,1,0
64,224,165378,1,0
64,160,166189,5,0
96,128,166351,1,0
64,96,166513,1,0
96,64,166675,1,0
160,64,166837,1,0
256,64,168135,1,0
352,64,168783,1,0
416,64,169108,1,0
416,128,169432,5,4
448,160,169594,1,4
465,192,169756,1,4
459,224,169918,1,4
437,256,170081,1,4
387,292,170405,5,4
350,308,170567,1,4
309,316,170729,1,4
268,314,170891,1,4
233,301,171054,1,4
180,273,171378,5,4
150,250,171540,1,4
113,232,171702,1,4
71,238,171864,1,4
32,256,172027,1,4
32,160,173324,1,0
32,64,173972,1,0
96,64,174297,1,0
192,64,174621,1,0
172,98,174783,1,0
192,128,174945,1,0
224,160,175108,1,0
256,192,175270,1,0
224,192,175594,1,0
288,192,175918,1,4
416,192,176567,5,0
384,128,176891,1,0
320,128,177216,1,0
256,128,177864,5,0
256,160,178027,1,0
192,160,178351,1,0
128,160,179162,1,0
96,160,179324,1,0
128,160,179486,1,0
96,160,179648,1,0
128,160,179810,1,0
128,224,180135,1,0
96,288,180459,1,0
128,288,180621,1,0
192,288,180945,1,0
288,288,181756,5,0
352,288,182081,1,0
416,288,182405,1,4
480,256,183054,1,0
480,224,183216,1,0
480,160,183540,1,0
416,160,184351,5,0
384,160,184513,1,0
352,160,184675,1,0
320,160,184837,1,0
288,160,185000,1,0
256,192,186297,1,0
128,192,186945,1,0
64,128,187270,1,0
64,64,187594,5,4
96,64,187756,1,4
128,64,187918,1,4
160,64,188081,1,4
192,64,188243,1,4
256,64,188567,5,4
288,64,188729,1,4
320,64,188891,1,4
352,64,189054,1,4
384,64,189216,1,4
416,96,189540,5,4
384,128,189702,1,4
352,128,189864,1,4
320,128,190027,1,4
288,128,190189,1,4
192,128,191486,5,0
96,128,192135,1,0
96,192,192459,1,0
96,256,192783,1,4
160,256,193108,1,4
224,256,193432,1,0
288,256,193756,1,0
352,256,194081,1,4
416,256,194405,1,4
480,256,194729,1,0
480,320,195054,1,0
416,320,195378,2,0,B|224:256|96:128,1,360
320,128,201702,5,0
192,128,202513,1,0
96,64,203162,2,0,B|480:352,1,450
467,258,205918,2,0,B|480:128|256:32,1,300
64,64,208351,5,4
64,96,208513,1,4
64,128,208675,1,4
64,160,208837,1,4
64,192,209000,1,4
64,256,209324,5,4
68,288,209486,1,4
78,320,209648,1,4
97,349,209810,1,4
127,378,209972,1,4
194,382,210297,5,4
240,376,210459,1,4
269,347,210621,1,4
291,317,210783,1,4
296,285,210945,1,4
297,223,211270,5,4
289,187,211432,1,4
266,157,211594,1,4
234,136,211756,1,4
196,129,211918,1,4
132,153,212243,5,4
108,184,212405,1,4
94,220,212567,1,4
104,257,212729,1,4
135,292,212891,1,4
192,320,213216,5,0
192,320,213378,1,0
192,320,213540,2,0,B|352:352|512:192,2,330
416,96,218729,5,0
448,128,218891,1,0
416,160,219053,1,0
384,160,219215,1,0
352,160,219377,1,0
288,160,219702,5,0
256,160,219864,1,0
224,160,220026,1,0
192,160,220188,1,0
160,160,220350,1,0
96,160,220675,5,0
62,172,220837,1,0
38,203,220999,1,0
57,238,221161,1,0
94,252,221323,1,0
126,231,221486,1,0
141,197,221648,1,4
142,160,221810,1,0
142,123,221972,1,0
144,82,222134,1,4
143,44,222297,2,4,B|431:44,1,270
256,192,225540,1,4
256,192,226837,12,4,231702
