osu file format v13

[General]
AudioFilename: Hanayamata OP Opening OP Opening.mp3
AudioLeadIn: 0
PreviewTime: 50133
Countdown: 0
SampleSet: Soft
StackLeniency: 0.7
Mode: 0
LetterboxInBreaks: 0
WidescreenStoryboard: 0

[Editor]
DistanceSpacing: 1.2
BeatDivisor: 4
GridSize: 4
TimelineZoom: 1

[Metadata]
Title:Hana wa Odore ya Irohaniho (TVsize)
TitleUnicode:花ハ踊レヤいろはにほ (TVsize)
Artist:Team "Hanayamata"
ArtistUnicode:チーム"ハナヤマタ"
Creator:kakifly
Version:Insane
Source:ハナヤマタ
Tags:hanayamata op opening kjwkjw eINess Ueda Reina Tanaka Minami Okuno Kaya Otsubo Yuka Numakura Manami
BeatmapID:455214
BeatmapSetID:191199

[Difficulty]
HPDrainRate:8
CircleSize:4
OverallDifficulty:8
ApproachRate:9
SliderMultiplier:1.40000000596046
SliderTickRate:1

[Events]
//Background and Video events
Video,60,"Hanayamata (1).avi"
0,0,"image (3).jpeg",0,0
//Break Periods
//Storyboard Layer 0 (Background)
//Storyboard Layer 1 (Fail)
//Storyboard Layer 2 (Pass)
//Storyboard Layer 3 (Foreground)
//Storyboard Sound Samples
//Background Colour Transformations
3,100,163,162,255

[TimingPoints]
258,375,4,2,1,40,1,0
6165,-83.3333333333333,4,2,0,50,0,0
6351,-83.3333333333333,4,2,1,50,0,0
9258,-83.3333333333333,4,2,0,50,0,0
9351,-83.3333333333333,4,2,1,50,0,0
11039,-83.3333333333333,4,2,0,50,0,0
11226,-83.3333333333333,4,2,1,50,0,0
12258,-83.3333333333333,4,2,0,50,0,0
12351,-83.3333333333333,4,2,1,50,0,0
16664,-83.3333333333333,4,2,1,50,0,0
19664,-83.3333333333333,4,2,1,40,0,0
20414,-83.3333333333333,4,2,1,50,0,0
22283,-83.3333333333333,4,2,1,50,0,0
23883,-83.3333333333333,4,2,0,50,0,0
23976,-83.3333333333333,4,2,1,50,0,0
24258,-83.3333333333333,4,2,0,50,0,0
24351,-83.3333333333333,4,2,1,50,0,0
30258,-83.3333333333333,4,2,0,50,0,0
30351,-83.3333333333333,4,2,1,50,0,0
41508,-83.3333333333333,4,2,0,50,0,0
41601,-83.3333333333333,4,2,1,50,0,0
41883,-83.3333333333333,4,2,0,45,0,0
41976,-83.3333333333333,4,2,1,45,0,0
42258,-83.3333333333333,4,2,0,50,0,0
42351,-83.3333333333333,4,2,1,50,0,0
47508,-83.3333333333333,4,2,1,50,0,0
51258,-83.3333333333333,4,2,0,60,0,1
51351,-83.3333333333333,4,2,1,60,0,1
53883,-83.3333333333333,4,2,0,60,0,1
53976,-83.3333333333333,4,2,1,60,0,1
56695,-83.3333333333333,4,2,0,60,0,1
56883,-83.3333333333333,4,2,0,50,0,1
57258,-83.3333333333333,4,2,0,60,0,1
57351,-83.3333333333333,4,2,1,60,0,1
63258,-83.3333333333333,4,2,0,60,0,1
63351,-83.3333333333333,4,2,1,60,0,1
68695,-83.3333333333333,4,2,0,60,0,1
68883,-83.3333333333333,4,2,0,50,0,1
69351,-83.3333333333333,4,2,1,60,0,1
72258,-83.3333333333333,4,2,0,60,0,1
72351,-83.3333333333333,4,2,1,60,0,1
73758,-83.3333333333333,4,2,1,50,0,0
76693,-100,4,2,1,40,0,0
76758,-100,4,2,0,40,0,0
76851,-100,4,2,1,40,0,0
82758,-100,4,2,0,40,0,0
82851,-100,4,2,1,40,0,0
88570,-83.3333333333333,4,2,1,30,0,0

[Colours]
Combo1 : 97,245,164
Combo2 : 251,121,157
Combo3 : 132,187,255
Combo4 : 204,11,83
Combo5 : 227,168,244
Combo6 : 244,234,108

[HitObjects]
160,88,258,6,0,B|240:76|268:100|268:100|296:128|296:128|336:96|376:120,1,210.000000894069,2|0,0:0|0:0,0:0:0:0:
328,240,1008,2,0,B|248:252|220:224|220:224|192:200|192:200|152:232|112:208,1,210.000000894069,0|0,0:0|0:0,0:0:0:0:
48,184,1758,5,2,0:0:0:0:
96,104,1945,1,0,0:0:0:0:
176,64,2133,1,0,0:0:0:0:
264,60,2320,2,0,P|312:64|348:92,1,70.000000298023,0|2,0:0|0:0,0:0:0:0:
432,296,3258,6,0,P|400:320|360:324,1,70.000000298023,2|0,0:0|0:0,0:0:0:0:
272,328,3633,1,0,0:0:0:0:
184,304,3820,1,0,0:0:0:0:
112,252,4008,1,0,0:0:0:0:
416,68,4570,1,0,0:0:0:0:
416,68,4758,6,8,P|424:136|400:208,1,140.000000596046,2|0,0:0|0:0,0:0:0:0:
352,280,5320,1,0,0:0:0:0:
272,320,5508,2,0,L|184:308,1,70.000000298023,2|0,0:0|0:0,0:0:0:0:
132,260,5883,1,4,0:0:0:0:
124,92,6258,6,0,P|160:68|216:64,1,83.9999977941511,4|0,0:0|0:0,0:0:0:0:
304,68,6633,1,4,0:0:0:0:
396,112,6820,1,0,0:0:0:0:
436,204,7008,1,4,0:0:0:0:
372,280,7195,2,0,L|296:320,1,83.9999977941511,0|4,0:0|0:0,0:0:0:0:
252,228,7570,1,0,0:0:0:0:
196,312,7758,6,0,L|104:276,1,83.9999977941511,6|0,0:0|0:0,0:0:0:0:
24,244,8133,1,4,0:0:0:0:
112,196,8320,1,0,0:0:0:0:
36,128,8508,1,6,0:0:0:0:
56,28,8695,1,0,0:0:0:0:
116,108,8883,1,4,0:0:0:0:
172,28,9070,1,0,0:0:0:0:
216,52,9164,1,0,0:0:0:0:
244,88,9258,6,0,B|296:140|304:184|304:184|348:212,1,167.999995588302,6|4,0:0|0:0,0:0:0:0:
424,280,9820,1,0,0:0:0:0:
508,224,10008,2,0,B|456:172|448:128|448:128|404:100,1,167.999995588302,4|4,0:0|0:0,0:0:0:0:
308,60,10570,1,0,0:0:0:0:
308,60,10758,6,0,P|248:60|220:72,1,83.9999977941511,6|0,0:0|0:0,0:0:0:0:
140,120,11133,2,0,P|112:188|168:280,1,167.999995588302,4|4,0:0|0:0,0:0:0:0:
192,300,11601,1,0,0:0:0:0:
240,312,11695,1,0,0:0:0:0:
288,324,11789,1,0,0:0:0:0:
340,328,11883,1,8,0:0:0:0:
388,328,11976,1,8,0:0:0:0:
440,316,12070,1,8,0:0:0:0:
488,296,12164,1,8,0:0:0:0:
512,256,12258,6,0,L|372:152,1,167.999995588302
284,112,12820,1,0,0:0:0:0:
196,60,13008,2,0,P|184:124|240:204,1,167.999995588302
220,304,13570,1,0,0:0:0:0:
112,272,13758,6,0,L|36:208,1,83.9999977941511
56,100,14133,2,0,L|118:155,1,83.9999977941511
192,220,14508,2,0,P|252:216|276:188,1,83.9999977941511,0|0,0:0|0:0,0:0:0:0:
296,112,14883,1,0,0:0:0:0:
372,164,15070,1,0,0:0:0:0:
372,164,15164,1,0,0:0:0:0:
372,164,15258,6,0,P|404:212|408:252,1,83.9999977941511,4|0,0:0|0:0,0:0:0:0:
304,264,15633,1,0,0:0:0:0:
200,304,15820,2,0,P|144:284|112:240,1,83.9999977941511
96,136,16195,1,0,0:0:0:0:
240,208,16383,1,4,0:0:0:0:
148,64,16570,1,0,0:0:0:0:
240,208,16758,5,6,0:0:0:0:
240,208,16851,1,0,0:0:0:0:
240,208,16945,1,0,0:0:0:0:
96,136,17133,1,4,0:0:0:0:
284,132,17320,1,0,0:0:0:0:
152,208,17508,1,6,0:0:0:0:
232,60,17695,1,0,0:0:0:0:
240,208,17883,1,4,0:0:0:0:
320,292,18070,1,0,0:0:0:0:
348,271,18164,1,0,0:0:0:0:
377,255,18258,6,0,L|444:204,1,83.9999977941511,4|0,0:0|0:0,0:0:0:0:
472,296,18633,2,0,L|392:356,1,83.9999977941511,4|0,0:0|0:0,0:0:0:0:
444,204,19008,1,4,0:0:0:0:
332,128,19195,1,0,0:0:0:0:
240,208,19383,1,4,0:0:0:0:
148,160,19570,1,0,0:0:0:0:
112,172,19664,1,0,0:0:0:0:
80,168,19758,6,4,P|64:148|48:84,2,83.9999977941511,4|0|4,0:0|0:0|0:0,0:0:0:0:
148,240,20320,1,0,0:0:0:0:
232,292,20508,2,0,P|288:288|336:188,1,167.999995588302,4|0,0:0|0:0,0:0:0:0:
256,184,21070,1,0,0:0:0:0:
224,176,21164,1,0,0:0:0:0:
200,150,21258,6,0,P|224:114|276:82,1,83.9999977941511,4|0,0:0|0:0,0:0:0:0:
338,61,21633,1,4,0:0:0:0:
432,76,21820,2,0,P|472:112|480:160,1,83.9999977941511
384,164,22195,1,0,0:0:0:0:
464,228,22383,1,0,0:0:0:0:
424,320,22570,1,0,0:0:0:0:
332,300,22758,6,0,L|236:308,1,83.9999977941511,4|0,0:0|0:0,0:0:0:0:
192,228,23133,1,4,0:0:0:0:
252,128,23320,1,0,0:0:0:0:
156,104,23508,1,4,0:0:0:0:
124,128,23601,1,0,0:0:0:0:
100,168,23695,1,0,0:0:0:0:
96,216,23789,1,0,0:0:0:0:
104,256,23883,2,0,P|136:308|164:320,1,83.9999977941511,4|0,0:0|0:0,0:0:0:0:
192,228,24258,6,0,L|368:228,1,167.999995588302,6|4,0:0|0:0,0:0:0:0:
424,144,24820,1,0,0:0:0:0:
288,28,25008,1,4,0:0:0:0:
320,220,25195,1,4,0:0:0:0:
168,96,25383,1,8,0:0:0:0:
192,228,25570,1,0,0:0:0:0:
192,228,25758,6,0,L|108:228,2,83.9999977941511,6|0|8,0:0|0:0|0:0,0:0:0:0:
304,268,26320,1,0,0:0:0:0:
392,184,26508,1,4,0:0:0:0:
400,80,26695,1,4,0:0:0:0:
308,40,26883,2,0,P|300:80|312:132,1,83.9999977941511,8|0,0:0|0:0,0:0:0:0:
304,268,27258,6,4,B|256:272|224:292|224:292|176:260|128:272,1,167.999995588302,4|8,0:0|0:0,0:0:0:0:
140,176,27820,1,0,0:0:0:0:
78,100,28008,2,0,L|28:196,1,83.9999977941511,4|4,0:0|0:0,0:0:0:0:
104,264,28383,2,0,L|166:358,1,83.9999977941511,8|0,0:0|0:0,0:0:0:0:
225,274,28758,6,0,L|301:322,2,83.9999977941511,4|0|8,0:0|0:0|0:0,0:0:0:0:
344,204,29320,1,0,0:0:0:0:
416,116,29508,2,0,P|392:76|332:56,1,83.9999977941511,4|4,0:0|0:0,0:0:0:0:
240,56,29883,1,8,0:0:0:0:
240,56,30070,1,4,0:0:0:0:
132,98,30258,5,4,0:0:0:0:
132,98,30351,1,0,0:0:0:0:
132,98,30445,1,0,0:0:0:0:
220,211,30633,1,8,0:0:0:0:
65,209,30820,1,2,0:0:0:0:
93,347,31008,2,0,P|132:374|172:370,1,83.9999977941511,4|4,0:0|0:0,0:0:0:0:
160,280,31383,2,0,P|212:292|236:315,1,83.9999977941511,8|0,0:0|0:0,0:0:0:0:
364,344,31758,6,4,B|384:328|384:328|408:324|408:324|420:312|420:312|440:312|440:312|456:300|456:300|472:296|472:296|488:284|488:284|512:280,1,167.999995588302,4|8,0:0|0:0,0:0:0:0:
496,136,32320,1,0,0:0:0:0:
388,44,32508,2,4,B|368:60|368:60|344:64|344:64|332:76|332:76|312:76|312:76|296:88|296:88|280:92|280:92|264:104|264:104|240:108,1,167.999995588302,4|8,0:0|0:0,0:0:0:0:
64,200,33258,6,0,P|88:166|126:149,1,83.9999977941511,4|0,0:0|0:0,0:0:0:0:
216,196,33633,2,0,P|192:232|156:248,1,83.9999977941511,8|2,0:0|0:0,0:0:0:0:
88,324,34008,2,4,P|160:352|248:284,1,167.999995588302,4|8,0:0|0:0,0:0:0:0:
204,24,34758,6,4,P|236:80|196:184,1,167.999995588302,4|8,0:0|0:0,0:0:0:0:
136,100,35320,1,8,0:0:0:0:
23,98,35508,6,0,L|21:150,1,41.9999988970756,8|8,0:0|0:0,0:0:0:0:
64,168,35695,2,0,L|67:221,1,41.9999988970756,8|8,0:0|0:0,0:0:0:0:
116,224,35883,2,0,L|129:272,1,41.9999988970756,8|8,0:0|0:0,0:0:0:0:
172,288,36070,1,8,0:0:0:0:
300,220,36258,6,0,P|352:208|380:140,1,125.999996691227,6|2,0:0|0:0,0:0:0:0:
392,112,36633,2,0,L|412:14,1,83.9999977941511,8|2,0:0|0:0,0:0:0:0:
304,64,37008,1,8,0:0:0:0:
84,56,37383,1,4,0:0:0:0:
296,264,37758,6,0,P|336:240|356:196,1,83.9999977941511,4|0,0:0|0:0,0:0:0:0:
264,168,38133,1,4,0:0:0:0:
264,168,38320,1,0,0:0:0:0:
173,131,38508,1,6,0:0:0:0:
80,189,38695,1,0,0:0:0:0:
184,239,38883,1,4,0:0:0:0:
173,131,39070,1,0,0:0:0:0:
296,264,39258,6,0,P|372:264|408:224,1,125.999996691227,4|4,0:0|0:0,0:0:0:0:
416,196,39633,2,0,L|456:112,1,83.9999977941511,0|4,0:0|0:0,0:0:0:0:
488,32,40008,1,10,0:0:0:0:
256,120,40383,5,4,0:0:0:0:
52,48,40758,1,4,0:0:0:0:
0,164,40945,1,0,0:0:0:0:
52,272,41133,2,0,L|128:324,1,83.9999977941511,4|0,0:0|0:0,0:0:0:0:
208,372,41508,2,0,P|224:324|212:284,2,83.9999977941511,4|0|4,0:0|0:0|0:0,0:0:0:0:
312,344,42070,1,0,0:0:0:0:
360,256,42258,6,0,L|424:184,1,83.9999977941511,4|0,0:0|0:0,0:0:0:0:
308,164,42633,2,0,L|240:240,1,83.9999977941511,8|0,0:0|0:0,0:0:0:0:
156,260,43008,1,4,0:0:0:0:
60,304,43195,1,4,0:0:0:0:
68,188,43383,1,8,0:0:0:0:
172,144,43570,1,0,0:0:0:0:
248,80,43758,6,0,P|200:48|144:52,1,83.9999977941511,6|0,0:0|0:0,0:0:0:0:
92,88,44133,1,8,0:0:0:0:
68,188,44320,1,0,0:0:0:0:
156,260,44508,2,0,P|200:284|244:284,1,83.9999977941511,4|0,0:0|0:0,0:0:0:0:
316,216,44883,2,0,L|356:236,2,41.9999988970756,8|0|4,0:0|0:0|0:0,0:0:0:0:
345,108,45258,6,0,L|271:57,1,83.9999977941511,6|0,0:0|0:0,0:0:0:0:
221,120,45633,2,0,L|144:67,1,83.9999977941511,8|0,0:0|0:0,0:0:0:0:
51,99,46008,1,6,0:0:0:0:
51,99,46101,1,0,0:0:0:0:
51,99,46195,1,0,0:0:0:0:
44,194,46383,2,0,P|72:241|105:262,1,83.9999977941511,8|0,0:0|0:0,0:0:0:0:
200,260,46758,6,0,L|296:212,1,83.9999977941511,6|0,0:0|0:0,0:0:0:0:
368,264,47133,2,0,L|280:312,1,83.9999977941511,4|0,0:0|0:0,0:0:0:0:
364,148,47508,2,0,L|308:104,2,41.9999988970756,4|0|4,0:0|0:0|0:0,0:0:0:0:
380,44,47883,2,0,P|316:32|280:44,1,83.9999977941511,8|4,0:0|0:0,0:0:0:0:
364,148,48258,5,2,0:0:0:0:
246,104,48445,1,0,0:0:0:0:
261,222,48633,1,4,0:0:0:0:
364,148,48820,1,0,0:0:0:0:
246,104,49008,6,0,L|164:146,1,83.9999977941511,8|0,0:0|0:0,0:0:0:0:
98,255,49383,6,0,L|189:211,1,83.9999977941511,8|0,0:0|0:0,0:0:0:0:
250,185,49758,5,10,0:0:0:0:
432,223,50133,5,2,0:0:0:0:
440,96,51258,6,0,P|404:60|368:44,1,83.9999977941511,4|0,0:0|0:0,0:0:0:0:
340,156,51633,1,8,0:0:0:0:
236,188,51820,1,0,0:0:0:0:
236,188,51914,1,0,0:0:0:0:
236,188,52008,1,4,0:0:0:0:
320,256,52195,1,0,0:0:0:0:
424,288,52383,2,0,P|452:336|460:364,1,83.9999977941511,8|0,0:0|0:0,0:0:0:0:
352,376,52758,6,0,L|236:376,1,83.9999977941511,4|0,0:0|0:0,0:0:0:0:
160,336,53133,2,0,L|68:276,1,83.9999977941511,8|0,0:0|0:0,0:0:0:0:
108,180,53508,2,0,L|184:232,1,83.9999977941511,4|0,0:0|0:0,0:0:0:0:
216,260,53789,1,0,0:0:0:0:
256,288,53883,1,4,0:0:0:0:
12,120,54258,6,0,P|56:100|100:104,1,83.9999977941511,4|0,0:0|0:0,0:0:0:0:
197,113,54633,1,8,0:0:0:0:
288,156,54820,2,0,P|356:172|380:160,1,83.9999977941511
452,112,55195,1,0,0:0:0:0:
508,196,55383,1,4,0:0:0:0:
484,292,55570,1,0,0:0:0:0:
384,316,55758,6,0,L|284:328,1,83.9999977941511,12|0,0:0|0:0,0:0:0:0:
240,256,56133,1,4,0:0:0:0:
168,324,56320,2,0,P|140:264|152:220,1,83.9999977941511,0|4,0:0|0:0,0:0:0:0:
160,168,56695,1,8,0:0:0:0:
160,168,56883,1,12,0:0:0:0:
284,76,57258,6,0,P|340:40|380:36,1,83.9999977941511,4|0,0:0|0:0,0:0:0:0:
368,140,57633,2,0,P|416:144|452:172,1,83.9999977941511,8|0,0:0|0:0,0:0:0:0:
384,224,58008,1,4,0:0:0:0:
412,308,58195,1,0,0:0:0:0:
336,356,58383,1,8,0:0:0:0:
256,308,58570,1,2,0:0:0:0:
216,232,58758,6,0,L|124:232,1,83.9999977941511,4|0,0:0|0:0,0:0:0:0:
124,136,59133,2,0,P|80:152|48:184,1,83.9999977941511,8|0,0:0|0:0,0:0:0:0:
132,232,59508,2,0,L|218:232,1,83.9999977941511,8|0,0:0|0:0,0:0:0:0:
308,132,59883,2,0,L|224:132,1,83.9999977941511,12|0,0:0|0:0,0:0:0:0:
75,130,60258,6,0,L|31:155,1,41.9999988970756,4|0,0:0|0:0,0:0:0:0:
57,201,60445,2,0,L|14:241,1,41.9999988970756
70,268,60633,2,0,L|44:310,1,41.9999988970756,8|0,0:0|0:0,0:0:0:0:
96,340,60820,1,2,0:0:0:0:
240,328,61008,2,12,P|288:288|288:184,1,167.999995588302,4|8,0:0|0:0,0:0:0:0:
256,92,61570,1,0,0:0:0:0:
156,68,61758,6,12,P|108:104|96:216,1,167.999995588302,6|8,0:0|0:0,0:0:0:0:
188,168,62320,1,0,0:0:0:0:
304,176,62508,2,0,L|332:212,1,41.9999988970756,12|0,0:0|0:0,0:0:0:0:
284,240,62695,2,0,L|320:296,1,41.9999988970756,8|0,0:0|0:0,0:0:0:0:
252,292,62883,2,0,L|272:344,1,41.9999988970756,8|0,0:0|0:0,0:0:0:0:
216,352,63070,1,12,0:0:0:0:
188,168,63258,6,0,L|102:123,1,83.9999977941511,4|0,0:0|0:0,0:0:0:0:
20,100,63633,1,8,0:0:0:0:
20,100,63820,1,0,0:0:0:0:
24,192,64008,2,0,L|100:248,1,83.9999977941511
184,276,64383,1,8,0:0:0:0:
296,240,64570,1,0,0:0:0:0:
236,136,64758,5,4,0:0:0:0:
492,128,64945,1,0,0:0:0:0:
380,320,65133,1,10,0:0:0:0:
492,128,65320,2,8,L|492:216,1,83.9999977941511,0|4,0:0|0:0,0:0:0:0:
380,320,65883,1,10,0:0:0:0:
229,293,66258,6,0,L|156:247,1,83.9999977941511,4|0,0:0|0:0,0:0:0:0:
126,138,66633,2,0,L|203:184,1,83.9999977941511,8|0,0:0|0:0,0:0:0:0:
264,140,67008,1,4,0:0:0:0:
264,140,67101,1,0,0:0:0:0:
264,140,67195,1,0,0:0:0:0:
360,116,67383,2,0,P|364:164|348:196,1,83.9999977941511,8|0,0:0|0:0,0:0:0:0:
304,288,67758,6,0,P|340:300|400:280,2,83.9999977941511,4|0|12,0:0|0:0|0:0,0:0:0:0:
204,280,68320,1,0,0:0:0:0:
204,280,68508,1,10,0:0:0:0:
104,280,68695,2,8,L|16:280,1,83.9999977941511,4|12,0:0|0:0,0:0:0:0:
64,84,69258,5,6,0:0:0:0:
304,56,69633,1,4,0:0:0:0:
448,200,70008,1,6,0:0:0:0:
384,280,70195,1,4,0:0:0:0:
292,324,70383,1,8,0:0:0:0:
192,332,70570,1,0,0:0:0:0:
100,288,70758,6,0,P|136:244|172:236,1,83.9999977941511,4|0,0:0|0:0,0:0:0:0:
256,240,71133,2,0,P|224:164|136:144,2,167.999995588302,12|8|8,0:0|0:0|0:0,0:0:0:0:
232,336,72070,1,0,0:0:0:0:
272,344,72164,1,0,0:0:0:0:
312,336,72258,6,12,P|336:300|360:176,1,167.999995588302,4|8,0:0|0:0,0:0:0:0:
292,100,72820,2,0,P|364:76|400:88,1,83.9999977941511,0|8,0:0|0:0,0:0:0:0:
460,120,73195,1,0,0:0:0:0:
484,216,73383,1,0,0:0:0:0:
416,288,73570,1,0,0:0:0:0:
324,320,73758,5,12,0:0:0:0:
228,296,73945,1,0,0:0:0:0:
152,228,74133,1,8,0:0:0:0:
120,132,74320,1,0,0:0:0:0:
164,40,74508,1,4,0:0:0:0:
256,4,74695,1,0,0:0:0:0:
308,4,74789,1,0,0:0:0:0:
356,12,74883,1,8,0:0:0:0:
404,28,74976,1,0,0:0:0:0:
440,64,75070,1,4,0:0:0:0:
468,104,75164,1,4,0:0:0:0:
472,156,75258,5,4,0:0:0:0:
260,68,76758,6,0,P|324:68|352:84,1,70.000000298023,4|0,0:0|0:0,0:0:0:0:
380,128,77133,2,0,P|400:186|368:262,1,140.000000596046,8|4,0:0|0:0,0:0:0:0:
276,272,77695,1,4,0:0:0:0:
180,268,77883,2,0,L|96:268,1,70.000000298023,0|8,0:0|0:0,0:0:0:0:
80,188,78258,6,0,L|160:188,1,70.000000298023,0|4,0:0|0:0,0:0:0:0:
212,130,78633,1,8,0:0:0:0:
154,53,78820,1,0,0:0:0:0:
264,52,79008,1,4,0:0:0:0:
212,130,79195,1,4,0:0:0:0:
154,53,79383,1,8,0:0:0:0:
264,52,79570,1,0,0:0:0:0:
363,58,79758,6,0,P|395:90|404:140,1,70.000000298023,4|0,0:0|0:0,0:0:0:0:
400,192,80133,2,0,P|384:251|320:303,1,140.000000596046,0|4,0:0|0:0,0:0:0:0:
220,292,80695,1,4,0:0:0:0:
120,312,80883,2,0,P|124:264|136:240,1,70.000000298023,0|8,0:0|0:0,0:0:0:0:
112,152,81258,6,0,P|164:156|224:220,1,140.000000596046,0|8,0:0|0:0,0:0:0:0:
276,308,81820,1,0,0:0:0:0:
404,248,82008,1,4,0:0:0:0:
340,360,82195,1,4,0:0:0:0:
320,236,82383,1,8,0:0:0:0:
420,332,82570,1,0,0:0:0:0:
208,264,82758,6,0,L|128:212,1,70.000000298023,4|0,0:0|0:0,0:0:0:0:
188,140,83133,2,0,L|252:184,1,70.000000298023,8|0,0:0|0:0,0:0:0:0:
320,236,83508,1,4,0:0:0:0:
320,236,83695,1,4,0:0:0:0:
392,172,83883,2,0,P|348:148|300:148,1,70.000000298023,0|8,0:0|0:0,0:0:0:0:
256,160,84258,5,0,0:0:0:0:
140,60,84445,1,4,0:0:0:0:
288,76,84633,1,8,0:0:0:0:
120,144,84820,1,0,0:0:0:0:
216,28,85008,1,4,0:0:0:0:
188,196,85195,1,4,0:0:0:0:
188,196,85383,2,0,L|188:280,1,70.000000298023,8|0,0:0|0:0,0:0:0:0:
176,356,85758,6,0,B|208:376|276:320|332:348,1,140.000000596046,4|8,0:0|0:0,0:0:0:0:
328,256,86320,1,0,0:0:0:0:
384,320,86508,2,0,P|415:259|389:196,1,140.000000596046,4|0,0:0|0:0,0:0:0:0:
344,124,87070,1,8,0:0:0:0:
284,68,87258,6,0,P|264:104|264:140,2,70.000000298023,0|4|8,0:0|0:0|0:0,0:0:0:0:
364,96,87820,1,0,0:0:0:0:
304,184,88008,1,4,0:0:0:0:
152,192,88195,1,4,0:0:0:0:
264,328,88383,5,10,0:0:0:0:
60,352,88570,1,14,0:0:0:0:
