osu file format v13

[General]
AudioFilename: Hanayamata.mp3
AudioLeadIn: 0
PreviewTime: 50509
Countdown: 0
SampleSet: Soft
StackLeniency: 0.7
Mode: 3
LetterboxInBreaks: 0
SpecialStyle: 0
WidescreenStoryboard: 0

[Editor]
DistanceSpacing: 0.5
BeatDivisor: 4
GridSize: 4
TimelineZoom: 1

[Metadata]
Title:Hana wa Odore ya Irohaniho (TVsize)
TitleUnicode:花ハ踊レヤいろはにほ (TVsize)
Artist:Team "Hanayamata"
ArtistUnicode:チーム "ハナヤマタ"
Creator:indyinyou
Version:Pro Drum
Source:ハナヤマタ
Tags:opening madhouse Naru Sekiya Reina Ueda Yaya Sasame Kaya Okuno Hana N. Fontainestand Minami Tanaka Tami Nigishimon Yuka Ootsubo Machi Tokiwa Manami Numakura
BeatmapID:483959
BeatmapSetID:203438

[Difficulty]
HPDrainRate:8
CircleSize:7
OverallDifficulty:9
ApproachRate:5
SliderMultiplier:1.4
SliderTickRate:1

[Events]
//Background and Video events
Video,0,"Video.avi"
0,0,"BG.jpg",0,0
//Break Periods
//Storyboard Layer 0 (Background)
//Storyboard Layer 1 (Fail)
//Storyboard Layer 2 (Pass)
//Storyboard Layer 3 (Foreground)
//Storyboard Sound Samples
//Background Colour Transformations
3,100,163,162,255

[TimingPoints]
447,375,4,2,0,100,1,0
51447,-100,4,2,0,100,0,1
69447,-100,4,2,0,100,0,0

[HitObjects]
475,192,6447,5,0,0:0:0:40:cymbol.wav
36,192,6447,5,0,0:0:0:40:cymbol.wav
256,192,6447,1,0,0:0:0:40:kick.wav
109,192,6822,1,0,0:0:0:30:snare.wav
402,192,6822,1,0,0:0:0:40:kick.wav
182,192,7009,1,0,0:0:0:30:snare.wav
329,192,7009,1,0,0:0:0:40:kick.wav
109,192,7197,1,0,0:0:0:30:snare.wav
402,192,7197,1,0,0:0:0:40:kick.wav
36,192,7384,1,0,0:0:0:35:snare.wav
475,192,7384,1,0,0:0:0:40:kick.wav
109,192,7572,1,0,0:0:0:35:snare.wav
402,192,7572,1,0,0:0:0:40:kick.wav
182,192,7759,1,0,0:0:0:35:snare.wav
329,192,7759,1,0,0:0:0:40:kick.wav
36,192,7947,1,0,0:0:0:35:snare.wav
475,192,7947,1,0,0:0:0:40:kick.wav
109,192,8134,1,0,0:0:0:40:snare.wav
402,192,8134,1,0,0:0:0:40:kick.wav
182,192,8321,1,0,0:0:0:40:snare.wav
329,192,8322,1,0,0:0:0:40:kick.wav
329,192,8509,1,0,0:0:0:40:kick.wav
182,192,8509,1,0,0:0:0:40:snare.wav
109,192,8697,1,0,0:0:0:40:snare.wav
402,192,8697,1,0,0:0:0:40:kick.wav
109,192,8884,1,0,0:0:0:45:snare.wav
402,192,8884,1,0,0:0:0:40:kick.wav
182,192,9072,1,0,0:0:0:45:snare.wav
329,192,9072,1,0,0:0:0:40:kick.wav
329,192,9259,1,0,0:0:0:40:kick.wav
182,192,9259,1,0,0:0:0:45:snare.wav
475,192,9447,1,0,0:0:0:40:kick.wav
36,192,9447,1,0,0:0:0:40:cymbol.wav
402,192,9634,1,0,0:0:0:40:kick.wav
109,192,9634,1,0,0:0:0:45:snare.wav
329,192,9822,1,0,0:0:0:40:kick.wav
182,192,9822,1,0,0:0:0:45:snare.wav
36,192,10009,1,0,0:0:0:45:snare.wav
475,192,10009,1,0,0:0:0:40:kick.wav
402,192,10196,1,0,0:0:0:40:kick.wav
109,192,10197,1,0,0:0:0:45:snare.wav
329,192,10384,1,0,0:0:0:40:kick.wav
182,192,10384,1,0,0:0:0:45:snare.wav
402,192,10571,1,0,0:0:0:40:kick.wav
109,192,10572,1,0,0:0:0:45:snare.wav
36,192,10759,1,0,0:0:0:45:snare.wav
475,192,10759,1,0,0:0:0:40:kick.wav
402,192,10947,1,0,0:0:0:40:kick.wav
109,192,10947,1,0,0:0:0:45:snare.wav
182,192,11134,1,0,0:0:0:45:snare.wav
329,192,11134,1,0,0:0:0:40:kick.wav
475,192,11322,1,0,0:0:0:55:cymbol.wav
36,192,11322,1,0,0:0:0:55:cymbol.wav
256,192,11322,1,0,0:0:0:40:kick.wav
329,192,11697,1,0,0:0:0:45:snare.wav
402,192,11697,1,0,0:0:0:40:kick.wav
182,192,11697,1,0,0:0:0:55:cymbol.wav
109,192,11978,1,0,0:0:0:50:snare.wav
402,192,12072,1,0,0:0:0:50:snare.wav
182,192,12165,1,0,0:0:0:40:tom01.wav
329,192,12259,1,0,0:0:0:40:tom01.wav
256,192,12353,1,0,0:0:0:45:tom02.wav
475,192,12447,1,0,0:0:0:40:kick.wav
182,192,12447,1,0,0:0:0:40:cymbol.wav
36,192,12447,1,0,0:0:0:40:cymbol.wav
402,192,12822,1,0,0:0:0:40:kick.wav
36,192,13009,1,0,0:0:0:40:hihat.wav
256,192,13197,1,0,0:0:0:40:kick.wav
475,192,13384,1,0,0:0:0:40:hihat.wav
109,192,13572,1,0,0:0:0:40:kick.wav
329,192,13759,1,0,0:0:0:40:hihat.wav
402,192,13947,1,0,0:0:0:40:kick.wav
182,192,14134,1,0,0:0:0:40:hihat.wav
256,192,14322,1,0,0:0:0:40:kick.wav
475,192,14509,1,0,0:0:0:40:hihat.wav
402,192,14697,1,0,0:0:0:40:kick.wav
36,192,14884,1,0,0:0:0:40:hihat.wav
256,192,15072,1,0,0:0:0:40:kick.wav
475,192,15259,1,0,0:0:0:40:hihat.wav
329,192,15353,1,0,0:0:0:50:hihat.wav
109,192,15447,1,0,0:0:0:40:kick.wav
182,192,15634,1,0,0:0:0:40:hihat.wav
402,192,15822,1,0,0:0:0:40:kick.wav
329,192,16009,1,0,0:0:0:40:hihat.wav
109,192,16197,1,0,0:0:0:40:kick.wav
475,192,16384,1,0,0:0:0:40:hihat.wav
256,192,16572,1,0,0:0:0:40:kick.wav
36,192,16759,1,0,0:0:0:40:hihat.wav
402,192,16947,1,0,0:0:0:40:kick.wav
329,192,17134,1,0,0:0:0:40:hihat.wav
109,192,17322,1,0,0:0:0:40:kick.wav
475,192,17509,1,0,0:0:0:40:hihat.wav
402,192,17697,1,0,0:0:0:40:kick.wav
36,192,17884,1,0,0:0:0:40:hihat.wav
182,192,17978,1,0,0:0:0:50:hihat.wav
402,192,18072,1,0,0:0:0:40:kick.wav
36,192,18259,1,0,0:0:0:40:hihat.wav
182,192,18353,1,0,0:0:0:50:hihat.wav
402,192,18447,1,0,0:0:0:40:kick.wav
329,192,18634,1,0,0:0:0:40:hihat.wav
109,192,18822,1,0,0:0:0:40:kick.wav
182,192,19009,1,0,0:0:0:40:hihat.wav
402,192,19197,1,0,0:0:0:40:kick.wav
36,192,19384,1,0,0:0:0:40:hihat.wav
256,192,19572,1,0,0:0:0:40:kick.wav
475,192,19759,1,0,0:0:0:40:hihat.wav
402,192,19947,1,0,0:0:0:40:kick.wav
36,192,20134,1,0,0:0:0:40:hihat.wav
109,192,20322,1,0,0:0:0:40:kick.wav
329,192,20509,1,0,0:0:0:40:hihat.wav
402,192,20697,1,0,0:0:0:40:kick.wav
182,192,20884,1,0,0:0:0:40:hihat.wav
256,192,21072,1,0,0:0:0:40:kick.wav
475,192,21259,1,0,0:0:0:40:hihat.wav
329,192,21353,1,0,0:0:0:50:hihat.wav
109,192,21447,1,0,0:0:0:40:kick.wav
182,192,21634,1,0,0:0:0:40:hihat.wav
402,192,21822,1,0,0:0:0:40:kick.wav
329,192,22009,1,0,0:0:0:40:hihat.wav
256,192,22197,1,0,0:0:0:40:kick.wav
36,192,22384,1,0,0:0:0:40:hihat.wav
109,192,22572,1,0,0:0:0:40:kick.wav
475,192,22759,1,0,0:0:0:40:hihat.wav
402,192,22947,1,0,0:0:0:40:kick.wav
182,192,23134,1,0,0:0:0:40:hihat.wav
256,192,23322,1,0,0:0:0:40:kick.wav
475,192,23509,1,0,0:0:0:40:hihat.wav
402,192,23697,1,0,0:0:0:40:kick.wav
329,192,23884,1,0,0:0:0:40:hihat.wav
36,192,24072,1,0,0:0:0:40:snare.wav
475,192,24072,1,0,0:0:0:50:hihat01.wav
182,192,24072,1,0,0:0:0:40:snare.wav
109,192,24447,1,0,0:0:0:40:kick.wav
475,192,24447,1,0,0:0:0:40:cymbol.wav
329,192,24447,1,0,0:0:0:40:cymbol.wav
182,192,24822,1,0,0:0:0:35:snare.wav
36,192,24822,1,0,0:0:0:40:hihat.wav
402,192,24822,1,0,0:0:0:35:snare.wav
109,192,25197,1,0,0:0:0:40:kick.wav
475,192,25197,1,0,0:0:0:40:hihat.wav
256,192,25384,1,0,0:0:0:40:kick.wav
329,192,25572,1,0,0:0:0:35:snare.wav
36,192,25572,1,0,0:0:0:40:hihat.wav
182,192,25572,1,0,0:0:0:35:snare.wav
109,192,25947,1,0,0:0:0:40:kick.wav
475,192,25947,1,0,0:0:0:40:hihat.wav
402,192,26322,1,0,0:0:0:40:snare.wav
36,192,26322,1,0,0:0:0:35:snare.wav
182,192,26322,1,0,0:0:0:35:snare.wav
109,192,26697,1,0,0:0:0:40:kick.wav
475,192,26697,1,0,0:0:0:40:hihat.wav
256,192,26884,1,0,0:0:0:40:kick.wav
329,192,27072,1,0,0:0:0:35:snare.wav
36,192,27072,1,0,0:0:0:40:hihat.wav
182,192,27072,1,0,0:0:0:35:snare.wav
402,192,27447,1,0,0:0:0:40:kick.wav
109,192,27447,1,0,0:0:0:40:hihat.wav
36,192,27822,1,0,0:0:0:35:snare.wav
475,192,27822,1,0,0:0:0:40:hihat.wav
329,192,27822,1,0,0:0:0:35:snare.wav
109,192,28197,1,0,0:0:0:40:kick.wav
475,192,28197,1,0,0:0:0:40:hihat.wav
256,192,28384,1,0,0:0:0:40:kick.wav
182,192,28572,1,0,0:0:0:35:snare.wav
329,192,28572,1,0,0:0:0:40:hihat.wav
475,192,28572,1,0,0:0:0:35:snare.wav
402,192,28947,1,0,0:0:0:40:kick.wav
109,192,28947,1,0,0:0:0:40:hihat.wav
329,192,29322,1,0,0:0:0:35:snare.wav
36,192,29322,1,0,0:0:0:40:hihat.wav
475,192,29322,1,0,0:0:0:35:snare.wav
109,192,29697,1,0,0:0:0:40:kick.wav
475,192,29697,1,0,0:0:0:40:hihat.wav
256,192,29884,1,0,0:0:0:40:kick.wav
182,192,30072,1,0,0:0:0:35:snare.wav
329,192,30072,1,0,0:0:0:40:hihat01.wav
475,192,30072,1,0,0:0:0:35:snare.wav
109,192,30259,1,0,0:0:0:40:kick.wav
402,192,30259,1,0,0:0:0:40:kick.wav
475,192,30447,1,0,0:0:0:40:kick.wav
36,192,30447,1,0,0:0:0:40:cymbol.wav
256,192,30447,1,0,0:0:0:40:cymbol.wav
109,192,30822,1,0,0:0:0:35:snare.wav
329,192,30822,1,0,0:0:0:40:hihat01.wav
475,192,30822,1,0,0:0:0:35:snare.wav
402,192,31197,1,0,0:0:0:40:kick.wav
36,192,31197,1,0,0:0:0:30:hihat.wav
256,192,31384,1,0,0:0:0:40:kick.wav
329,192,31572,1,0,0:0:0:35:snare.wav
109,192,31572,1,0,0:0:0:30:hihat.wav
182,192,31572,1,0,0:0:0:35:snare.wav
402,192,31947,1,0,0:0:0:40:kick.wav
182,192,31947,1,0,0:0:0:40:hihat.wav
329,192,32322,1,0,0:0:0:35:snare.wav
109,192,32322,1,0,0:0:0:40:hihat.wav
475,192,32322,1,0,0:0:0:35:snare.wav
402,192,32697,1,0,0:0:0:40:kick.wav
36,192,32697,1,0,0:0:0:40:hihat.wav
256,192,32884,1,0,0:0:0:40:kick.wav
329,192,33072,1,0,0:0:0:35:snare.wav
109,192,33072,1,0,0:0:0:40:hihat.wav
182,192,33072,1,0,0:0:0:35:snare.wav
256,192,33447,1,0,0:0:0:40:kick.wav
475,192,33447,1,0,0:0:0:40:hihat.wav
475,192,33822,1,0,0:0:0:35:snare.wav
329,192,33822,1,0,0:0:0:40:hihat.wav
36,192,33822,1,0,0:0:0:35:snare.wav
109,192,34197,1,0,0:0:0:40:kick.wav
475,192,34197,1,0,0:0:0:40:hihat.wav
256,192,34384,1,0,0:0:0:40:kick.wav
329,192,34572,1,0,0:0:0:35:snare.wav
475,192,34572,1,0,0:0:0:40:hihat.wav
182,192,34572,1,0,0:0:0:35:snare.wav
402,192,34947,1,0,0:0:0:40:kick.wav
36,192,34947,1,0,0:0:0:30:hihat.wav
109,192,35040,1,0,0:0:0:30:hihat.wav
182,192,35134,1,0,0:0:0:30:hihat.wav
256,192,35228,1,0,0:0:0:30:hihat.wav
329,192,35322,1,0,0:0:0:40:snare.wav
475,192,35322,1,0,0:0:0:40:hihat01.wav
36,192,35697,1,0,0:0:0:40:snare.wav
109,192,35790,1,0,0:0:0:40:snare.wav
182,192,35884,1,0,0:0:0:40:snare.wav
402,192,35978,1,0,0:0:0:40:snare.wav
329,192,36072,1,0,0:0:0:40:snare.wav
256,192,36165,1,0,0:0:0:40:snare.wav
36,192,36259,1,0,0:0:0:40:snare.wav
109,192,36353,1,0,0:0:0:40:snare.wav
329,192,36447,1,0,0:0:0:40:cymbol.wav
402,192,36447,1,0,0:0:0:40:kick.wav
182,192,36447,1,0,0:0:0:40:cymbol.wav
109,192,36822,1,0,0:0:0:40:kick.wav
475,192,36822,1,0,0:0:0:40:hihat.wav
36,192,37197,1,0,0:0:0:50:snare.wav
329,192,37197,1,0,0:0:0:40:whistle.wav
475,192,37197,1,0,0:0:0:40:snare.wav
402,192,37572,1,0,0:0:0:40:kick.wav
182,192,37572,1,0,0:0:0:40:hihat.wav
256,192,37947,1,0,0:0:0:40:kick.wav
36,192,37947,1,0,0:0:0:40:hihat.wav
109,192,38322,1,0,0:0:0:40:kick.wav
475,192,38322,1,0,0:0:0:40:hihat.wav
329,192,38697,1,0,0:0:0:40:whistle.wav
36,192,38697,1,0,0:0:0:70:snare.wav
182,192,38697,1,0,0:0:0:70:snare.wav
256,192,39072,1,0,0:0:0:40:kick.wav
475,192,39072,1,0,0:0:0:40:hihat.wav
36,192,39353,1,0,0:0:0:40:hihat.wav
402,192,39447,1,0,0:0:0:40:kick.wav
182,192,39447,1,0,0:0:0:50:hihat.wav
109,192,39822,1,0,0:0:0:40:kick.wav
475,192,39822,1,0,0:0:0:40:hihat.wav
182,192,40197,1,0,0:0:0:70:snare.wav
329,192,40197,1,0,0:0:0:30:whistle.wav
36,192,40197,1,0,0:0:0:70:snare.wav
109,192,40572,1,0,0:0:0:40:kick.wav
475,192,40572,1,0,0:0:0:40:hihat.wav
256,192,40947,1,0,0:0:0:40:kick.wav
475,192,40947,1,0,0:0:0:40:hihat.wav
329,192,41322,1,0,0:0:0:40:kick.wav
109,192,41322,1,0,0:0:0:40:hihat.wav
475,192,41697,1,0,0:0:0:70:snare.wav
36,192,41697,1,0,0:0:0:40:cymbol.wav
256,192,41697,1,0,0:0:0:70:kick.wav
109,192,42072,1,0,0:0:0:70:snare.wav
402,192,42072,1,0,0:0:0:55:cymbol.wav
256,192,42072,1,0,0:0:0:70:kick.wav
182,192,42447,1,0,0:0:0:50:kick.wav
475,192,42447,1,0,0:0:0:50:cymbol.wav
36,192,42447,1,0,0:0:0:50:cymbol.wav
329,192,42447,1,0,0:0:0:50:kick.wav
329,192,42822,1,0,0:0:0:50:snare.wav
36,192,42822,1,0,0:0:0:50:hihat01.wav
182,192,42822,1,0,0:0:0:50:snare.wav
402,192,43197,1,0,0:0:0:50:kick.wav
36,192,43197,1,0,0:0:0:50:hihat01.wav
256,192,43384,1,0,0:0:0:50:kick.wav
182,192,43572,1,0,0:0:0:50:snare.wav
36,192,43572,1,0,0:0:0:50:hihat01.wav
475,192,43572,1,0,0:0:0:50:snare.wav
256,192,43947,1,0,0:0:0:50:kick.wav
36,192,43947,1,0,0:0:0:50:hihat01.wav
329,192,44322,1,0,0:0:0:50:snare.wav
36,192,44322,1,0,0:0:0:50:hihat01.wav
182,192,44322,1,0,0:0:0:50:snare.wav
402,192,44697,1,0,0:0:0:50:kick.wav
36,192,44697,1,0,0:0:0:50:hihat01.wav
256,192,44884,1,0,0:0:0:50:kick.wav
182,192,45072,1,0,0:0:0:50:snare.wav
36,192,45072,1,0,0:0:0:50:hihat01.wav
475,192,45072,1,0,0:0:0:50:snare.wav
329,192,45259,1,0,0:0:0:50:kick.wav
109,192,45447,1,0,0:0:0:50:kick.wav
402,192,45447,1,0,0:0:0:35:cymbol.wav
182,192,45447,1,0,0:0:0:35:cymbol.wav
182,192,45822,1,0,0:0:0:50:snare.wav
475,192,45822,1,0,0:0:0:50:hihat01.wav
329,192,45822,1,0,0:0:0:50:snare.wav
109,192,46197,1,0,0:0:0:50:kick.wav
475,192,46197,1,0,0:0:0:50:hihat01.wav
256,192,46384,1,0,0:0:0:50:kick.wav
36,192,46572,1,0,0:0:0:50:snare.wav
329,192,46572,1,0,0:0:0:50:snare.wav
475,192,46572,1,0,0:0:0:50:hihat01.wav
256,192,46947,1,0,0:0:0:50:kick.wav
475,192,46947,1,0,0:0:0:50:hihat01.wav
182,192,47322,1,0,0:0:0:50:snare.wav
329,192,47322,1,0,0:0:0:50:snare.wav
475,192,47322,1,0,0:0:0:50:hihat01.wav
109,192,47697,1,0,0:0:0:50:kick.wav
475,192,47697,1,0,0:0:0:50:hihat01.wav
256,192,47884,1,0,0:0:0:50:kick.wav
36,192,48072,1,0,0:0:0:50:snare.wav
329,192,48072,1,0,0:0:0:50:snare.wav
475,192,48072,1,0,0:0:0:50:hihat01.wav
256,192,48259,1,0,0:0:0:50:kick.wav
329,192,48447,1,0,0:0:0:60:snare.wav
109,192,48447,1,0,0:0:0:50:hihat01.wav
402,192,48447,1,0,0:0:0:60:snare.wav
256,192,48634,1,0,0:0:0:50:kick.wav
475,192,48822,1,0,0:0:0:60:snare.wav
36,192,48822,1,0,0:0:0:50:hihat01.wav
182,192,48822,1,0,0:0:0:60:snare.wav
256,192,49009,1,0,0:0:0:50:kick.wav
182,192,49197,1,0,0:0:0:60:snare.wav
329,192,49197,1,0,0:0:0:50:hihat01.wav
475,192,49197,1,0,0:0:0:60:snare.wav
256,192,49384,1,0,0:0:0:50:kick.wav
182,192,49572,1,0,0:0:0:60:snare.wav
402,192,49572,1,0,0:0:0:60:snare.wav
109,192,49572,1,0,0:0:0:50:hihat01.wav
256,192,49759,1,0,0:0:0:50:kick.wav
475,192,49947,1,0,0:0:0:60:snare.wav
36,192,49947,1,0,0:0:0:50:hihat01.wav
329,192,49947,1,0,0:0:0:60:snare.wav
256,192,51072,1,0,0:0:0:70:kick.wav
402,192,51072,1,0,0:0:0:40:tom01.wav
109,192,51072,1,0,0:0:0:40:tom02.wav
329,192,51447,1,0,0:0:0:30:cymbol.wav
36,192,51447,1,0,0:0:0:70:kick.wav
475,192,51447,1,0,0:0:0:30:cymbol.wav
402,192,51822,1,0,0:0:0:50:kick.wav
36,192,51822,1,0,0:0:0:70:ride.wav
182,192,51822,1,0,0:0:0:60:snare.wav
109,192,52197,1,0,0:0:0:50:kick.wav
329,192,52197,1,0,0:0:0:70:ride.wav
256,192,52572,1,0,0:0:0:50:kick.wav
36,192,52572,1,0,0:0:0:70:ride.wav
475,192,52572,1,0,0:0:0:60:snare.wav
402,192,52947,1,0,0:0:0:50:kick.wav
182,192,52947,1,0,0:0:0:70:ride.wav
329,192,53322,1,0,0:0:0:60:snare.wav
36,192,53322,1,0,0:0:0:70:ride.wav
256,192,53322,1,0,0:0:0:50:kick.wav
109,192,53697,1,0,0:0:0:50:kick.wav
475,192,53697,1,0,0:0:0:70:ride.wav
402,192,54072,1,0,0:0:0:50:kick.wav
329,192,54072,1,0,0:0:0:60:snare.wav
182,192,54072,1,0,0:0:0:70:ride.wav
475,192,54447,1,0,0:0:0:70:ride.wav
256,192,54447,1,0,0:0:0:50:kick.wav
402,192,54822,1,0,0:0:0:50:kick.wav
36,192,54822,1,0,0:0:0:70:ride.wav
182,192,54822,1,0,0:0:0:60:snare.wav
329,192,55197,1,0,0:0:0:70:ride.wav
109,192,55197,1,0,0:0:0:50:kick.wav
182,192,55572,1,0,0:0:0:70:ride.wav
475,192,55572,1,0,0:0:0:60:snare.wav
256,192,55572,1,0,0:0:0:50:kick.wav
402,192,55947,1,0,0:0:0:50:kick.wav
36,192,55947,1,0,0:0:0:70:ride.wav
329,192,56322,1,0,0:0:0:60:snare.wav
475,192,56322,1,0,0:0:0:70:ride.wav
109,192,56322,1,0,0:0:0:50:kick.wav
256,192,56697,1,0,0:0:0:50:kick.wav
475,192,56697,1,0,0:0:0:70:ride.wav
402,192,56884,1,0,0:0:0:35:snare.wav
109,192,56884,1,0,0:0:0:30:cymbol.wav
329,192,56884,1,0,0:0:0:50:kick.wav
109,192,57072,1,0,0:0:0:30:cymbol.wav
402,192,57072,1,0,0:0:0:35:snare.wav
329,192,57072,1,0,0:0:0:50:kick.wav
475,192,57447,1,0,0:0:0:40:cymbol.wav
36,192,57447,1,0,0:0:0:40:cymbol.wav
256,192,57447,1,0,0:0:0:70:kick.wav
182,192,57822,1,0,0:0:0:60:snare.wav
329,192,57822,1,0,0:0:0:70:ride.wav
402,192,57822,1,0,0:0:0:50:kick.wav
109,192,58197,1,0,0:0:0:50:kick.wav
475,192,58197,1,0,0:0:0:70:ride.wav
402,192,58572,1,0,0:0:0:50:kick.wav
36,192,58572,1,0,0:0:0:60:snare.wav
182,192,58572,1,0,0:0:0:70:ride.wav
329,192,58947,1,0,0:0:0:70:ride.wav
256,192,58947,1,0,0:0:0:50:kick.wav
109,192,59322,1,0,0:0:0:50:kick.wav
475,192,59322,1,0,0:0:0:70:ride.wav
182,192,59322,1,0,0:0:0:60:snare.wav
36,192,59697,1,0,0:0:0:70:ride.wav
402,192,59697,1,0,0:0:0:50:kick.wav
475,192,60072,1,0,0:0:0:70:ride.wav
182,192,60072,1,0,0:0:0:60:snare.wav
256,192,60072,1,0,0:0:0:50:kick.wav
109,192,60447,1,0,0:0:0:50:kick.wav
329,192,60447,1,0,0:0:0:70:ride.wav
182,192,60822,1,0,0:0:0:60:snare.wav
36,192,60822,1,0,0:0:0:70:ride.wav
402,192,60822,1,0,0:0:0:50:kick.wav
109,192,61197,1,0,0:0:0:50:kick.wav
329,192,61197,1,0,0:0:0:70:ride.wav
256,192,61572,1,0,0:0:0:50:kick.wav
36,192,61572,1,0,0:0:0:60:snare.wav
475,192,61572,1,0,0:0:0:70:ride.wav
329,192,61947,1,0,0:0:0:70:ride.wav
109,192,61947,1,0,0:0:0:50:kick.wav
402,192,62322,1,0,0:0:0:50:kick.wav
36,192,62322,1,0,0:0:0:60:snare.wav
182,192,62322,1,0,0:0:0:70:ride.wav
109,192,62697,1,0,0:0:0:50:kick.wav
475,192,62697,1,0,0:0:0:70:ride.wav
256,192,62884,1,0,0:0:0:60:snare.wav
329,192,62978,1,0,0:0:0:60:snare.wav
402,192,63072,1,0,0:0:0:50:kick.wav
36,192,63072,1,0,0:0:0:60:snare.wav
109,192,63165,1,0,0:0:0:60:snare.wav
182,192,63259,1,0,0:0:0:60:snare.wav
256,192,63353,1,0,0:0:0:60:snare.wav
109,192,63447,1,0,0:0:0:50:kick.wav
329,192,63447,1,0,0:0:0:40:cymbol.wav
475,192,63447,1,0,0:0:0:40:cymbol.wav
402,192,63822,1,0,0:0:0:50:kick.wav
36,192,63822,1,0,0:0:0:70:ride.wav
182,192,63822,1,0,0:0:0:60:snare.wav
329,192,64197,1,0,0:0:0:70:ride.wav
109,192,64197,1,0,0:0:0:50:kick.wav
475,192,64572,1,0,0:0:0:70:ride.wav
36,192,64572,1,0,0:0:0:60:snare.wav
256,192,64572,1,0,0:0:0:50:kick.wav
402,192,64947,1,0,0:0:0:50:kick.wav
182,192,64947,1,0,0:0:0:70:ride.wav
329,192,65322,1,0,0:0:0:60:snare.wav
475,192,65322,1,0,0:0:0:70:ride.wav
109,192,65322,1,0,0:0:0:50:kick.wav
256,192,65697,1,0,0:0:0:50:kick.wav
36,192,65697,1,0,0:0:0:70:ride.wav
402,192,66072,1,0,0:0:0:50:kick.wav
329,192,66072,1,0,0:0:0:60:snare.wav
182,192,66072,1,0,0:0:0:70:ride.wav
475,192,66447,1,0,0:0:0:70:ride.wav
109,192,66447,1,0,0:0:0:50:kick.wav
256,192,66822,1,0,0:0:0:50:kick.wav
475,192,66822,1,0,0:0:0:70:ride.wav
36,192,66822,1,0,0:0:0:60:snare.wav
182,192,67197,1,0,0:0:0:70:ride.wav
402,192,67197,1,0,0:0:0:50:kick.wav
475,192,67572,1,0,0:0:0:70:ride.wav
329,192,67572,1,0,0:0:0:60:snare.wav
109,192,67572,1,0,0:0:0:50:kick.wav
256,192,67947,1,0,0:0:0:50:kick.wav
36,192,67947,1,0,0:0:0:70:ride.wav
182,192,68322,1,0,0:0:0:70:ride.wav
329,192,68322,1,0,0:0:0:60:snare.wav
109,192,68322,1,0,0:0:0:50:kick.wav
36,192,68697,1,0,0:0:0:70:ride.wav
256,192,68697,1,0,0:0:0:50:kick.wav
109,192,68884,1,0,0:0:0:30:cymbol.wav
329,192,68884,1,0,0:0:0:35:snare.wav
475,192,68884,1,0,0:0:0:50:kick.wav
109,192,69072,1,0,0:0:0:30:cymbol.wav
475,192,69072,1,0,0:0:0:35:snare.wav
329,192,69072,1,0,0:0:0:50:kick.wav
256,192,69259,1,0,0:0:0:70:kick.wav
36,192,69447,1,0,0:0:0:70:hihat01.wav
475,192,69447,1,0,0:0:0:35:snare.wav
182,192,69447,1,0,0:0:0:35:snare.wav
182,192,69822,1,0,0:0:0:70:hihat01.wav
329,192,69822,1,0,0:0:0:35:snare.wav
109,192,69822,1,0,0:0:0:35:snare.wav
256,192,70197,1,0,0:0:0:35:snare.wav
36,192,70197,1,0,0:0:0:70:hihat01.wav
475,192,70197,1,0,0:0:0:35:snare.wav
329,192,70384,1,0,0:0:0:70:kick.wav
402,192,70572,1,0,0:0:0:35:snare.wav
36,192,70572,1,0,0:0:0:70:hihat01.wav
182,192,70572,1,0,0:0:0:35:snare.wav
256,192,70759,1,0,0:0:0:70:kick.wav
329,192,70947,1,0,0:0:0:70:hihat01.wav
109,192,70947,1,0,0:0:0:35:snare.wav
475,192,70947,1,0,0:0:0:35:snare.wav
182,192,71322,1,0,0:0:0:35:snare.wav
475,192,71322,1,0,0:0:0:70:hihat01.wav
36,192,71322,1,0,0:0:0:35:snare.wav
256,192,71509,1,0,0:0:0:70:kick.wav
402,192,71697,1,0,0:0:0:70:hihat01.wav
329,192,71697,1,0,0:0:0:35:snare.wav
109,192,71697,1,0,0:0:0:35:snare.wav
182,192,71884,1,0,0:0:0:70:kick.wav
329,192,72072,1,0,0:0:0:70:hihat01.wav
475,192,72072,1,0,0:0:0:35:snare.wav
36,192,72072,1,0,0:0:0:35:snare.wav
256,192,72259,1,0,0:0:0:70:kick.wav
402,192,72447,1,0,0:0:0:70:hihat01.wav
182,192,72447,1,0,0:0:0:50:cymbol.wav
109,192,72447,1,0,0:0:0:35:snare.wav
36,192,72822,1,0,0:0:0:70:hihat01.wav
256,192,72822,1,0,0:0:0:35:snare.wav
475,192,72822,1,0,0:0:0:35:snare.wav
329,192,73197,1,0,0:0:0:70:hihat01.wav
109,192,73197,1,0,0:0:0:35:snare.wav
475,192,73197,1,0,0:0:0:35:snare.wav
256,192,73384,1,0,0:0:0:70:kick.wav
402,192,73572,1,0,0:0:0:70:hihat01.wav
182,192,73572,1,0,0:0:0:35:snare.wav
36,192,73572,1,0,0:0:0:35:snare.wav
329,192,73759,1,0,0:0:0:70:kick.wav
256,192,73947,1,0,0:0:0:70:hihat01.wav
475,192,73947,1,0,0:0:0:35:snare.wav
36,192,73947,1,0,0:0:0:35:snare.wav
36,192,74321,1,0,0:0:0:70:hihat01.wav
402,192,74322,1,0,0:0:0:35:snare.wav
182,192,74322,1,0,0:0:0:35:snare.wav
475,192,74697,1,0,0:0:0:70:hihat01.wav
329,192,74697,1,0,0:0:0:50:snare.wav
36,192,74697,1,0,0:0:0:50:snare.wav
109,192,74884,1,0,0:0:0:60:snare.wav
402,192,74978,1,0,0:0:0:60:snare.wav
182,192,75072,1,0,0:0:0:60:snare.wav
329,192,75165,1,0,0:0:0:60:snare.wav
182,192,75259,1,0,0:0:0:60:snare.wav
329,192,75353,1,0,0:0:0:60:snare.wav
402,192,75447,1,0,0:0:0:60:snare.wav
109,192,75447,1,0,0:0:0:40:kick.wav
36,192,76947,1,0,0:0:0:40:cymbol.wav
475,192,76947,1,0,0:0:0:40:cymbol.wav
256,192,76947,1,0,0:0:0:70:kick.wav
109,192,77322,1,0,0:0:0:30:snare.wav
329,192,77322,1,0,0:0:0:30:hihat.wav
182,192,77322,1,0,0:0:0:30:snare.wav
402,192,77697,1,0,0:0:0:40:kick.wav
36,192,77697,1,0,0:0:0:30:hihat.wav
256,192,77884,1,0,0:0:0:40:kick.wav
182,192,78072,1,0,0:0:0:30:hihat.wav
475,192,78259,1,0,0:0:0:30:snare.wav
329,192,78259,1,0,0:0:0:30:snare.wav
109,192,78259,1,0,0:0:0:30:snare.wav
36,192,78447,1,0,0:0:0:30:hihat.wav
402,192,78634,1,0,0:0:0:40:kick.wav
182,192,78822,1,0,0:0:0:30:snare.wav
329,192,78822,1,0,0:0:0:30:snare.wav
109,192,78822,1,0,0:0:0:30:hihat.wav
402,192,79197,1,0,0:0:0:40:kick.wav
36,192,79197,1,0,0:0:0:30:hihat.wav
256,192,79384,1,0,0:0:0:40:kick.wav
329,192,79572,1,0,0:0:0:30:snare.wav
475,192,79572,1,0,0:0:0:30:hihat.wav
109,192,79572,1,0,0:0:0:30:snare.wav
402,192,79947,1,0,0:0:0:40:kick.wav
36,192,79947,1,0,0:0:0:30:hihat.wav
182,192,80322,1,0,0:0:0:30:snare.wav
475,192,80322,1,0,0:0:0:30:hihat.wav
329,192,80322,1,0,0:0:0:30:snare.wav
109,192,80697,1,0,0:0:0:40:kick.wav
475,192,80697,1,0,0:0:0:30:hihat.wav
402,192,80884,1,0,0:0:0:40:kick.wav
182,192,81072,1,0,0:0:0:30:hihat.wav
36,192,81259,1,0,0:0:0:30:snare.wav
475,192,81259,1,0,0:0:0:30:snare.wav
329,192,81259,1,0,0:0:0:30:snare.wav
109,192,81447,1,0,0:0:0:30:hihat.wav
256,192,81634,1,0,0:0:0:40:kick.wav
475,192,81822,1,0,0:0:0:30:snare.wav
182,192,81822,1,0,0:0:0:30:hihat.wav
329,192,81822,1,0,0:0:0:30:snare.wav
109,192,82197,1,0,0:0:0:40:kick.wav
329,192,82197,1,0,0:0:0:30:hihat.wav
256,192,82384,1,0,0:0:0:40:kick.wav
475,192,82572,1,0,0:0:0:30:snare.wav
36,192,82572,1,0,0:0:0:30:hihat.wav
182,192,82572,1,0,0:0:0:30:snare.wav
329,192,82853,1,0,0:0:0:30:hihat.wav
182,192,82947,1,0,0:0:0:45:hihat01.wav
109,192,82947,1,0,0:0:0:40:kick.wav
402,192,83322,1,0,0:0:0:30:snare.wav
36,192,83322,1,0,0:0:0:30:hihat.wav
256,192,83322,1,0,0:0:0:30:snare.wav
109,192,83697,1,0,0:0:0:40:kick.wav
475,192,83697,1,0,0:0:0:30:hihat.wav
256,192,83884,1,0,0:0:0:40:kick.wav
329,192,84072,1,0,0:0:0:30:hihat.wav
36,192,84259,1,0,0:0:0:30:snare.wav
182,192,84259,1,0,0:0:0:30:snare.wav
475,192,84259,1,0,0:0:0:30:snare.wav
329,192,84447,1,0,0:0:0:30:hihat.wav
256,192,84634,1,0,0:0:0:40:kick.wav
402,192,84822,1,0,0:0:0:50:snare.wav
36,192,84822,1,0,0:0:0:30:snare.wav
182,192,84822,1,0,0:0:0:30:snare.wav
475,192,85197,1,0,0:0:0:30:hihat.wav
109,192,85197,1,0,0:0:0:40:kick.wav
402,192,85384,1,0,0:0:0:40:kick.wav
182,192,85572,1,0,0:0:0:30:snare.wav
36,192,85572,1,0,0:0:0:30:snare.wav
329,192,85572,1,0,0:0:0:30:snare.wav
109,192,85947,1,0,0:0:0:40:kick.wav
475,192,85947,1,0,0:0:0:30:hihat.wav
182,192,86322,1,0,0:0:0:30:snare.wav
402,192,86322,1,0,0:0:0:30:hihat.wav
329,192,86322,1,0,0:0:0:30:snare.wav
109,192,86697,1,0,0:0:0:40:kick.wav
475,192,86697,1,0,0:0:0:30:hihat.wav
256,192,86884,1,0,0:0:0:40:kick.wav
475,192,87072,1,0,0:0:0:30:hihat.wav
36,192,87259,1,0,0:0:0:30:snare.wav
329,192,87259,1,0,0:0:0:30:snare.wav
182,192,87259,1,0,0:0:0:30:snare.wav
256,192,87447,1,0,0:0:0:30:hihat.wav
109,192,87634,1,0,0:0:0:40:kick.wav
329,192,87822,1,0,0:0:0:30:snare.wav
475,192,87822,1,0,0:0:0:30:hihat.wav
182,192,87822,1,0,0:0:0:30:snare.wav
402,192,88197,1,0,0:0:0:40:kick.wav
36,192,88197,1,0,0:0:0:30:hihat.wav
256,192,88384,1,0,0:0:0:40:kick.wav
182,192,88572,1,0,0:0:0:30:snare.wav
475,192,88572,1,0,0:0:0:30:hihat01.wav
36,192,88572,1,0,0:0:0:30:snare.wav
109,192,88759,1,0,0:0:0:70:hihat02.wav
402,192,88759,1,0,0:0:0:50:snare.wav
256,192,88759,1,0,0:0:0:50:snare.wav
