osu file format v13

[General]
AudioFilename: instoffset.ogg
AudioLeadIn: 0
PreviewTime: 50509
Countdown: 0
SampleSet: Soft
StackLeniency: 0.3
Mode: 3
LetterboxInBreaks: 0
SpecialStyle: 0
WidescreenStoryboard: 1

[Editor]
DistanceSpacing: 1
BeatDivisor: 4
GridSize: 4
TimelineZoom: 1.4

[Metadata]
Title:Hana wa Odore ya Irohaniho (TVsize)
TitleUnicode:花ハ踊レヤいろはにほ (TVsize)
Artist:Team "Hanayamata"
ArtistUnicode:チーム"ハナヤマタ"
Creator:chonicle
Version:vocaloid key
Source:Hanayamata
Tags:
BeatmapID:490941
BeatmapSetID:206288

[Difficulty]
HPDrainRate:5
CircleSize:7
OverallDifficulty:7
ApproachRate:2
SliderMultiplier:0.9
SliderTickRate:1

[Events]
//Background and Video events
0,0,"BG.jpg",0,0
//Break Periods
//Storyboard Layer 0 (Background)
//Storyboard Layer 1 (Fail)
//Storyboard Layer 2 (Pass)
//Storyboard Layer 3 (Foreground)
//Storyboard Sound Samples
Sample,0,0,"1_0_0_C-1.wav",40
Sample,1500,0,"1_9_1500_C7.wav",40
Sample,2062,0,"1_9_2062_A#6.wav",40
Sample,2250,0,"1_9_2250_C7.wav",40
Sample,2812,0,"1_9_2812_A#6.wav",40
Sample,3000,0,"1_9_3000_G6.wav",40
Sample,3187,0,"1_9_3187_A#6.wav",40
Sample,3375,0,"1_9_3375_G6.wav",40
Sample,3562,0,"1_9_3562_F6.wav",40
Sample,3750,0,"1_9_3750_G6.wav",40
Sample,4500,0,"1_9_4500_F6.wav",40
Sample,4687,0,"1_9_4687_F6.wav",40
Sample,4875,0,"1_9_4875_F6.wav",40
Sample,5062,0,"1_9_5062_G6.wav",40
Sample,5250,0,"1_9_5250_A#6.wav",40
Sample,5812,0,"1_9_5812_G6.wav",40
Sample,6000,0,"1_9_6000_F6.wav",40
Sample,6187,0,"1_9_6187_G6.wav",40
Sample,6375,0,"1_9_6375_F6.wav",40
Sample,6562,0,"1_9_6562_D#6.wav",40
Sample,6750,0,"1_9_6750_C6.wav",40
Sample,13312,0,"1_9_13312_C6.wav",40
Sample,13500,0,"1_9_13500_F6.wav",40
Sample,14062,0,"1_9_14062_D#6.wav",40
Sample,14250,0,"1_9_14250_D#6.wav",40
Sample,14812,0,"1_9_14812_C6.wav",40
Sample,15000,0,"1_9_15000_F6.wav",40
Sample,15562,0,"1_9_15562_D#6.wav",40
Sample,15750,0,"1_9_15750_D#6.wav",40
Sample,16312,0,"1_9_16312_D#6.wav",40
Sample,16406,0,"1_9_16406_F6.wav",40
Sample,16500,0,"1_9_16500_G6.wav",40
Sample,16875,0,"1_9_16875_G6.wav",40
Sample,17062,0,"1_9_17062_G6.wav",40
Sample,17437,0,"1_9_17437_G#6.wav",40
Sample,17625,0,"1_9_17624_G6.wav",40
Sample,17812,0,"1_9_17812_D#6.wav",40
Sample,19312,0,"1_9_19312_A#5.wav",40
Sample,19500,0,"1_9_19500_F6.wav",40
Sample,20062,0,"1_9_20062_D#6.wav",40
Sample,20250,0,"1_9_20250_D#6.wav",40
Sample,20812,0,"1_9_20812_A#5.wav",40
Sample,21000,0,"1_9_21000_F6.wav",40
Sample,21562,0,"1_9_21562_D#6.wav",40
Sample,21750,0,"1_9_21750_D#6.wav",40
Sample,22312,0,"1_9_22312_D#6.wav",40
Sample,22406,0,"1_9_22406_F6.wav",40
Sample,22500,0,"1_9_22500_G6.wav",40
Sample,22875,0,"1_9_22875_G6.wav",40
Sample,23062,0,"1_9_23062_G6.wav",40
Sample,23437,0,"1_9_23437_G#6.wav",40
Sample,23625,0,"1_9_23624_A#6.wav",40
Sample,23812,0,"1_9_23812_F6.wav",40
Sample,24750,0,"1_9_24750_D#6.wav",40
Sample,24937,0,"1_9_24937_F6.wav",40
Sample,25125,0,"1_9_25124_G6.wav",40
Sample,25312,0,"1_9_25312_G#6.wav",40
Sample,25500,0,"1_9_25500_A#6.wav",40
Sample,26250,0,"1_9_26250_D6.wav",40
Sample,27000,0,"1_9_27000_E6.wav",40
Sample,27750,0,"1_9_27750_E6.wav",40
Sample,27937,0,"1_9_27937_F6.wav",40
Sample,28125,0,"1_9_28124_G6.wav",40
Sample,28312,0,"1_9_28312_C6.wav",40
Sample,28500,0,"1_9_28500_A#6.wav",40
Sample,28875,0,"1_9_28875_G#6.wav",40
Sample,29062,0,"1_9_29062_G#6.wav",40
Sample,29437,0,"1_9_29437_G6.wav",40
Sample,29812,0,"1_9_29812_F6.wav",40
Sample,30750,0,"1_9_30750_F6.wav",40
Sample,30937,0,"1_9_30937_G6.wav",40
Sample,31125,0,"1_9_31124_F6.wav",40
Sample,31312,0,"1_9_31312_D#6.wav",40
Sample,31500,0,"1_9_31500_A#5.wav",40
Sample,32062,0,"1_9_32062_G6.wav",40
Sample,32250,0,"1_9_32250_G6.wav",40
Sample,33000,0,"1_14_33000_B5.wav",40
Sample,33562,0,"1_14_33562_G6.wav",40
Sample,33750,0,"1_14_33750_G6.wav",40
Sample,34500,0,"1_9_34500_C6.wav",40
Sample,35062,0,"1_9_35062_G6.wav",40
Sample,35250,0,"1_9_35250_G6.wav",40
Sample,36562,0,"1_9_36562_D#6.wav",40
Sample,36750,0,"1_9_36750_C7.wav",40
Sample,36937,0,"1_9_36937_A#6.wav",40
Sample,37125,0,"1_9_37124_G6.wav",40
Sample,37312,0,"1_9_37312_A#6.wav",40
Sample,37500,0,"1_9_37500_C7.wav",40
Sample,39187,0,"1_9_39187_D#6.wav",40
Sample,39375,0,"1_9_39375_D#6.wav",40
Sample,39562,0,"1_9_39562_D#6.wav",40
Sample,39750,0,"1_9_39750_D#6.wav",40
Sample,39937,0,"1_9_39937_A#5.wav",40
Sample,40125,0,"1_9_40124_F6.wav",40
Sample,40312,0,"1_9_40312_G6.wav",40
Sample,42187,0,"1_9_42187_A#6.wav",40
Sample,42375,0,"1_9_42375_A#6.wav",40
Sample,42562,0,"1_9_42562_A#6.wav",40
Sample,42750,0,"1_9_42750_A#6.wav",40
Sample,42937,0,"1_9_42937_D#6.wav",40
Sample,43125,0,"1_9_43124_D#6.wav",40
Sample,43500,0,"1_9_43500_C#6.wav",40
Sample,44062,0,"1_9_44062_G#6.wav",40
Sample,44250,0,"1_9_44250_G#6.wav",40
Sample,44812,0,"1_9_44812_C#6.wav",40
Sample,45000,0,"1_9_45000_D#6.wav",40
Sample,45562,0,"1_9_45562_A#6.wav",40
Sample,45750,0,"1_9_45750_A#6.wav",40
Sample,46312,0,"1_9_46312_D#6.wav",40
Sample,46500,0,"1_9_46500_F6.wav",40
Sample,47062,0,"1_9_47062_C7.wav",40
Sample,47250,0,"1_9_47250_C7.wav",40
Sample,48562,0,"1_9_48562_F6.wav",40
Sample,48750,0,"1_9_48750_F6.wav",40
Sample,48937,0,"1_9_48937_G6.wav",40
Sample,49125,0,"1_9_49124_G#6.wav",40
Sample,49312,0,"1_9_49312_F6.wav",40
Sample,49500,0,"1_9_49500_C7.wav",40
Sample,50062,0,"1_9_50062_A#6.wav",40
Sample,50250,0,"1_9_50250_A#6.wav",40
Sample,51562,0,"1_9_51562_D#6.wav",40
Sample,51750,0,"1_9_51750_D#6.wav",40
Sample,51937,0,"1_9_51937_F6.wav",40
Sample,52125,0,"1_9_52124_G6.wav",40
Sample,52312,0,"1_9_52312_A#6.wav",40
Sample,52500,0,"1_9_52500_C7.wav",40
Sample,53062,0,"1_9_53062_A#6.wav",40
Sample,53250,0,"1_9_53250_C7.wav",40
Sample,53812,0,"1_9_53812_A#6.wav",40
Sample,54000,0,"1_9_54000_G6.wav",40
Sample,54187,0,"1_9_54187_A#6.wav",40
Sample,54375,0,"1_9_54375_G6.wav",40
Sample,54562,0,"1_9_54562_F6.wav",40
Sample,54750,0,"1_9_54750_G6.wav",40
Sample,55125,0,"1_9_54850_G6.wav",40
Sample,55500,0,"1_9_55500_F6.wav",40
Sample,55687,0,"1_9_55687_F6.wav",40
Sample,55875,0,"1_9_55875_F6.wav",40
Sample,56062,0,"1_9_56062_G6.wav",40
Sample,56250,0,"1_9_56250_A#6.wav",40
Sample,56812,0,"1_9_56812_G6.wav",40
Sample,57000,0,"1_9_57000_F6.wav",40
Sample,57187,0,"1_9_57187_G6.wav",40
Sample,57375,0,"1_9_57375_F6.wav",40
Sample,57562,0,"1_9_57562_D#6.wav",40
Sample,57750,0,"1_9_57750_C6.wav",40
Sample,57937,0,"1_9_57850_C6.wav",40
Sample,58125,0,"1_9_57950_C6.wav",40
Sample,58500,0,"1_9_58500_C6.wav",40
Sample,58875,0,"1_9_58875_D6.wav",40
Sample,59250,0,"1_9_59250_D#6.wav",40
Sample,59437,0,"1_9_59437_G6.wav",40
Sample,59812,0,"1_9_59812_F6.wav",40
Sample,60375,0,"1_9_60375_D#6.wav",40
Sample,60750,0,"1_9_60750_D6.wav",40
Sample,61125,0,"1_9_61124_D#6.wav",40
Sample,61500,0,"1_9_61500_F6.wav",40
Sample,62062,0,"1_9_62062_A#6.wav",40
Sample,62250,0,"1_9_62250_G6.wav",40
Sample,63562,0,"1_9_63562_D#6.wav",40
Sample,63750,0,"1_9_63750_D#6.wav",40
Sample,63937,0,"1_9_63937_F6.wav",40
Sample,64125,0,"1_9_64124_G6.wav",40
Sample,64312,0,"1_9_64312_A#6.wav",40
Sample,64500,0,"1_9_64500_C7.wav",40
Sample,65062,0,"1_9_65062_A#6.wav",40
Sample,65250,0,"1_9_65250_C7.wav",40
Sample,65812,0,"1_9_65812_A#6.wav",40
Sample,66000,0,"1_9_66000_G6.wav",40
Sample,66187,0,"1_9_66187_A#6.wav",40
Sample,66375,0,"1_9_66375_G6.wav",40
Sample,66562,0,"1_9_66562_F6.wav",40
Sample,66750,0,"1_9_66750_G6.wav",40
Sample,67125,0,"1_9_66850_G6.wav",40
Sample,67500,0,"1_9_67500_F6.wav",40
Sample,67687,0,"1_9_67687_F6.wav",40
Sample,67875,0,"1_9_67875_F6.wav",40
Sample,68062,0,"1_9_68062_G6.wav",40
Sample,68250,0,"1_9_68250_A#6.wav",40
Sample,68437,0,"1_9_68437_C7.wav",40
Sample,68625,0,"1_9_68624_A#6.wav",40
Sample,68812,0,"1_9_68812_C7.wav",40
Sample,69000,0,"1_9_69000_C#7.wav",40
Sample,69187,0,"1_9_69187_C#7.wav",40
Sample,69375,0,"1_9_69375_C#7.wav",40
Sample,69562,0,"1_9_69562_C7.wav",40
Sample,69750,0,"1_9_69750_G6.wav",40
Sample,69937,0,"1_9_69850_G6.wav",40
Sample,70125,0,"1_9_69950_G6.wav",40
Sample,70875,0,"1_9_70875_A#6.wav",40
Sample,71250,0,"1_9_71250_D#6.wav",40
Sample,71812,0,"1_9_71812_D#6.wav",40
Sample,72000,0,"1_9_72000_A#6.wav",40
Sample,72187,0,"1_9_72187_D#6.wav",40
Sample,72562,0,"1_9_72562_F6.wav",40
Sample,72937,0,"1_9_72937_D#6.wav",40
Sample,73312,0,"1_9_73312_A#6.wav",40
Sample,73406,0,"1_9_73406_B6.wav",40
Sample,73500,0,"1_9_73500_C#7.wav",40
Sample,73875,0,"1_9_73875_B6.wav",40
Sample,74062,0,"1_9_74062_A#6.wav",40
Sample,74437,0,"1_9_74437_G#6.wav",40
Sample,74812,0,"1_9_74812_A#6.wav",40
Sample,76687,0,"1_9_76687_A#6.wav",40
Sample,76875,0,"1_9_76875_A#6.wav",40
Sample,77062,0,"1_9_77062_A#6.wav",40
Sample,77250,0,"1_9_77250_A#6.wav",40
Sample,77437,0,"1_9_77437_D#6.wav",40
Sample,77625,0,"1_9_77624_D#6.wav",40
Sample,77812,0,"1_9_77812_D#6.wav",40
Sample,82687,0,"1_9_82687_A#6.wav",40
Sample,82875,0,"1_9_82875_A#6.wav",40
Sample,83062,0,"1_9_83062_A#6.wav",40
Sample,83250,0,"1_9_83250_A#6.wav",40
Sample,83437,0,"1_9_83437_D#6.wav",40
Sample,83625,0,"1_9_83624_D#6.wav",40
Sample,83812,0,"1_9_83812_D#6.wav",40
//Background Colour Transformations
3,100,163,162,255

[TimingPoints]
0,375,4,2,0,70,1,0

[Colours]
Combo1 : 244,70,97
Combo2 : 156,31,250
Combo3 : 108,148,251

[HitObjects]
182,192,1382,5,0,0:0:0:0:1_1_7382_C6.wav
109,192,1429,1,0,0:0:0:0:1_1_7429_G#5.wav
36,192,1500,1,0,0:0:0:0:1_3_7500_C#4.wav
329,192,1500,1,0,0:0:0:0:1_2_7500_G#4.wav
475,192,1500,1,0,0:0:0:0:1_1_7500_C5.wav
36,192,3000,1,0,0:0:0:0:1_3_9000_C#4.wav
109,192,3000,1,0,0:0:0:0:1_1_9000_D#5.wav
402,192,3000,1,0,0:0:0:0:1_2_9000_A#4.wav
109,192,3632,1,0,0:0:0:0:1_1_9632_D#5.wav
182,192,3703,1,0,0:0:0:0:1_1_9703_F5.wav
402,192,3750,1,0,0:0:0:0:1_1_9750_A#5.wav
256,192,4500,1,0,0:0:0:0:1_2_10500_G4.wav
402,192,4500,1,0,0:0:0:0:1_1_10500_A#4.wav
475,192,4500,1,0,0:0:0:0:1_3_10500_C4.wav
182,192,6000,1,0,0:0:0:0:1_3_12000_F4.wav
329,192,6000,1,0,0:0:0:0:1_2_12000_G#4.wav
475,192,6000,1,0,0:0:0:0:1_1_12000_C5.wav
329,192,6656,1,0,0:0:0:0:1_1_12656_G4.wav
475,192,6703,1,0,0:0:0:0:1_1_12703_C5.wav
109,192,6750,1,0,0:0:0:0:1_1_12750_D#5.wav
256,192,7500,1,0,0:0:0:0:1_1_13500_G#4.wav
475,192,7500,1,0,0:0:0:0:1_2_13500_C#4.wav
329,192,7500,128,0,9000:0:0:0:0:1_3_13500_G#5.wav
109,192,8062,1,0,0:0:0:0:1_2_14062_F4.wav
256,192,8062,1,0,0:0:0:0:1_1_14062_G#4.wav
109,192,8437,1,0,0:0:0:0:1_2_14437_F4.wav
256,192,8437,1,0,0:0:0:0:1_1_14437_G#4.wav
36,192,8812,1,0,0:0:0:0:1_2_14812_D#4.wav
182,192,8812,1,0,0:0:0:0:1_1_14812_G4.wav
36,192,9000,1,0,0:0:0:0:1_2_15000_D#4.wav
182,192,9000,1,0,0:0:0:0:1_1_15000_G4.wav
402,192,9000,128,0,9750:0:0:0:0:1_3_15000_G5.wav
36,192,9375,1,0,0:0:0:0:1_2_15375_D#4.wav
182,192,9375,1,0,0:0:0:0:1_1_15375_G4.wav
182,192,9750,1,0,0:0:0:0:1_2_15750_G4.wav
329,192,9750,1,0,0:0:0:0:1_1_15750_A#4.wav
475,192,9750,128,0,10500:0:0:0:0:1_3_15750_A#5.wav
182,192,10125,1,0,0:0:0:0:1_2_16124_G4.wav
329,192,10125,1,0,0:0:0:0:1_1_16124_A#4.wav
109,192,10500,1,0,0:0:0:0:1_2_16500_F4.wav
402,192,10500,1,0,0:0:0:0:1_1_16500_C5.wav
36,192,10500,128,0,12000:0:0:0:0:1_3_16500_C6.wav
256,192,11062,1,0,0:0:0:0:1_2_17062_G#4.wav
402,192,11062,1,0,0:0:0:0:1_1_17062_C5.wav
256,192,11437,1,0,0:0:0:0:1_2_17437_G#4.wav
402,192,11437,1,0,0:0:0:0:1_1_17437_C5.wav
182,192,11812,1,0,0:0:0:0:1_2_17812_G4.wav
402,192,11812,1,0,0:0:0:0:1_1_17812_C5.wav
182,192,12000,1,0,0:0:0:0:1_2_18000_G4.wav
329,192,12000,1,0,0:0:0:0:1_1_18000_A#4.wav
109,192,12000,128,0,13125:0:0:0:0:1_3_18000_C#6.wav
256,192,12375,1,0,0:0:0:0:1_2_18375_G#4.wav
475,192,12375,1,0,0:0:0:0:1_1_18375_C#5.wav
256,192,12750,128,0,13125:0:0:0:0:1_2_18750_G#4.wav
475,192,12750,128,0,13125:0:0:0:0:1_1_18750_C#5.wav
109,192,13500,1,0,0:0:0:0:1_2_19500_F4.wav
402,192,13500,1,0,0:0:0:0:1_1_19500_C5.wav
475,192,13500,1,0,0:0:0:0:1_3_19500_C#4.wav
475,192,13875,1,0,0:0:0:0:1_3_19875_C#4.wav
475,192,14250,1,0,0:0:0:0:1_3_20250_C#4.wav
475,192,14625,1,0,0:0:0:0:1_3_20624_C#4.wav
475,192,15000,1,0,0:0:0:0:1_3_21000_C#4.wav
475,192,15375,1,0,0:0:0:0:1_3_21375_C#4.wav
402,192,15562,1,0,0:0:0:0:1_1_21562_C5.wav
475,192,15750,1,0,0:0:0:0:1_3_21750_C#4.wav
256,192,15937,1,0,0:0:0:0:1_1_21937_G#4.wav
475,192,16125,1,0,0:0:0:0:1_3_22124_C#4.wav
36,192,16500,1,0,0:0:0:0:1_2_22500_D#4.wav
182,192,16500,1,0,0:0:0:0:1_1_22500_G4.wav
475,192,16500,1,0,0:0:0:0:1_3_22500_C4.wav
475,192,16875,1,0,0:0:0:0:1_3_22875_C4.wav
475,192,17250,1,0,0:0:0:0:1_3_23250_C4.wav
475,192,17625,1,0,0:0:0:0:1_3_23624_C4.wav
36,192,17812,1,0,0:0:0:0:1_1_23812_D#4.wav
182,192,17906,1,0,0:0:0:0:1_1_23906_G4.wav
329,192,18000,1,0,0:0:0:0:1_1_24000_A#4.wav
475,192,18000,1,0,0:0:0:0:1_3_24000_C4.wav
475,192,18375,1,0,0:0:0:0:1_3_24375_C4.wav
36,192,18750,1,0,0:0:0:0:1_1_24750_D#4.wav
475,192,18750,1,0,0:0:0:0:1_3_24750_C4.wav
475,192,19125,1,0,0:0:0:0:1_3_25124_C4.wav
36,192,19500,1,0,0:0:0:0:1_1_25500_D#4.wav
182,192,19500,1,0,0:0:0:0:1_2_25500_F#3.wav
475,192,19500,1,0,0:0:0:0:1_3_25500_B3.wav
475,192,19875,1,0,0:0:0:0:1_3_25875_B3.wav
475,192,20250,1,0,0:0:0:0:1_3_26250_B3.wav
475,192,20625,1,0,0:0:0:0:1_3_26624_B3.wav
182,192,20812,1,0,0:0:0:0:1_1_26812_F5.wav
109,192,20906,1,0,0:0:0:0:1_1_26906_D#5.wav
36,192,20953,1,0,0:0:0:0:1_1_26953_C#5.wav
402,192,21000,1,0,0:0:0:0:1_1_27000_A#4.wav
475,192,21000,1,0,0:0:0:0:1_3_27000_B3.wav
475,192,21375,1,0,0:0:0:0:1_3_27375_B3.wav
475,192,21750,1,0,0:0:0:0:1_3_27750_B3.wav
475,192,22125,1,0,0:0:0:0:1_3_28124_B3.wav
182,192,22500,1,0,0:0:0:0:1_2_28500_F4.wav
329,192,22500,1,0,0:0:0:0:1_1_28500_G#4.wav
475,192,22500,1,0,0:0:0:0:1_3_28500_A#3.wav
475,192,22875,1,0,0:0:0:0:1_3_28875_A#3.wav
475,192,23250,1,0,0:0:0:0:1_3_29250_A#3.wav
36,192,23625,1,0,0:0:0:0:1_1_29624_C#4.wav
475,192,23625,1,0,0:0:0:0:1_3_29624_A#3.wav
36,192,23812,1,0,0:0:0:0:1_1_29812_D4.wav
109,192,23906,1,0,0:0:0:0:1_1_29906_D#4.wav
182,192,23953,1,0,0:0:0:0:1_1_29953_F4.wav
256,192,24000,1,0,0:0:0:0:1_1_30000_G#4.wav
475,192,24000,1,0,0:0:0:0:1_2_30000_D#4.wav
182,192,24750,1,0,0:0:0:0:1_1_30750_G4.wav
402,192,24750,1,0,0:0:0:0:1_2_30750_C#4.wav
329,192,25500,1,0,0:0:0:0:1_1_31500_A#4.wav
182,192,25687,1,0,0:0:0:0:1_1_31687_G4.wav
329,192,25875,1,0,0:0:0:0:1_1_31875_A#4.wav
475,192,26062,1,0,0:0:0:0:1_1_32062_D5.wav
36,192,27000,1,0,0:0:0:0:1_1_33000_C4.wav
109,192,27187,1,0,0:0:0:0:1_1_33187_E4.wav
329,192,27375,1,0,0:0:0:0:1_1_33375_A#4.wav
402,192,27562,1,0,0:0:0:0:1_1_33562_C#5.wav
109,192,28500,1,0,0:0:0:0:1_1_34500_F4.wav
256,192,28687,1,0,0:0:0:0:1_1_34687_G#4.wav
329,192,28875,1,0,0:0:0:0:1_1_34875_C5.wav
475,192,29062,1,0,0:0:0:0:1_1_35062_D#5.wav
329,192,30000,1,0,0:0:0:0:1_2_36000_B4.wav
402,192,30000,1,0,0:0:0:0:1_1_36000_D5.wav
329,192,30187,1,0,0:0:0:0:1_2_36187_B4.wav
402,192,30187,1,0,0:0:0:0:1_1_36187_D5.wav
329,192,30375,1,0,0:0:0:0:1_2_36375_B4.wav
402,192,30375,1,0,0:0:0:0:1_1_36375_D5.wav
182,192,30562,1,0,0:0:0:0:1_2_36562_G#4.wav
256,192,30562,1,0,0:0:0:0:1_1_36562_B4.wav
182,192,30937,1,0,0:0:0:0:1_2_36937_G#4.wav
256,192,30937,1,0,0:0:0:0:1_1_36937_B4.wav
36,192,31500,1,0,0:0:0:0:1_1_37500_A#3.wav
256,192,31500,1,0,0:0:0:0:1_3_37500_D#4.wav
329,192,32062,1,0,0:0:0:0:1_1_38062_D#4.wav
475,192,32437,1,0,0:0:0:0:1_1_38437_G4.wav
109,192,33000,1,0,0:0:0:0:1_1_39000_B3.wav
256,192,33000,1,0,0:0:0:0:1_3_39000_D#4.wav
475,192,33562,1,0,0:0:0:0:1_1_39562_G4.wav
109,192,34125,1,0,0:0:0:0:1_1_40124_B3.wav
256,192,34125,1,0,0:0:0:0:1_3_40500_D#4.wav
182,192,34500,1,0,0:0:0:0:1_1_40500_C4.wav
475,192,35062,1,0,0:0:0:0:1_1_41062_G4.wav
182,192,35437,1,0,0:0:0:0:1_1_41437_C4.wav
256,192,36000,1,0,0:0:0:0:1_1_42000_C#4.wav
329,192,36000,1,0,0:0:0:0:1_3_42000_D#4.wav
36,192,36750,1,0,0:0:0:0:1_1_42750_E3.wav
182,192,36843,1,0,0:0:0:0:1_1_42843_C4.wav
329,192,36937,1,0,0:0:0:0:1_1_42937_E4.wav
475,192,37031,1,0,0:0:0:0:1_1_43031_G4.wav
36,192,37125,1,0,0:0:0:0:1_1_43124_E4.wav
182,192,37218,1,0,0:0:0:0:1_1_43218_C5.wav
329,192,37312,1,0,0:0:0:0:1_1_43312_E5.wav
475,192,37406,1,0,0:0:0:0:1_1_43406_G5.wav
109,192,37500,1,0,0:0:0:0:1_2_43500_F4.wav
256,192,37500,1,0,0:0:0:0:1_3_43500_C#4.wav
402,192,37500,1,0,0:0:0:0:1_1_43500_C5.wav
109,192,37757,1,0,0:0:0:0:1_2_43757_F4.wav
256,192,37757,1,0,0:0:0:0:1_3_43757_C#4.wav
402,192,37757,1,0,0:0:0:0:1_1_43757_C5.wav
109,192,38062,1,0,0:0:0:0:1_2_44062_F4.wav
256,192,38062,1,0,0:0:0:0:1_3_44062_C#4.wav
402,192,38062,1,0,0:0:0:0:1_1_44062_C5.wav
109,192,38250,1,0,0:0:0:0:1_2_44250_F4.wav
256,192,38250,1,0,0:0:0:0:1_3_44250_C#4.wav
402,192,38250,1,0,0:0:0:0:1_1_44250_C5.wav
36,192,38625,1,0,0:0:0:0:1_2_44624_E4.wav
182,192,38625,1,0,0:0:0:0:1_3_44624_C4.wav
329,192,38625,1,0,0:0:0:0:1_1_44624_B4.wav
109,192,39000,1,0,0:0:0:0:1_2_45000_F4.wav
256,192,39000,1,0,0:0:0:0:1_3_45000_C#4.wav
402,192,39000,1,0,0:0:0:0:1_1_45000_C5.wav
182,192,40500,1,0,0:0:0:0:1_1_46500_A#4.wav
329,192,40500,1,0,0:0:0:0:1_3_46500_C4.wav
475,192,40500,1,0,0:0:0:0:1_2_46500_D#4.wav
182,192,40757,1,0,0:0:0:0:1_1_46757_A#4.wav
329,192,40757,1,0,0:0:0:0:1_3_46757_C4.wav
475,192,40757,1,0,0:0:0:0:1_2_46757_D#4.wav
182,192,41062,1,0,0:0:0:0:1_1_47062_A#4.wav
329,192,41062,1,0,0:0:0:0:1_3_47062_C4.wav
475,192,41062,1,0,0:0:0:0:1_2_47062_D#4.wav
182,192,41250,1,0,0:0:0:0:1_1_47250_A#4.wav
329,192,41250,1,0,0:0:0:0:1_3_47250_C4.wav
475,192,41250,1,0,0:0:0:0:1_2_47250_D#4.wav
109,192,41625,1,0,0:0:0:0:1_1_47624_A4.wav
256,192,41625,1,0,0:0:0:0:1_3_47624_B3.wav
402,192,41625,1,0,0:0:0:0:1_2_47624_D4.wav
182,192,42000,1,0,0:0:0:0:1_1_48000_A#4.wav
329,192,42000,1,0,0:0:0:0:1_3_48000_C4.wav
475,192,42000,1,0,0:0:0:0:1_2_48000_D#4.wav
182,192,42750,1,0,0:0:0:0:1_1_48750_A#4.wav
329,192,42750,1,0,0:0:0:0:1_2_48750_G4.wav
109,192,43125,1,0,0:0:0:0:1_1_49124_A4.wav
256,192,43125,1,0,0:0:0:0:1_2_49124_F#4.wav
36,192,43500,1,0,0:0:0:0:1_1_49500_C#4.wav
402,192,43500,128,0,45000:0:0:0:0:1_3_49500_A#3.wav
329,192,44062,1,0,0:0:0:0:1_1_50062_G#4.wav
36,192,44437,1,0,0:0:0:0:1_1_50437_C#4.wav
109,192,44812,1,0,0:0:0:0:1_1_50812_D4.wav
182,192,45000,1,0,0:0:0:0:1_1_51000_D#4.wav
475,192,45000,128,0,46500:0:0:0:0:1_3_51000_C4.wav
402,192,45562,1,0,0:0:0:0:1_1_51562_A#4.wav
182,192,46125,1,0,0:0:0:0:1_1_52124_D#4.wav
329,192,46312,1,0,0:0:0:0:1_1_52312_G4.wav
256,192,46500,1,0,0:0:0:0:1_1_52500_F4.wav
109,192,46500,128,0,48000:0:0:0:0:1_3_52500_C#4.wav
402,192,47062,1,0,0:0:0:0:1_1_53062_G#4.wav
475,192,47437,1,0,0:0:0:0:1_1_53437_C5.wav
182,192,47789,1,0,0:0:0:0:1_1_53882_G4.wav
329,192,47906,1,0,0:0:0:0:1_1_53953_A4.wav
475,192,48000,1,0,0:0:0:0:1_1_54000_C5.wav
36,192,48000,128,0,49500:0:0:0:0:1_3_54000_D4.wav
182,192,48562,1,0,0:0:0:0:1_1_54562_F5.wav
475,192,48937,1,0,0:0:0:0:1_1_54937_C5.wav
329,192,49125,1,0,0:0:0:0:1_1_55124_G#4.wav
182,192,49312,1,0,0:0:0:0:1_1_55312_F4.wav
109,192,49500,1,0,0:0:0:0:1_2_55500_D#4.wav
329,192,49500,1,0,0:0:0:0:1_1_55500_G#4.wav
402,192,49500,1,0,0:0:0:0:1_3_55500_A#3.wav
109,192,49875,1,0,0:0:0:0:1_2_55875_D#4.wav
329,192,49875,1,0,0:0:0:0:1_1_55875_G#4.wav
402,192,49875,1,0,0:0:0:0:1_3_55875_A#3.wav
109,192,50250,1,0,0:0:0:0:1_2_56250_D#4.wav
329,192,50250,1,0,0:0:0:0:1_1_56250_G#4.wav
402,192,50250,1,0,0:0:0:0:1_3_56250_A#3.wav
109,192,50625,1,0,0:0:0:0:1_2_56624_D#4.wav
329,192,50625,1,0,0:0:0:0:1_1_56624_G#4.wav
402,192,50625,1,0,0:0:0:0:1_3_56624_A#3.wav
109,192,51000,1,0,0:0:0:0:1_2_57000_D#4.wav
256,192,51000,1,0,0:0:0:0:1_1_57000_G4.wav
402,192,51000,1,0,0:0:0:0:1_3_57000_A#3.wav
475,192,51375,1,0,0:0:0:0:1_1_57375_D#5.wav
36,192,52500,1,0,0:0:0:0:1_2_58500_G#4.wav
256,192,52500,1,0,0:0:0:0:1_3_58500_C6.wav
475,192,52500,1,0,0:0:0:0:1_1_58500_G5.wav
36,192,53062,1,0,0:0:0:0:1_2_59062_G#4.wav
182,192,53062,1,0,0:0:0:0:1_1_59062_C5.wav
182,192,53437,1,0,0:0:0:0:1_2_59437_C5.wav
329,192,53437,1,0,0:0:0:0:1_1_59437_D#5.wav
109,192,54000,1,0,0:0:0:0:1_2_60000_B4.wav
182,192,54000,1,0,0:0:0:0:1_3_60000_B5.wav
402,192,54000,1,0,0:0:0:0:1_1_60000_F5.wav
36,192,54562,1,0,0:0:0:0:1_2_60562_G#4.wav
109,192,54562,1,0,0:0:0:0:1_1_60562_B4.wav
329,192,54937,1,0,0:0:0:0:1_2_60937_D#5.wav
475,192,54937,1,0,0:0:0:0:1_1_60937_G5.wav
109,192,55500,1,0,0:0:0:0:1_3_61500_F5.wav
256,192,55500,1,0,0:0:0:0:1_2_61500_D5.wav
402,192,55500,1,0,0:0:0:0:1_1_61500_F5.wav
36,192,56062,1,0,0:0:0:0:1_1_62062_A#5.wav
402,192,56062,1,0,0:0:0:0:1_2_62062_F5.wav
256,192,56437,1,0,0:0:0:0:1_2_62437_D5.wav
402,192,56437,1,0,0:0:0:0:1_1_62437_F5.wav
36,192,57000,1,0,0:0:0:0:1_2_63000_A4.wav
182,192,57000,1,0,0:0:0:0:1_1_63000_C5.wav
329,192,57000,1,0,0:0:0:0:1_3_63000_C5.wav
329,192,57562,1,0,0:0:0:0:1_2_63562_D#5.wav
475,192,57562,1,0,0:0:0:0:1_1_63562_F#5.wav
182,192,57937,1,0,0:0:0:0:1_2_63937_C5.wav
329,192,57937,1,0,0:0:0:0:1_1_63937_D#5.wav
36,192,58500,1,0,0:0:0:0:1_3_64500_C5.wav
182,192,58500,1,0,0:0:0:0:1_1_64500_C5.wav
402,192,58500,1,0,0:0:0:0:1_2_64500_F4.wav
36,192,59062,1,0,0:0:0:0:1_2_65062_G#4.wav
182,192,59062,1,0,0:0:0:0:1_1_65062_C5.wav
182,192,59437,1,0,0:0:0:0:1_2_65437_C5.wav
329,192,59437,1,0,0:0:0:0:1_1_65437_D#5.wav
36,192,60000,1,0,0:0:0:0:1_2_66000_G#4.wav
329,192,60000,1,0,0:0:0:0:1_3_66000_F#5.wav
402,192,60000,1,0,0:0:0:0:1_1_66000_F5.wav
109,192,60562,1,0,0:0:0:0:1_1_66562_B4.wav
475,192,60562,1,0,0:0:0:0:1_2_66562_G4.wav
256,192,60937,1,0,0:0:0:0:1_2_66937_D5.wav
475,192,60937,1,0,0:0:0:0:1_1_66937_G5.wav
36,192,61500,1,0,0:0:0:0:1_3_67500_F5.wav
182,192,61500,1,0,0:0:0:0:1_2_67500_C5.wav
402,192,61500,1,0,0:0:0:0:1_1_67500_F5.wav
329,192,62062,1,0,0:0:0:0:1_2_68062_D#5.wav
475,192,62062,1,0,0:0:0:0:1_1_68062_G5.wav
36,192,62250,1,0,0:0:0:0:1_3_68250_G5.wav
109,192,62437,1,0,0:0:0:0:1_2_68437_A#4.wav
475,192,62437,1,0,0:0:0:0:1_1_68437_G5.wav
36,192,63000,1,0,0:0:0:0:1_2_69000_G#4.wav
256,192,63000,1,0,0:0:0:0:1_3_69000_G#5.wav
402,192,63000,1,0,0:0:0:0:1_1_69000_F5.wav
182,192,63750,1,0,0:0:0:0:1_2_69750_B4.wav
256,192,63750,1,0,0:0:0:0:1_3_69750_G5.wav
329,192,63750,1,0,0:0:0:0:1_1_69750_D#5.wav
109,192,64500,1,0,0:0:0:0:1_2_70500_A4.wav
256,192,64500,1,0,0:0:0:0:1_3_70500_C5.wav
475,192,64500,1,0,0:0:0:0:1_1_70500_G5.wav
109,192,65062,1,0,0:0:0:0:1_2_71062_A4.wav
182,192,65062,1,0,0:0:0:0:1_1_71062_C5.wav
109,192,65625,1,0,0:0:0:0:1_2_71624_A4.wav
329,192,65625,1,0,0:0:0:0:1_1_71624_D#5.wav
36,192,66000,1,0,0:0:0:0:1_2_72000_G#4.wav
329,192,66000,1,0,0:0:0:0:1_1_72000_D#5.wav
475,192,66000,1,0,0:0:0:0:1_3_72000_G5.wav
36,192,66562,1,0,0:0:0:0:1_2_72562_G#4.wav
109,192,66562,1,0,0:0:0:0:1_1_72562_B4.wav
36,192,66937,1,0,0:0:0:0:1_2_72937_G#4.wav
475,192,66937,1,0,0:0:0:0:1_1_72937_G5.wav
256,192,67500,1,0,0:0:0:0:1_1_73500_C#5.wav
402,192,67500,1,0,0:0:0:0:1_3_73500_F5.wav
475,192,67500,1,0,0:0:0:0:1_2_73500_G4.wav
36,192,68062,1,0,0:0:0:0:1_1_74062_A#5.wav
475,192,68062,1,0,0:0:0:0:1_2_74062_G4.wav
402,192,68437,1,0,0:0:0:0:1_1_74437_F5.wav
475,192,68437,1,0,0:0:0:0:1_2_74437_G4.wav
182,192,69000,1,0,0:0:0:0:1_3_75000_F5.wav
256,192,69000,1,0,0:0:0:0:1_1_75000_C#5.wav
402,192,69000,1,0,0:0:0:0:1_2_75000_F4.wav
256,192,69375,1,0,0:0:0:0:1_1_75375_C#5.wav
402,192,69375,1,0,0:0:0:0:1_2_75375_F4.wav
109,192,69750,1,0,0:0:0:0:1_3_75750_E5.wav
182,192,69750,1,0,0:0:0:0:1_1_75750_C5.wav
329,192,69750,1,0,0:0:0:0:1_2_75750_E4.wav
182,192,70125,1,0,0:0:0:0:1_1_76124_C5.wav
329,192,70125,1,0,0:0:0:0:1_2_76124_E4.wav
36,192,70500,1,0,0:0:0:0:1_2_76500_G#4.wav
329,192,70500,1,0,0:0:0:0:1_1_76500_D#5.wav
402,192,70500,1,0,0:0:0:0:1_3_76500_F4.wav
36,192,70875,1,0,0:0:0:0:1_2_76875_G#4.wav
329,192,70875,1,0,0:0:0:0:1_1_76875_D#5.wav
402,192,70875,1,0,0:0:0:0:1_3_76875_F4.wav
36,192,71250,1,0,0:0:0:0:1_2_77250_G#4.wav
329,192,71250,1,0,0:0:0:0:1_1_77250_D#5.wav
402,192,71250,1,0,0:0:0:0:1_3_77250_F4.wav
36,192,71625,1,0,0:0:0:0:1_2_77624_G#4.wav
329,192,71625,1,0,0:0:0:0:1_1_77624_D#5.wav
402,192,71625,1,0,0:0:0:0:1_3_77624_F4.wav
109,192,72000,1,0,0:0:0:0:1_2_78000_A#4.wav
329,192,72000,1,0,0:0:0:0:1_1_78000_D#5.wav
475,192,72000,1,0,0:0:0:0:1_3_78000_G4.wav
109,192,72375,1,0,0:0:0:0:1_2_78375_A#4.wav
329,192,72375,1,0,0:0:0:0:1_1_78375_D#5.wav
475,192,72375,1,0,0:0:0:0:1_3_78375_G4.wav
109,192,72750,1,0,0:0:0:0:1_2_78750_A#4.wav
329,192,72750,1,0,0:0:0:0:1_1_78750_D#5.wav
475,192,72750,1,0,0:0:0:0:1_3_78750_G4.wav
109,192,73125,1,0,0:0:0:0:1_2_79124_A#4.wav
329,192,73125,1,0,0:0:0:0:1_1_79124_D#5.wav
475,192,73125,1,0,0:0:0:0:1_3_79124_G4.wav
36,192,73500,1,0,0:0:0:0:1_3_79500_G#4.wav
182,192,73500,1,0,0:0:0:0:1_2_79500_B4.wav
329,192,73500,1,0,0:0:0:0:1_1_79500_D#5.wav
36,192,73875,1,0,0:0:0:0:1_3_79875_G#4.wav
182,192,73875,1,0,0:0:0:0:1_2_79875_B4.wav
329,192,73875,1,0,0:0:0:0:1_1_79875_D#5.wav
36,192,74250,1,0,0:0:0:0:1_3_80250_G#4.wav
182,192,74250,1,0,0:0:0:0:1_2_80250_B4.wav
329,192,74250,1,0,0:0:0:0:1_1_80250_D#5.wav
36,192,74625,1,0,0:0:0:0:1_3_80624_G#4.wav
182,192,74625,1,0,0:0:0:0:1_2_80624_B4.wav
329,192,74625,1,0,0:0:0:0:1_1_80624_D#5.wav
329,192,75000,1,0,0:0:0:0:1_1_81000_D#5.wav
475,192,75000,1,0,0:0:0:0:1_2_81000_F4.wav
109,192,75000,128,0,76500:0:0:0:0:1_3_81000_A#4.wav
329,192,75562,1,0,0:0:0:0:1_1_81562_D#5.wav
475,192,75562,1,0,0:0:0:0:1_2_81562_F4.wav
329,192,75937,1,0,0:0:0:0:1_1_81937_D#5.wav
475,192,75937,1,0,0:0:0:0:1_2_81937_F4.wav
329,192,76312,1,0,0:0:0:0:1_1_82312_D#5.wav
475,192,76312,1,0,0:0:0:0:1_2_82312_F4.wav
36,192,76500,1,0,0:0:0:0:1_3_82500_A#4.wav
256,192,76500,1,0,0:0:0:0:1_1_82500_D5.wav
475,192,76500,1,0,0:0:0:0:1_2_82500_F4.wav
475,192,78000,1,0,0:0:0:0:1_2_84000_A#5.wav
36,192,78187,1,0,0:0:0:0:1_2_84187_A#4.wav
329,192,78375,1,0,0:0:0:0:1_2_84375_D#5.wav
475,192,78562,1,0,0:0:0:0:1_2_84562_A#5.wav
36,192,78750,1,0,0:0:0:0:1_2_84750_A#4.wav
329,192,78937,1,0,0:0:0:0:1_2_84937_D#5.wav
475,192,79125,1,0,0:0:0:0:1_2_85124_A#5.wav
36,192,79312,1,0,0:0:0:0:1_2_85312_A#4.wav
329,192,79500,1,0,0:0:0:0:1_2_85500_D#5.wav
475,192,79687,1,0,0:0:0:0:1_2_85687_A#5.wav
36,192,79875,1,0,0:0:0:0:1_2_85875_A#4.wav
329,192,80062,1,0,0:0:0:0:1_2_86062_D#5.wav
475,192,80250,1,0,0:0:0:0:1_2_86250_A#5.wav
36,192,80437,1,0,0:0:0:0:1_2_86437_A#4.wav
329,192,80625,1,0,0:0:0:0:1_2_86624_D#5.wav
475,192,80812,1,0,0:0:0:0:1_2_86812_A#5.wav
36,192,81000,1,0,0:0:0:0:1_2_87000_A#4.wav
329,192,81187,1,0,0:0:0:0:1_2_87187_D#5.wav
475,192,81375,1,0,0:0:0:0:1_2_87375_A#5.wav
36,192,81562,1,0,0:0:0:0:1_2_87562_A#4.wav
329,192,81750,1,0,0:0:0:0:1_2_87750_D#5.wav
475,192,81937,1,0,0:0:0:0:1_2_87937_A#5.wav
36,192,82125,1,0,0:0:0:0:1_2_88124_A#4.wav
329,192,82312,1,0,0:0:0:0:1_2_88312_D#5.wav
475,192,82500,1,0,0:0:0:0:1_2_88500_A#5.wav
36,192,82687,1,0,0:0:0:0:1_2_88687_A#4.wav
329,192,82875,1,0,0:0:0:0:1_2_88875_D#5.wav
475,192,83062,1,0,0:0:0:0:1_2_89062_A#5.wav
36,192,83250,1,0,0:0:0:0:1_2_89250_A#4.wav
329,192,83437,1,0,0:0:0:0:1_2_89437_D#5.wav
475,192,83625,1,0,0:0:0:0:1_2_89624_A#5.wav
36,192,83812,1,0,0:0:0:0:1_2_89812_A#4.wav
329,192,84000,1,0,0:0:0:0:1_2_90000_D#5.wav
475,192,84187,1,0,0:0:0:0:1_2_90187_A#5.wav
36,192,84375,1,0,0:0:0:0:1_2_90375_A#4.wav
329,192,84562,1,0,0:0:0:0:1_2_90562_D#5.wav
475,192,84750,1,0,0:0:0:0:1_2_90750_A#5.wav
36,192,84937,1,0,0:0:0:0:1_2_90937_A#4.wav
329,192,85125,1,0,0:0:0:0:1_2_91124_D#5.wav
475,192,85312,1,0,0:0:0:0:1_2_91312_A#5.wav
36,192,85500,1,0,0:0:0:0:1_2_91500_A#4.wav
329,192,85687,1,0,0:0:0:0:1_2_91687_D#5.wav
475,192,85875,1,0,0:0:0:0:1_2_91875_A#5.wav
36,192,86062,1,0,0:0:0:0:1_2_92062_A#4.wav
329,192,86250,1,0,0:0:0:0:1_2_92250_D#5.wav
475,192,86437,1,0,0:0:0:0:1_2_92437_A#5.wav
36,192,86625,1,0,0:0:0:0:1_2_92624_A#4.wav
329,192,86812,1,0,0:0:0:0:1_2_92812_D#5.wav
475,192,87000,1,0,0:0:0:0:1_2_93000_A#5.wav
36,192,87187,1,0,0:0:0:0:1_2_93187_A#4.wav
329,192,87375,1,0,0:0:0:0:1_2_93375_D#5.wav
475,192,87562,1,0,0:0:0:0:1_2_93562_A#5.wav
36,192,87750,1,0,0:0:0:0:1_2_93750_A#4.wav
329,192,87937,1,0,0:0:0:0:1_2_93937_D#5.wav
475,192,88125,1,0,0:0:0:0:1_2_94124_A#5.wav
36,192,88312,1,0,0:0:0:0:1_2_94312_A#4.wav
329,192,88500,1,0,0:0:0:0:1_2_94500_D#5.wav
475,192,88687,1,0,0:0:0:0:1_2_94687_A#5.wav
36,192,88875,1,0,0:0:0:0:1_2_94875_A#4.wav
329,192,89062,1,0,0:0:0:0:1_2_95062_D#5.wav
475,192,89250,1,0,0:0:0:0:1_2_95250_A#5.wav
402,192,89437,1,0,0:0:0:0:1_2_95437_G#5.wav
109,192,89625,1,0,0:0:0:0:1_1_90000_6.wav
329,192,89625,1,0,0:0:0:0:1_2_95624_G5.wav
182,192,89812,1,0,0:0:0:0:1_2_95812_D#5.wav
402,192,89812,1,0,0:0:0:0:1_1_91000.wav
