osu file format v13

[General]
AudioFilename: instoffset.ogg
AudioLeadIn: 0
PreviewTime: 50509
Countdown: 0
SampleSet: Soft
StackLeniency: 0.3
Mode: 3
LetterboxInBreaks: 0
SpecialStyle: 1
WidescreenStoryboard: 1

[Editor]
DistanceSpacing: 1
BeatDivisor: 4
GridSize: 4
TimelineZoom: 1.4

[Metadata]
Title:Hana wa Odore ya Irohaniho (TVsize)
TitleUnicode:花ハ踊レヤいろはにほ (TVsize)
Artist:Team "Hanayamata"
ArtistUnicode:チーム"ハナヤマタ"
Creator:chonicle
Version:drums map
Source:Hanayamata
Tags:
BeatmapID:489481
BeatmapSetID:206288

[Difficulty]
HPDrainRate:5
CircleSize:8
OverallDifficulty:7
ApproachRate:2
SliderMultiplier:0.9
SliderTickRate:1

[Events]
//Background and Video events
0,0,"BG.jpg",0,0
//Break Periods
//Storyboard Layer 0 (Background)
//Storyboard Layer 1 (Fail)
//Storyboard Layer 2 (Pass)
//Storyboard Layer 3 (Foreground)
//Storyboard Sound Samples
Sample,0,0,"1_0_0_C-1.ogg",40
Sample,1500,0,"1_9_1500_C7.ogg",40
Sample,2062,0,"1_9_2062_A#6.ogg",40
Sample,2250,0,"1_9_2250_C7.ogg",40
Sample,2812,0,"1_9_2812_A#6.ogg",40
Sample,3000,0,"1_9_3000_G6.ogg",40
Sample,3187,0,"1_9_3187_A#6.ogg",40
Sample,3375,0,"1_9_3375_G6.ogg",40
Sample,3562,0,"1_9_3562_F6.ogg",40
Sample,3750,0,"1_9_3750_G6.ogg",40
Sample,4500,0,"1_9_4500_F6.ogg",40
Sample,4687,0,"1_9_4687_F6.ogg",40
Sample,4875,0,"1_9_4875_F6.ogg",40
Sample,5062,0,"1_9_5062_G6.ogg",40
Sample,5250,0,"1_9_5250_A#6.ogg",40
Sample,5812,0,"1_9_5812_G6.ogg",40
Sample,6000,0,"1_9_6000_F6.ogg",40
Sample,6187,0,"1_9_6187_G6.ogg",40
Sample,6375,0,"1_9_6375_F6.ogg",40
Sample,6562,0,"1_9_6562_D#6.ogg",40
Sample,6750,0,"1_9_6750_C6.ogg",40
Sample,13312,0,"1_9_13312_C6.ogg",40
Sample,13500,0,"1_9_13500_F6.ogg",40
Sample,14062,0,"1_9_14062_D#6.ogg",40
Sample,14250,0,"1_9_14250_D#6.ogg",40
Sample,14812,0,"1_9_14812_C6.ogg",40
Sample,15000,0,"1_9_15000_F6.ogg",40
Sample,15562,0,"1_9_15562_D#6.ogg",40
Sample,15750,0,"1_9_15750_D#6.ogg",40
Sample,16312,0,"1_9_16312_D#6.ogg",40
Sample,16406,0,"1_9_16406_F6.ogg",40
Sample,16500,0,"1_9_16500_G6.ogg",40
Sample,16875,0,"1_9_16875_G6.ogg",40
Sample,17062,0,"1_9_17062_G6.ogg",40
Sample,17437,0,"1_9_17437_G#6.ogg",40
Sample,17625,0,"1_9_17624_G6.ogg",40
Sample,17812,0,"1_9_17812_D#6.ogg",40
Sample,19312,0,"1_9_19312_A#5.ogg",40
Sample,19500,0,"1_9_19500_F6.ogg",40
Sample,20062,0,"1_9_20062_D#6.ogg",40
Sample,20250,0,"1_9_20250_D#6.ogg",40
Sample,20812,0,"1_9_20812_A#5.ogg",40
Sample,21000,0,"1_9_21000_F6.ogg",40
Sample,21562,0,"1_9_21562_D#6.ogg",40
Sample,21750,0,"1_9_21750_D#6.ogg",40
Sample,22312,0,"1_9_22312_D#6.ogg",40
Sample,22406,0,"1_9_22406_F6.ogg",40
Sample,22500,0,"1_9_22500_G6.ogg",40
Sample,22875,0,"1_9_22875_G6.ogg",40
Sample,23062,0,"1_9_23062_G6.ogg",40
Sample,23437,0,"1_9_23437_G#6.ogg",40
Sample,23625,0,"1_9_23624_A#6.ogg",40
Sample,23812,0,"1_9_23812_F6.ogg",40
Sample,24750,0,"1_9_24750_D#6.ogg",40
Sample,24937,0,"1_9_24937_F6.ogg",40
Sample,25125,0,"1_9_25124_G6.ogg",40
Sample,25312,0,"1_9_25312_G#6.ogg",40
Sample,25500,0,"1_9_25500_A#6.ogg",40
Sample,26250,0,"1_9_26250_D6.ogg",40
Sample,27000,0,"1_9_27000_E6.ogg",40
Sample,27750,0,"1_9_27750_E6.ogg",40
Sample,27937,0,"1_9_27937_F6.ogg",40
Sample,28125,0,"1_9_28124_G6.ogg",40
Sample,28312,0,"1_9_28312_C6.ogg",40
Sample,28500,0,"1_9_28500_A#6.ogg",40
Sample,28875,0,"1_9_28875_G#6.ogg",40
Sample,29062,0,"1_9_29062_G#6.ogg",40
Sample,29437,0,"1_9_29437_G6.ogg",40
Sample,29812,0,"1_9_29812_F6.ogg",40
Sample,30750,0,"1_9_30750_F6.ogg",40
Sample,30937,0,"1_9_30937_G6.ogg",40
Sample,31125,0,"1_9_31124_F6.ogg",40
Sample,31312,0,"1_9_31312_D#6.ogg",40
Sample,31500,0,"1_9_31500_A#5.ogg",40
Sample,32062,0,"1_9_32062_G6.ogg",40
Sample,32250,0,"1_9_32250_G6.ogg",40
Sample,33000,0,"1_14_33000_B5.ogg",40
Sample,33562,0,"1_14_33562_G6.ogg",40
Sample,33750,0,"1_14_33750_G6.ogg",40
Sample,34500,0,"1_9_34500_C6.ogg",40
Sample,35062,0,"1_9_35062_G6.ogg",40
Sample,35250,0,"1_9_35250_G6.ogg",40
Sample,36562,0,"1_9_36562_D#6.ogg",40
Sample,36750,0,"1_9_36750_C7.ogg",40
Sample,36937,0,"1_9_36937_A#6.ogg",40
Sample,37125,0,"1_9_37124_G6.ogg",40
Sample,37312,0,"1_9_37312_A#6.ogg",40
Sample,37500,0,"1_9_37500_C7.ogg",40
Sample,39187,0,"1_9_39187_D#6.ogg",40
Sample,39375,0,"1_9_39375_D#6.ogg",40
Sample,39562,0,"1_9_39562_D#6.ogg",40
Sample,39750,0,"1_9_39750_D#6.ogg",40
Sample,39937,0,"1_9_39937_A#5.ogg",40
Sample,40125,0,"1_9_40124_F6.ogg",40
Sample,40312,0,"1_9_40312_G6.ogg",40
Sample,42187,0,"1_9_42187_A#6.ogg",40
Sample,42375,0,"1_9_42375_A#6.ogg",40
Sample,42562,0,"1_9_42562_A#6.ogg",40
Sample,42750,0,"1_9_42750_A#6.ogg",40
Sample,42937,0,"1_9_42937_D#6.ogg",40
Sample,43125,0,"1_9_43124_D#6.ogg",40
Sample,43500,0,"1_9_43500_C#6.ogg",40
Sample,44062,0,"1_9_44062_G#6.ogg",40
Sample,44250,0,"1_9_44250_G#6.ogg",40
Sample,44812,0,"1_9_44812_C#6.ogg",40
Sample,45000,0,"1_9_45000_D#6.ogg",40
Sample,45562,0,"1_9_45562_A#6.ogg",40
Sample,45750,0,"1_9_45750_A#6.ogg",40
Sample,46312,0,"1_9_46312_D#6.ogg",40
Sample,46500,0,"1_9_46500_F6.ogg",40
Sample,47062,0,"1_9_47062_C7.ogg",40
Sample,47250,0,"1_9_47250_C7.ogg",40
Sample,48562,0,"1_9_48562_F6.ogg",40
Sample,48750,0,"1_9_48750_F6.ogg",40
Sample,48937,0,"1_9_48937_G6.ogg",40
Sample,49125,0,"1_9_49124_G#6.ogg",40
Sample,49312,0,"1_9_49312_F6.ogg",40
Sample,49500,0,"1_9_49500_C7.ogg",40
Sample,50062,0,"1_9_50062_A#6.ogg",40
Sample,50250,0,"1_9_50250_A#6.ogg",40
Sample,51562,0,"1_9_51562_D#6.ogg",40
Sample,51750,0,"1_9_51750_D#6.ogg",40
Sample,51937,0,"1_9_51937_F6.ogg",40
Sample,52125,0,"1_9_52124_G6.ogg",40
Sample,52312,0,"1_9_52312_A#6.ogg",40
Sample,52500,0,"1_9_52500_C7.ogg",40
Sample,52875,0,"b_drums_v109l32o4b.wav",70
Sample,53062,0,"1_9_53062_A#6.ogg",40
Sample,53250,0,"1_9_53250_C7.ogg",40
Sample,53625,0,"b_drums_v109l32o4b.wav",70
Sample,53812,0,"1_9_53812_A#6.ogg",40
Sample,54000,0,"1_9_54000_G6.ogg",40
Sample,54187,0,"1_9_54187_A#6.ogg",40
Sample,54375,0,"1_9_54375_G6.ogg",40
Sample,54375,0,"b_drums_v109l32o4b.wav",70
Sample,54562,0,"1_9_54562_F6.ogg",40
Sample,54750,0,"1_9_54750_G6.ogg",40
Sample,55125,0,"b_drums_v109l32o4b.wav",70
Sample,55125,0,"1_9_54850_G6.ogg",40
Sample,55500,0,"1_9_55500_F6.ogg",40
Sample,55687,0,"1_9_55687_F6.ogg",40
Sample,55875,0,"1_9_55875_F6.ogg",40
Sample,55875,0,"b_drums_v83l32o4b.wav",70
Sample,56062,0,"1_9_56062_G6.ogg",40
Sample,56250,0,"1_9_56250_A#6.ogg",40
Sample,56625,0,"b_drums_v83l32o4b.wav",70
Sample,56812,0,"1_9_56812_G6.ogg",40
Sample,57000,0,"1_9_57000_F6.ogg",40
Sample,57187,0,"1_9_57187_G6.ogg",40
Sample,57375,0,"b_drums_v83l32o4b.wav",70
Sample,57375,0,"1_9_57375_F6.ogg",40
Sample,57562,0,"1_9_57562_D#6.ogg",40
Sample,57750,0,"1_9_57750_C6.ogg",40
Sample,57937,0,"1_9_57850_C6.ogg",40
Sample,58125,0,"1_9_57950_C6.ogg",40
Sample,58125,0,"b_drums_v83l32o4b.wav",70
Sample,58500,0,"1_9_58500_C6.ogg",40
Sample,58500,0,"b_drums_v109l32o4b.wav",70
Sample,58875,0,"b_drums_v109l32o4b.wav",70
Sample,58875,0,"1_9_58875_D6.ogg",40
Sample,59250,0,"1_9_59250_D#6.ogg",40
Sample,59250,0,"b_drums_v109l32o4b.wav",70
Sample,59437,0,"1_9_59437_G6.ogg",40
Sample,59625,0,"b_drums_v109l32o4b.wav",70
Sample,59812,0,"1_9_59812_F6.ogg",40
Sample,60000,0,"b_drums_v109l32o4b.wav",70
Sample,60375,0,"1_9_60375_D#6.ogg",40
Sample,60375,0,"b_drums_v109l32o4b.wav",70
Sample,60750,0,"b_drums_v109l32o4b.wav",70
Sample,60750,0,"1_9_60750_D6.ogg",40
Sample,61125,0,"1_9_61124_D#6.ogg",40
Sample,61125,0,"b_drums_v109l32o4b.wav",70
Sample,61500,0,"1_9_61500_F6.ogg",40
Sample,61500,0,"b_drums_v109l32o4b.wav",70
Sample,61875,0,"b_drums_v109l32o4b.wav",70
Sample,62062,0,"1_9_62062_A#6.ogg",40
Sample,62250,0,"1_9_62250_G6.ogg",40
Sample,62250,0,"b_drums_v109l32o4b.wav",70
Sample,62625,0,"b_drums_v109l32o4b.wav",70
Sample,63000,0,"b_drums_v109l32o4b.wav",70
Sample,63375,0,"b_drums_v109l32o4b.wav",70
Sample,63562,0,"1_9_63562_D#6.ogg",40
Sample,63750,0,"b_drums_v95l32o3g.wav",70
Sample,63750,0,"1_9_63750_D#6.ogg",40
Sample,63937,0,"1_9_63937_F6.ogg",40
Sample,64125,0,"1_9_64124_G6.ogg",40
Sample,64312,0,"1_9_64312_A#6.ogg",40
Sample,64500,0,"1_9_64500_C7.ogg",40
Sample,64500,0,"b_drums_v109l32o4b.wav",70
Sample,64875,0,"b_drums_v109l32o4b.wav",70
Sample,65062,0,"1_9_65062_A#6.ogg",40
Sample,65250,0,"1_9_65250_C7.ogg",40
Sample,65250,0,"b_drums_v109l32o4b.wav",70
Sample,65625,0,"b_drums_v109l32o4b.wav",70
Sample,65812,0,"1_9_65812_A#6.ogg",40
Sample,66000,0,"1_9_66000_G6.ogg",40
Sample,66000,0,"b_drums_v109l32o4b.wav",70
Sample,66187,0,"1_9_66187_A#6.ogg",40
Sample,66375,0,"b_drums_v109l32o4b.wav",70
Sample,66375,0,"1_9_66375_G6.ogg",40
Sample,66562,0,"1_9_66562_F6.ogg",40
Sample,66750,0,"1_9_66750_G6.ogg",40
Sample,66750,0,"b_drums_v109l32o4b.wav",70
Sample,67125,0,"b_drums_v109l32o4b.wav",70
Sample,67125,0,"1_9_66850_G6.ogg",40
Sample,67500,0,"1_9_67500_F6.ogg",40
Sample,67500,0,"b_drums_v109l32o4b.wav",70
Sample,67687,0,"1_9_67687_F6.ogg",40
Sample,67875,0,"b_drums_v109l32o4b.wav",70
Sample,67875,0,"1_9_67875_F6.ogg",40
Sample,68062,0,"1_9_68062_G6.ogg",40
Sample,68250,0,"1_9_68250_A#6.ogg",40
Sample,68250,0,"b_drums_v109l32o4b.wav",70
Sample,68437,0,"1_9_68437_C7.ogg",40
Sample,68625,0,"b_drums_v109l32o4b.wav",70
Sample,68625,0,"1_9_68624_A#6.ogg",40
Sample,68812,0,"1_9_68812_C7.ogg",40
Sample,69000,0,"1_9_69000_C#7.ogg",40
Sample,69187,0,"1_9_69187_C#7.ogg",40
Sample,69375,0,"1_9_69375_C#7.ogg",40
Sample,69562,0,"1_9_69562_C7.ogg",40
Sample,69750,0,"1_9_69750_G6.ogg",40
Sample,69937,0,"1_9_69850_G6.ogg",40
Sample,70125,0,"1_9_69950_G6.ogg",40
Sample,70875,0,"1_9_70875_A#6.ogg",40
Sample,71250,0,"1_9_71250_D#6.ogg",40
Sample,71812,0,"1_9_71812_D#6.ogg",40
Sample,72000,0,"1_9_72000_A#6.ogg",40
Sample,72187,0,"1_9_72187_D#6.ogg",40
Sample,72562,0,"1_9_72562_F6.ogg",40
Sample,72937,0,"1_9_72937_D#6.ogg",40
Sample,73312,0,"1_9_73312_A#6.ogg",40
Sample,73406,0,"1_9_73406_B6.ogg",40
Sample,73500,0,"1_9_73500_C#7.ogg",40
Sample,73875,0,"1_9_73875_B6.ogg",40
Sample,74062,0,"1_9_74062_A#6.ogg",40
Sample,74437,0,"1_9_74437_G#6.ogg",40
Sample,74812,0,"1_9_74812_A#6.ogg",40
Sample,76687,0,"1_9_76687_A#6.ogg",40
Sample,76875,0,"1_9_76875_A#6.ogg",40
Sample,77062,0,"1_9_77062_A#6.ogg",40
Sample,77250,0,"1_9_77250_A#6.ogg",40
Sample,77437,0,"1_9_77437_D#6.ogg",40
Sample,77625,0,"1_9_77624_D#6.ogg",40
Sample,77812,0,"1_9_77812_D#6.ogg",40
Sample,82687,0,"1_9_82687_A#6.ogg",40
Sample,82875,0,"1_9_82875_A#6.ogg",40
Sample,83062,0,"1_9_83062_A#6.ogg",40
Sample,83250,0,"1_9_83250_A#6.ogg",40
Sample,83437,0,"1_9_83437_D#6.ogg",40
Sample,83625,0,"1_9_83624_D#6.ogg",40
Sample,83812,0,"1_9_83812_D#6.ogg",40
//Background Colour Transformations
3,100,163,162,255

[TimingPoints]
0,375,4,2,0,70,1,0

[Colours]
Combo1 : 244,70,97
Combo2 : 156,31,250
Combo3 : 108,148,251

[HitObjects]
96,192,7500,5,0,0:0:0:0:b_drums_v104l32o3c.wav
32,192,7500,1,0,0:0:0:0:b_drums_v127l32o4a.wav
96,192,7875,1,0,0:0:0:0:b_drums_v104l32o3c.wav
352,192,7875,1,0,0:0:0:0:b_drums_v86l32o3d.wav
480,192,7875,1,0,0:0:0:0:b_drums_v27l32o3gp.wav
352,192,8062,1,0,0:0:0:0:b_drums_v87l32o3d.wav
480,192,8062,1,0,0:0:0:0:b_drums_v27l32o3gp.wav
96,192,8250,1,0,0:0:0:0:b_drums_v104l32o3c.wav
352,192,8250,1,0,0:0:0:0:b_drums_v89l32o3d.wav
480,192,8250,1,0,0:0:0:0:b_drums_v27l32o3gp.wav
352,192,8437,1,0,0:0:0:0:b_drums_v90l32o3d.wav
480,192,8437,1,0,0:0:0:0:b_drums_v27l32o3gp.wav
96,192,8625,1,0,0:0:0:0:b_drums_v104l32o3c.wav
352,192,8625,1,0,0:0:0:0:b_drums_v92l32o3d.wav
480,192,8625,1,0,0:0:0:0:b_drums_v33l32o3gp.wav
352,192,8812,1,0,0:0:0:0:b_drums_v93l32o3d.wav
480,192,8812,1,0,0:0:0:0:b_drums_v32l32o3gp.wav
96,192,9000,1,0,0:0:0:0:b_drums_v104l32o3c.wav
352,192,9000,1,0,0:0:0:0:b_drums_v95l32o3d.wav
480,192,9000,1,0,0:0:0:0:b_drums_v39l32o3gp.wav
352,192,9187,1,0,0:0:0:0:b_drums_v96l32o3d.wav
480,192,9187,1,0,0:0:0:0:b_drums_v45l32o3gp.wav
96,192,9375,1,0,0:0:0:0:b_drums_v104l32o3c.wav
352,192,9375,1,0,0:0:0:0:b_drums_v98l32o3d.wav
480,192,9375,1,0,0:0:0:0:b_drums_v44l32o3gp.wav
352,192,9562,1,0,0:0:0:0:b_drums_v96l32o3d.wav
480,192,9562,1,0,0:0:0:0:b_drums_v50l32o3gp.wav
96,192,9750,1,0,0:0:0:0:b_drums_v104l32o3c.wav
352,192,9750,1,0,0:0:0:0:b_drums_v97l32o3d.wav
480,192,9750,1,0,0:0:0:0:b_drums_v56l32o3gp.wav
352,192,9937,1,0,0:0:0:0:b_drums_v98l32o3d.wav
480,192,9937,1,0,0:0:0:0:b_drums_v56l32o3gp.wav
96,192,10125,1,0,0:0:0:0:b_drums_v104l32o3c.wav
352,192,10125,1,0,0:0:0:0:b_drums_v100l32o3d.wav
480,192,10125,1,0,0:0:0:0:b_drums_v56l32o3gp.wav
352,192,10312,1,0,0:0:0:0:b_drums_v101l32o3d.wav
480,192,10312,1,0,0:0:0:0:b_drums_v56l32o3gp.wav
96,192,10500,1,0,0:0:0:0:b_drums_v104l32o3c.wav
352,192,10500,1,0,0:0:0:0:b_drums_v102l32o3d.wav
480,192,10500,1,0,0:0:0:0:b_drums_v56l32o3gp.wav
352,192,10687,1,0,0:0:0:0:b_drums_v104l32o3d.wav
480,192,10687,1,0,0:0:0:0:b_drums_v48l32o3gp.wav
96,192,10875,1,0,0:0:0:0:b_drums_v104l32o3c.wav
352,192,10875,1,0,0:0:0:0:b_drums_v105l32o3d.wav
480,192,10875,1,0,0:0:0:0:b_drums_v48l32o3gp.wav
352,192,11062,1,0,0:0:0:0:b_drums_v105l32o3d.wav
480,192,11062,1,0,0:0:0:0:b_drums_v48l32o3gp.wav
96,192,11250,1,0,0:0:0:0:b_drums_v104l32o3c.wav
352,192,11250,1,0,0:0:0:0:b_drums_v105l32o3d.wav
480,192,11250,1,0,0:0:0:0:b_drums_v48l32o3gp.wav
352,192,11437,1,0,0:0:0:0:b_drums_v105l32o3d.wav
480,192,11437,1,0,0:0:0:0:b_drums_v48l32o3gp.wav
96,192,11625,1,0,0:0:0:0:b_drums_v104l32o3c.wav
352,192,11625,1,0,0:0:0:0:b_drums_v105l32o3d.wav
480,192,11625,1,0,0:0:0:0:b_drums_v48l32o3gp.wav
352,192,11812,1,0,0:0:0:0:b_drums_v105l32o3d.wav
480,192,11812,1,0,0:0:0:0:b_drums_v48l32o3gp.wav
96,192,12000,1,0,0:0:0:0:b_drums_v104l32o3c.wav
352,192,12000,1,0,0:0:0:0:b_drums_v105l32o3d.wav
480,192,12000,1,0,0:0:0:0:b_drums_v48l32o3gp.wav
352,192,12187,1,0,0:0:0:0:b_drums_v105l32o3d.wav
480,192,12187,1,0,0:0:0:0:b_drums_v48l32o3gp.wav
96,192,12375,1,0,0:0:0:0:b_drums_v104l32o3c.wav
32,192,12375,1,0,0:0:0:0:b_drums_v104l32o4cp.wav
96,192,12750,1,0,0:0:0:0:b_drums_v104l32o3c.wav
32,192,12750,1,0,0:0:0:0:b_drums_v104l32o4cp.wav
480,192,12750,1,0,0:0:0:0:b_drums_v87l32o3gp.wav
160,192,12937,1,0,0:0:0:0:b_drums_v104l32o3f.wav
224,192,13031,1,0,0:0:0:0:b_drums_v104l32o3g.wav
96,192,13125,1,0,0:0:0:0:b_drums_v100l32o3c.wav
288,192,13125,1,0,0:0:0:0:b_drums_v104l32o3a.wav
352,192,13218,1,0,0:0:0:0:b_drums_v104l32o3b.wav
416,192,13312,1,0,0:0:0:0:b_drums_v104l32o4c.wav
480,192,13406,1,0,0:0:0:0:b_drums_v104l32o4c.wav
96,192,13500,1,0,0:0:0:0:b_drums_v100l32o2b.wav
352,192,13500,1,0,0:0:0:0:b_drums_v100l32o3fp.wav
32,192,13500,1,0,0:0:0:0:b_drums_v100l32o4a.wav
352,192,13687,1,0,0:0:0:0:b_drums_v58l32o3fp.wav
96,192,13875,1,0,0:0:0:0:b_drums_v100l32o2b.wav
352,192,13875,1,0,0:0:0:0:b_drums_v100l32o3fp.wav
352,192,14062,1,0,0:0:0:0:b_drums_v58l32o3fp.wav
96,192,14250,1,0,0:0:0:0:b_drums_v100l32o2b.wav
352,192,14250,1,0,0:0:0:0:b_drums_v100l32o3fp.wav
352,192,14437,1,0,0:0:0:0:b_drums_v58l32o3fp.wav
96,192,14625,1,0,0:0:0:0:b_drums_v100l32o2b.wav
352,192,14625,1,0,0:0:0:0:b_drums_v100l32o3fp.wav
352,192,14812,1,0,0:0:0:0:b_drums_v58l32o3fp.wav
96,192,15000,1,0,0:0:0:0:b_drums_v100l32o2b.wav
352,192,15000,1,0,0:0:0:0:b_drums_v100l32o3fp.wav
352,192,15187,1,0,0:0:0:0:b_drums_v58l32o3fp.wav
96,192,15375,1,0,0:0:0:0:b_drums_v100l32o2b.wav
352,192,15375,1,0,0:0:0:0:b_drums_v100l32o3fp.wav
352,192,15562,1,0,0:0:0:0:b_drums_v58l32o3fp.wav
96,192,15750,1,0,0:0:0:0:b_drums_v100l32o2b.wav
352,192,15750,1,0,0:0:0:0:b_drums_v100l32o3fp.wav
352,192,15937,1,0,0:0:0:0:b_drums_v58l32o3fp.wav
96,192,16125,1,0,0:0:0:0:b_drums_v100l32o2b.wav
352,192,16125,1,0,0:0:0:0:b_drums_v100l32o3fp.wav
352,192,16312,1,0,0:0:0:0:b_drums_v58l32o3fp.wav
480,192,16406,1,0,0:0:0:0:b_drums_v88l32o3gp.wav
96,192,16500,1,0,0:0:0:0:b_drums_v100l32o2b.wav
352,192,16500,1,0,0:0:0:0:b_drums_v100l32o3fp.wav
352,192,16687,1,0,0:0:0:0:b_drums_v55l32o3fp.wav
96,192,16875,1,0,0:0:0:0:b_drums_v100l32o2b.wav
352,192,16875,1,0,0:0:0:0:b_drums_v100l32o3fp.wav
352,192,17062,1,0,0:0:0:0:b_drums_v55l32o3fp.wav
96,192,17250,1,0,0:0:0:0:b_drums_v100l32o2b.wav
352,192,17250,1,0,0:0:0:0:b_drums_v100l32o3fp.wav
352,192,17437,1,0,0:0:0:0:b_drums_v55l32o3fp.wav
96,192,17625,1,0,0:0:0:0:b_drums_v100l32o2b.wav
352,192,17625,1,0,0:0:0:0:b_drums_v100l32o3fp.wav
352,192,17812,1,0,0:0:0:0:b_drums_v55l32o3fp.wav
96,192,18000,1,0,0:0:0:0:b_drums_v100l32o2b.wav
352,192,18000,1,0,0:0:0:0:b_drums_v100l32o3fp.wav
352,192,18187,1,0,0:0:0:0:b_drums_v55l32o3fp.wav
96,192,18375,1,0,0:0:0:0:b_drums_v100l32o2b.wav
352,192,18375,1,0,0:0:0:0:b_drums_v100l32o3fp.wav
352,192,18562,1,0,0:0:0:0:b_drums_v55l32o3fp.wav
96,192,18750,1,0,0:0:0:0:b_drums_v100l32o2b.wav
352,192,18750,1,0,0:0:0:0:b_drums_v100l32o3fp.wav
352,192,18937,1,0,0:0:0:0:b_drums_v55l32o3fp.wav
96,192,19125,1,0,0:0:0:0:b_drums_v100l32o2b.wav
352,192,19125,1,0,0:0:0:0:b_drums_v100l32o3fp.wav
352,192,19312,1,0,0:0:0:0:b_drums_v55l32o3fp.wav
480,192,19406,1,0,0:0:0:0:b_drums_v100l32o3gp.wav
96,192,19500,1,0,0:0:0:0:b_drums_v100l32o2b.wav
352,192,19500,1,0,0:0:0:0:b_drums_v100l32o3fp.wav
352,192,19687,1,0,0:0:0:0:b_drums_v55l32o3fp.wav
96,192,19875,1,0,0:0:0:0:b_drums_v100l32o2b.wav
352,192,19875,1,0,0:0:0:0:b_drums_v100l32o3fp.wav
352,192,20062,1,0,0:0:0:0:b_drums_v55l32o3fp.wav
96,192,20250,1,0,0:0:0:0:b_drums_v100l32o2b.wav
352,192,20250,1,0,0:0:0:0:b_drums_v100l32o3fp.wav
352,192,20437,1,0,0:0:0:0:b_drums_v55l32o3fp.wav
96,192,20625,1,0,0:0:0:0:b_drums_v100l32o2b.wav
352,192,20625,1,0,0:0:0:0:b_drums_v100l32o3fp.wav
352,192,20812,1,0,0:0:0:0:b_drums_v55l32o3fp.wav
96,192,21000,1,0,0:0:0:0:b_drums_v100l32o2b.wav
352,192,21000,1,0,0:0:0:0:b_drums_v100l32o3fp.wav
352,192,21187,1,0,0:0:0:0:b_drums_v55l32o3fp.wav
96,192,21375,1,0,0:0:0:0:b_drums_v100l32o2b.wav
352,192,21375,1,0,0:0:0:0:b_drums_v100l32o3fp.wav
352,192,21562,1,0,0:0:0:0:b_drums_v55l32o3fp.wav
96,192,21750,1,0,0:0:0:0:b_drums_v100l32o2b.wav
352,192,21750,1,0,0:0:0:0:b_drums_v100l32o3fp.wav
352,192,21937,1,0,0:0:0:0:b_drums_v55l32o3fp.wav
96,192,22125,1,0,0:0:0:0:b_drums_v100l32o2b.wav
352,192,22125,1,0,0:0:0:0:b_drums_v100l32o3fp.wav
352,192,22312,1,0,0:0:0:0:b_drums_v55l32o3fp.wav
480,192,22406,1,0,0:0:0:0:b_drums_v88l32o3gp.wav
96,192,22500,1,0,0:0:0:0:b_drums_v100l32o2b.wav
352,192,22500,1,0,0:0:0:0:b_drums_v100l32o3fp.wav
352,192,22687,1,0,0:0:0:0:b_drums_v55l32o3fp.wav
96,192,22875,1,0,0:0:0:0:b_drums_v100l32o2b.wav
352,192,22875,1,0,0:0:0:0:b_drums_v100l32o3fp.wav
352,192,23062,1,0,0:0:0:0:b_drums_v55l32o3fp.wav
96,192,23250,1,0,0:0:0:0:b_drums_v100l32o2b.wav
352,192,23250,1,0,0:0:0:0:b_drums_v100l32o3fp.wav
352,192,23437,1,0,0:0:0:0:b_drums_v55l32o3fp.wav
96,192,23625,1,0,0:0:0:0:b_drums_v100l32o2b.wav
352,192,23625,1,0,0:0:0:0:b_drums_v100l32o3fp.wav
352,192,23812,1,0,0:0:0:0:b_drums_v55l32o3fp.wav
96,192,24000,1,0,0:0:0:0:b_drums_v100l32o2b.wav
352,192,24000,1,0,0:0:0:0:b_drums_v100l32o3fp.wav
352,192,24187,1,0,0:0:0:0:b_drums_v55l32o3fp.wav
96,192,24375,1,0,0:0:0:0:b_drums_v100l32o2b.wav
352,192,24375,1,0,0:0:0:0:b_drums_v100l32o3fp.wav
352,192,24562,1,0,0:0:0:0:b_drums_v55l32o3fp.wav
96,192,24750,1,0,0:0:0:0:b_drums_v100l32o2b.wav
352,192,24750,1,0,0:0:0:0:b_drums_v100l32o3fp.wav
352,192,24937,1,0,0:0:0:0:b_drums_v55l32o3fp.wav
96,192,25125,1,0,0:0:0:0:b_drums_v100l32o2b.wav
160,192,25125,1,0,0:0:0:0:b_drums_v88l32o3d.wav
288,192,25125,1,0,0:0:0:0:b_drums_v95l32o3ap.wav
96,192,25500,1,0,0:0:0:0:b_drums_v100l32o2b.wav
352,192,25500,1,0,0:0:0:0:b_drums_v95l32o3fp.wav
32,192,25500,1,0,0:0:0:0:b_drums_v93l32o4a.wav
160,192,25875,1,0,0:0:0:0:b_drums_v118l32o3d.wav
352,192,25875,1,0,0:0:0:0:b_drums_v95l32o3fp.wav
96,192,26250,1,0,0:0:0:0:b_drums_v100l32o2b.wav
352,192,26250,1,0,0:0:0:0:b_drums_v95l32o3fp.wav
96,192,26437,1,0,0:0:0:0:b_drums_v100l32o2b.wav
160,192,26625,1,0,0:0:0:0:b_drums_v114l32o3d.wav
352,192,26625,1,0,0:0:0:0:b_drums_v95l32o3fp.wav
96,192,27000,1,0,0:0:0:0:b_drums_v100l32o2b.wav
352,192,27000,1,0,0:0:0:0:b_drums_v95l32o3fp.wav
160,192,27375,1,0,0:0:0:0:b_drums_v118l32o3d.wav
352,192,27375,1,0,0:0:0:0:b_drums_v95l32o3fp.wav
96,192,27750,1,0,0:0:0:0:b_drums_v100l32o2b.wav
352,192,27750,1,0,0:0:0:0:b_drums_v95l32o3fp.wav
96,192,27937,1,0,0:0:0:0:b_drums_v100l32o2b.wav
160,192,28125,1,0,0:0:0:0:b_drums_v114l32o3d.wav
352,192,28125,1,0,0:0:0:0:b_drums_v95l32o3fp.wav
96,192,28500,1,0,0:0:0:0:b_drums_v100l32o2b.wav
352,192,28500,1,0,0:0:0:0:b_drums_v95l32o3fp.wav
160,192,28875,1,0,0:0:0:0:b_drums_v118l32o3d.wav
352,192,28875,1,0,0:0:0:0:b_drums_v95l32o3fp.wav
96,192,29250,1,0,0:0:0:0:b_drums_v100l32o2b.wav
352,192,29250,1,0,0:0:0:0:b_drums_v95l32o3fp.wav
96,192,29437,1,0,0:0:0:0:b_drums_v100l32o2b.wav
160,192,29625,1,0,0:0:0:0:b_drums_v114l32o3d.wav
352,192,29625,1,0,0:0:0:0:b_drums_v95l32o3fp.wav
96,192,30000,1,0,0:0:0:0:b_drums_v100l32o2b.wav
352,192,30000,1,0,0:0:0:0:b_drums_v95l32o3fp.wav
160,192,30375,1,0,0:0:0:0:b_drums_v118l32o3d.wav
352,192,30375,1,0,0:0:0:0:b_drums_v95l32o3fp.wav
96,192,30750,1,0,0:0:0:0:b_drums_v100l32o2b.wav
352,192,30750,1,0,0:0:0:0:b_drums_v95l32o3fp.wav
96,192,30937,1,0,0:0:0:0:b_drums_v100l32o2b.wav
160,192,31125,1,0,0:0:0:0:b_drums_v114l32o3d.wav
480,192,31125,1,0,0:0:0:0:b_drums_v95l32o3gp.wav
96,192,31312,1,0,0:0:0:0:b_drums_v100l32o2b.wav
96,192,31500,1,0,0:0:0:0:b_drums_v100l32o2b.wav
352,192,31500,1,0,0:0:0:0:b_drums_v95l32o3fp.wav
160,192,31875,1,0,0:0:0:0:b_drums_v118l32o3d.wav
480,192,31875,1,0,0:0:0:0:b_drums_v95l32o3gp.wav
96,192,32250,1,0,0:0:0:0:b_drums_v100l32o2b.wav
352,192,32250,1,0,0:0:0:0:b_drums_v95l32o3fp.wav
96,192,32437,1,0,0:0:0:0:b_drums_v100l32o2b.wav
160,192,32625,1,0,0:0:0:0:b_drums_v114l32o3d.wav
352,192,32625,1,0,0:0:0:0:b_drums_v95l32o3fp.wav
96,192,33000,1,0,0:0:0:0:b_drums_v100l32o2b.wav
352,192,33000,1,0,0:0:0:0:b_drums_v95l32o3fp.wav
160,192,33375,1,0,0:0:0:0:b_drums_v118l32o3d.wav
352,192,33375,1,0,0:0:0:0:b_drums_v95l32o3fp.wav
96,192,33750,1,0,0:0:0:0:b_drums_v100l32o2b.wav
352,192,33750,1,0,0:0:0:0:b_drums_v95l32o3fp.wav
96,192,33937,1,0,0:0:0:0:b_drums_v100l32o2b.wav
160,192,34125,1,0,0:0:0:0:b_drums_v114l32o3d.wav
352,192,34125,1,0,0:0:0:0:b_drums_v95l32o3fp.wav
96,192,34500,1,0,0:0:0:0:b_drums_v100l32o2b.wav
352,192,34500,1,0,0:0:0:0:b_drums_v95l32o3fp.wav
160,192,34875,1,0,0:0:0:0:b_drums_v118l32o3d.wav
352,192,34875,1,0,0:0:0:0:b_drums_v95l32o3fp.wav
96,192,35250,1,0,0:0:0:0:b_drums_v100l32o2b.wav
352,192,35250,1,0,0:0:0:0:b_drums_v95l32o3fp.wav
96,192,35437,1,0,0:0:0:0:b_drums_v100l32o2b.wav
160,192,35625,1,0,0:0:0:0:b_drums_v114l32o3d.wav
352,192,35625,1,0,0:0:0:0:b_drums_v95l32o3fp.wav
96,192,36000,1,0,0:0:0:0:b_drums_v100l32o2b.wav
352,192,36000,1,0,0:0:0:0:b_drums_v95l32o3fp.wav
416,192,36093,1,0,0:0:0:0:b_drums_v77l32o3fp.wav
352,192,36187,1,0,0:0:0:0:b_drums_v99l32o3fp.wav
416,192,36281,1,0,0:0:0:0:b_drums_v76l32o3fp.wav
160,192,36375,1,0,0:0:0:0:b_drums_v118l32o3d.wav
480,192,36375,1,0,0:0:0:0:b_drums_v95l32o3gp.wav
96,192,36750,1,0,0:0:0:0:b_drums_v100l32o2b.wav
160,192,36750,1,0,0:0:0:0:b_drums_v77l32o3d.wav
288,192,36750,1,0,0:0:0:0:b_drums_v95l32o3ap.wav
224,192,36843,1,0,0:0:0:0:b_drums_v81l32o3e.wav
160,192,36937,1,0,0:0:0:0:b_drums_v86l32o3d.wav
224,192,37031,1,0,0:0:0:0:b_drums_v90l32o3e.wav
160,192,37125,1,0,0:0:0:0:b_drums_v94l32o3d.wav
224,192,37218,1,0,0:0:0:0:b_drums_v98l32o3e.wav
160,192,37312,1,0,0:0:0:0:b_drums_v102l32o3d.wav
224,192,37406,1,0,0:0:0:0:b_drums_v107l32o3e.wav
96,192,37500,1,0,0:0:0:0:b_drums_v100l32o2b.wav
352,192,37500,1,0,0:0:0:0:b_drums_v95l32o3fp.wav
32,192,37500,1,0,0:0:0:0:b_drums_v95l32o4a.wav
96,192,37875,1,0,0:0:0:0:b_drums_v100l32o2b.wav
352,192,37875,1,0,0:0:0:0:b_drums_v95l32o3fp.wav
96,192,38250,1,0,0:0:0:0:b_drums_v100l32o2b.wav
160,192,38250,1,0,0:0:0:0:b_drums_v102l32o3d.wav
352,192,38250,1,0,0:0:0:0:b_drums_v95l32o3fp.wav
96,192,38625,1,0,0:0:0:0:b_drums_v100l32o2b.wav
352,192,38625,1,0,0:0:0:0:b_drums_v95l32o3fp.wav
96,192,39000,1,0,0:0:0:0:b_drums_v100l32o2b.wav
352,192,39000,1,0,0:0:0:0:b_drums_v95l32o3fp.wav
96,192,39375,1,0,0:0:0:0:b_drums_v100l32o2b.wav
352,192,39375,1,0,0:0:0:0:b_drums_v95l32o3fp.wav
96,192,39750,1,0,0:0:0:0:b_drums_v100l32o2b.wav
160,192,39750,1,0,0:0:0:0:b_drums_v102l32o3d.wav
352,192,39750,1,0,0:0:0:0:b_drums_v95l32o3fp.wav
96,192,40125,1,0,0:0:0:0:b_drums_v100l32o2b.wav
352,192,40125,1,0,0:0:0:0:b_drums_v95l32o3fp.wav
480,192,40406,1,0,0:0:0:0:b_drums_v95l32o3gp.wav
96,192,40500,1,0,0:0:0:0:b_drums_v100l32o2b.wav
352,192,40500,1,0,0:0:0:0:b_drums_v95l32o3fp.wav
96,192,40875,1,0,0:0:0:0:b_drums_v100l32o2b.wav
352,192,40875,1,0,0:0:0:0:b_drums_v95l32o3fp.wav
96,192,41250,1,0,0:0:0:0:b_drums_v100l32o2b.wav
160,192,41250,1,0,0:0:0:0:b_drums_v102l32o3d.wav
352,192,41250,1,0,0:0:0:0:b_drums_v95l32o3fp.wav
96,192,41625,1,0,0:0:0:0:b_drums_v100l32o2b.wav
352,192,41625,1,0,0:0:0:0:b_drums_v95l32o3fp.wav
352,192,41812,1,0,0:0:0:0:b_drums_v61l32o3fp.wav
96,192,42000,1,0,0:0:0:0:b_drums_v100l32o2b.wav
352,192,42000,1,0,0:0:0:0:b_drums_v95l32o3fp.wav
96,192,42375,1,0,0:0:0:0:b_drums_v100l32o2b.wav
352,192,42375,1,0,0:0:0:0:b_drums_v95l32o3fp.wav
96,192,42750,1,0,0:0:0:0:b_drums_v100l32o2b.wav
160,192,42750,1,0,0:0:0:0:b_drums_v102l32o3d.wav
352,192,42750,1,0,0:0:0:0:b_drums_v95l32o3fp.wav
32,192,42750,1,0,0:0:0:0:b_drums_v95l32o4a.wav
96,192,43125,1,0,0:0:0:0:b_drums_v100l32o2b.wav
160,192,43125,1,0,0:0:0:0:b_drums_v102l32o3d.wav
352,192,43125,1,0,0:0:0:0:b_drums_v95l32o3fp.wav
32,192,43125,1,0,0:0:0:0:b_drums_v95l32o4a.wav
96,192,43500,1,0,0:0:0:0:b_drums_v100l32o2b.wav
32,192,43500,1,0,0:0:0:0:b_drums_v95l32o4a.wav
480,192,43500,1,0,0:0:0:0:b_drums_v95l32o3gp.wav
160,192,43875,1,0,0:0:0:0:b_drums_v109l32o3d.wav
480,192,43875,1,0,0:0:0:0:b_drums_v95l32o3gp.wav
96,192,44250,1,0,0:0:0:0:b_drums_v100l32o2b.wav
480,192,44250,1,0,0:0:0:0:b_drums_v95l32o3gp.wav
96,192,44437,1,0,0:0:0:0:b_drums_v100l32o2b.wav
160,192,44625,1,0,0:0:0:0:b_drums_v109l32o3d.wav
480,192,44625,1,0,0:0:0:0:b_drums_v95l32o3gp.wav
96,192,45000,1,0,0:0:0:0:b_drums_v100l32o2b.wav
480,192,45000,1,0,0:0:0:0:b_drums_v95l32o3gp.wav
160,192,45375,1,0,0:0:0:0:b_drums_v109l32o3d.wav
480,192,45375,1,0,0:0:0:0:b_drums_v95l32o3gp.wav
96,192,45750,1,0,0:0:0:0:b_drums_v100l32o2b.wav
480,192,45750,1,0,0:0:0:0:b_drums_v95l32o3gp.wav
96,192,45937,1,0,0:0:0:0:b_drums_v100l32o2b.wav
160,192,46125,1,0,0:0:0:0:b_drums_v109l32o3d.wav
480,192,46125,1,0,0:0:0:0:b_drums_v95l32o3gp.wav
96,192,46312,1,0,0:0:0:0:b_drums_v100l32o2b.wav
96,192,46500,1,0,0:0:0:0:b_drums_v100l32o2b.wav
480,192,46500,1,0,0:0:0:0:b_drums_v95l32o3gp.wav
160,192,46875,1,0,0:0:0:0:b_drums_v109l32o3d.wav
480,192,46875,1,0,0:0:0:0:b_drums_v95l32o3gp.wav
96,192,47250,1,0,0:0:0:0:b_drums_v100l32o2b.wav
480,192,47250,1,0,0:0:0:0:b_drums_v95l32o3gp.wav
96,192,47437,1,0,0:0:0:0:b_drums_v100l32o2b.wav
160,192,47625,1,0,0:0:0:0:b_drums_v109l32o3d.wav
480,192,47625,1,0,0:0:0:0:b_drums_v95l32o3gp.wav
96,192,48000,1,0,0:0:0:0:b_drums_v100l32o2b.wav
480,192,48000,1,0,0:0:0:0:b_drums_v95l32o3gp.wav
160,192,48375,1,0,0:0:0:0:b_drums_v109l32o3d.wav
480,192,48375,1,0,0:0:0:0:b_drums_v95l32o3gp.wav
96,192,48750,1,0,0:0:0:0:b_drums_v100l32o2b.wav
480,192,48750,1,0,0:0:0:0:b_drums_v95l32o3gp.wav
96,192,48937,1,0,0:0:0:0:b_drums_v100l32o2b.wav
160,192,49125,1,0,0:0:0:0:b_drums_v109l32o3d.wav
480,192,49125,1,0,0:0:0:0:b_drums_v95l32o3gp.wav
96,192,49312,1,0,0:0:0:0:b_drums_v100l32o2b.wav
480,192,49500,1,0,0:0:0:0:b_drums_v95l32o3gp.wav
480,192,49875,1,0,0:0:0:0:b_drums_v95l32o3gp.wav
96,192,50062,1,0,0:0:0:0:b_drums_v100l32o2b.wav
480,192,50250,1,0,0:0:0:0:b_drums_v95l32o3gp.wav
96,192,50437,1,0,0:0:0:0:b_drums_v100l32o2b.wav
96,192,50531,1,0,0:0:0:0:b_drums_v100l32o2b.wav
480,192,50625,1,0,0:0:0:0:b_drums_v95l32o3gp.wav
96,192,50812,1,0,0:0:0:0:b_drums_v100l32o2b.wav
160,192,51000,1,0,0:0:0:0:b_drums_v109l32o3d.wav
288,192,52125,1,0,0:0:0:0:b_drums_v109l32o3g.wav
96,192,52500,1,0,0:0:0:0:b_drums_v101l32o2b.wav
352,192,52500,1,0,0:0:0:0:b_drums_v89l32o3fp.wav
32,192,52500,1,0,0:0:0:0:b_drums_v105l32o4a.wav
96,192,52875,1,0,0:0:0:0:b_drums_v101l32o2b.wav
160,192,52875,1,0,0:0:0:0:b_drums_v109l32o3d.wav
352,192,52875,1,0,0:0:0:0:b_drums_v89l32o3fp.wav
96,192,53250,1,0,0:0:0:0:b_drums_v101l32o2b.wav
352,192,53250,1,0,0:0:0:0:b_drums_v89l32o3fp.wav
96,192,53625,1,0,0:0:0:0:b_drums_v101l32o2b.wav
160,192,53625,1,0,0:0:0:0:b_drums_v109l32o3d.wav
352,192,53625,1,0,0:0:0:0:b_drums_v89l32o3fp.wav
96,192,54000,1,0,0:0:0:0:b_drums_v101l32o2b.wav
352,192,54000,1,0,0:0:0:0:b_drums_v89l32o3fp.wav
96,192,54375,1,0,0:0:0:0:b_drums_v101l32o2b.wav
160,192,54375,1,0,0:0:0:0:b_drums_v109l32o3d.wav
352,192,54375,1,0,0:0:0:0:b_drums_v89l32o3fp.wav
96,192,54750,1,0,0:0:0:0:b_drums_v101l32o2b.wav
352,192,54750,1,0,0:0:0:0:b_drums_v89l32o3fp.wav
96,192,55125,1,0,0:0:0:0:b_drums_v101l32o2b.wav
160,192,55125,1,0,0:0:0:0:b_drums_v109l32o3d.wav
352,192,55125,1,0,0:0:0:0:b_drums_v89l32o3fp.wav
96,192,55500,1,0,0:0:0:0:b_drums_v101l32o2b.wav
352,192,55500,1,0,0:0:0:0:b_drums_v89l32o3fp.wav
96,192,55875,1,0,0:0:0:0:b_drums_v101l32o2b.wav
160,192,55875,1,0,0:0:0:0:b_drums_v109l32o3d.wav
352,192,55875,1,0,0:0:0:0:b_drums_v89l32o3fp.wav
96,192,56250,1,0,0:0:0:0:b_drums_v101l32o2b.wav
352,192,56250,1,0,0:0:0:0:b_drums_v89l32o3fp.wav
96,192,56625,1,0,0:0:0:0:b_drums_v101l32o2b.wav
160,192,56625,1,0,0:0:0:0:b_drums_v109l32o3d.wav
352,192,56625,1,0,0:0:0:0:b_drums_v89l32o3fp.wav
96,192,57000,1,0,0:0:0:0:b_drums_v101l32o2b.wav
352,192,57000,1,0,0:0:0:0:b_drums_v89l32o3fp.wav
96,192,57375,1,0,0:0:0:0:b_drums_v101l32o2b.wav
160,192,57375,1,0,0:0:0:0:b_drums_v109l32o3d.wav
352,192,57375,1,0,0:0:0:0:b_drums_v89l32o3fp.wav
96,192,57750,1,0,0:0:0:0:b_drums_v101l32o2b.wav
352,192,57750,1,0,0:0:0:0:b_drums_v89l32o3fp.wav
480,192,57937,1,0,0:0:0:0:b_drums_v105l32o3ap.wav
96,192,58125,1,0,0:0:0:0:b_drums_v101l32o2b.wav
160,192,58125,1,0,0:0:0:0:b_drums_v109l32o3d.wav
352,192,58125,1,0,0:0:0:0:b_drums_v89l32o3fp.wav
480,192,58125,1,0,0:0:0:0:b_drums_v105l32o3ap.wav
96,192,58500,1,0,0:0:0:0:b_drums_v101l32o2b.wav
352,192,58500,1,0,0:0:0:0:b_drums_v89l32o3fp.wav
32,192,58500,1,0,0:0:0:0:b_drums_v105l32o4a.wav
96,192,58875,1,0,0:0:0:0:b_drums_v101l32o2b.wav
160,192,58875,1,0,0:0:0:0:b_drums_v109l32o3d.wav
352,192,58875,1,0,0:0:0:0:b_drums_v89l32o3fp.wav
96,192,59250,1,0,0:0:0:0:b_drums_v101l32o2b.wav
352,192,59250,1,0,0:0:0:0:b_drums_v89l32o3fp.wav
96,192,59625,1,0,0:0:0:0:b_drums_v101l32o2b.wav
160,192,59625,1,0,0:0:0:0:b_drums_v109l32o3d.wav
352,192,59625,1,0,0:0:0:0:b_drums_v89l32o3fp.wav
96,192,60000,1,0,0:0:0:0:b_drums_v101l32o2b.wav
352,192,60000,1,0,0:0:0:0:b_drums_v89l32o3fp.wav
96,192,60375,1,0,0:0:0:0:b_drums_v101l32o2b.wav
160,192,60375,1,0,0:0:0:0:b_drums_v109l32o3d.wav
352,192,60375,1,0,0:0:0:0:b_drums_v89l32o3fp.wav
96,192,60750,1,0,0:0:0:0:b_drums_v101l32o2b.wav
352,192,60750,1,0,0:0:0:0:b_drums_v89l32o3fp.wav
96,192,61125,1,0,0:0:0:0:b_drums_v101l32o2b.wav
160,192,61125,1,0,0:0:0:0:b_drums_v109l32o3d.wav
352,192,61125,1,0,0:0:0:0:b_drums_v89l32o3fp.wav
96,192,61500,1,0,0:0:0:0:b_drums_v101l32o2b.wav
352,192,61500,1,0,0:0:0:0:b_drums_v89l32o3fp.wav
96,192,61875,1,0,0:0:0:0:b_drums_v101l32o2b.wav
160,192,61875,1,0,0:0:0:0:b_drums_v109l32o3d.wav
352,192,61875,1,0,0:0:0:0:b_drums_v89l32o3fp.wav
96,192,62250,1,0,0:0:0:0:b_drums_v101l32o2b.wav
352,192,62250,1,0,0:0:0:0:b_drums_v89l32o3fp.wav
96,192,62625,1,0,0:0:0:0:b_drums_v101l32o2b.wav
160,192,62625,1,0,0:0:0:0:b_drums_v109l32o3d.wav
352,192,62625,1,0,0:0:0:0:b_drums_v89l32o3fp.wav
96,192,63000,1,0,0:0:0:0:b_drums_v101l32o2b.wav
352,192,63000,1,0,0:0:0:0:b_drums_v89l32o3fp.wav
96,192,63375,1,0,0:0:0:0:b_drums_v101l32o2b.wav
160,192,63375,1,0,0:0:0:0:b_drums_v118l32o3d.wav
480,192,63375,1,0,0:0:0:0:b_drums_v89l32o3gp.wav
96,192,63750,1,0,0:0:0:0:b_drums_v101l32o2b.wav
160,192,63750,1,0,0:0:0:0:b_drums_v40l32o3d.wav
224,192,63843,1,0,0:0:0:0:b_drums_v50l32o3e.wav
160,192,63937,1,0,0:0:0:0:b_drums_v60l32o3d.wav
224,192,64031,1,0,0:0:0:0:b_drums_v69l32o3e.wav
96,192,64125,1,0,0:0:0:0:b_drums_v101l32o2b.wav
160,192,64125,1,0,0:0:0:0:b_drums_v79l32o3d.wav
224,192,64218,1,0,0:0:0:0:b_drums_v89l32o3e.wav
160,192,64312,1,0,0:0:0:0:b_drums_v99l32o3d.wav
224,192,64406,1,0,0:0:0:0:b_drums_v109l32o3e.wav
96,192,64500,1,0,0:0:0:0:b_drums_v101l32o2b.wav
352,192,64500,1,0,0:0:0:0:b_drums_v89l32o3fp.wav
32,192,64500,1,0,0:0:0:0:b_drums_v105l32o4a.wav
96,192,64875,1,0,0:0:0:0:b_drums_v104l32o2b.wav
160,192,64875,1,0,0:0:0:0:b_drums_v109l32o3d.wav
352,192,64875,1,0,0:0:0:0:b_drums_v89l32o3fp.wav
96,192,65250,1,0,0:0:0:0:b_drums_v104l32o2b.wav
352,192,65250,1,0,0:0:0:0:b_drums_v89l32o3fp.wav
96,192,65625,1,0,0:0:0:0:b_drums_v101l32o2b.wav
160,192,65625,1,0,0:0:0:0:b_drums_v109l32o3d.wav
352,192,65625,1,0,0:0:0:0:b_drums_v89l32o3fp.wav
96,192,66000,1,0,0:0:0:0:b_drums_v101l32o2b.wav
352,192,66000,1,0,0:0:0:0:b_drums_v89l32o3fp.wav
96,192,66375,1,0,0:0:0:0:b_drums_v101l32o2b.wav
160,192,66375,1,0,0:0:0:0:b_drums_v109l32o3d.wav
352,192,66375,1,0,0:0:0:0:b_drums_v89l32o3fp.wav
96,192,66750,1,0,0:0:0:0:b_drums_v101l32o2b.wav
352,192,66750,1,0,0:0:0:0:b_drums_v89l32o3fp.wav
96,192,67125,1,0,0:0:0:0:b_drums_v101l32o2b.wav
160,192,67125,1,0,0:0:0:0:b_drums_v109l32o3d.wav
352,192,67125,1,0,0:0:0:0:b_drums_v89l32o3fp.wav
96,192,67500,1,0,0:0:0:0:b_drums_v101l32o2b.wav
352,192,67500,1,0,0:0:0:0:b_drums_v89l32o3fp.wav
96,192,67875,1,0,0:0:0:0:b_drums_v101l32o2b.wav
160,192,67875,1,0,0:0:0:0:b_drums_v109l32o3d.wav
352,192,67875,1,0,0:0:0:0:b_drums_v89l32o3fp.wav
96,192,68250,1,0,0:0:0:0:b_drums_v101l32o2b.wav
352,192,68250,1,0,0:0:0:0:b_drums_v89l32o3fp.wav
96,192,68625,1,0,0:0:0:0:b_drums_v101l32o2b.wav
160,192,68625,1,0,0:0:0:0:b_drums_v109l32o3d.wav
352,192,68625,1,0,0:0:0:0:b_drums_v89l32o3fp.wav
96,192,69000,1,0,0:0:0:0:b_drums_v101l32o2b.wav
352,192,69000,1,0,0:0:0:0:b_drums_v89l32o3fp.wav
96,192,69375,1,0,0:0:0:0:b_drums_v101l32o2b.wav
160,192,69375,1,0,0:0:0:0:b_drums_v109l32o3d.wav
352,192,69375,1,0,0:0:0:0:b_drums_v89l32o3fp.wav
96,192,69750,1,0,0:0:0:0:b_drums_v101l32o2b.wav
352,192,69750,1,0,0:0:0:0:b_drums_v89l32o3fp.wav
160,192,69937,1,0,0:0:0:0:b_drums_v109l32o3d.wav
32,192,69937,1,0,0:0:0:0:b_drums_v105l32o4e.wav
160,192,70125,1,0,0:0:0:0:b_drums_v109l32o3d.wav
352,192,70125,1,0,0:0:0:0:b_drums_v89l32o3fp.wav
32,192,70125,1,0,0:0:0:0:b_drums_v105l32o4e.wav
96,192,70312,1,0,0:0:0:0:b_drums_v101l32o2b.wav
160,192,70500,1,0,0:0:0:0:b_drums_v75l32o3d.wav
32,192,70500,1,0,0:0:0:0:b_drums_v105l32o4a.wav
480,192,70500,1,0,0:0:0:0:b_drums_v77l32o3gp.wav
160,192,70875,1,0,0:0:0:0:b_drums_v91l32o3d.wav
480,192,70875,1,0,0:0:0:0:b_drums_v77l32o3gp.wav
160,192,71250,1,0,0:0:0:0:b_drums_v98l32o3d.wav
480,192,71250,1,0,0:0:0:0:b_drums_v77l32o3gp.wav
96,192,71437,1,0,0:0:0:0:b_drums_v101l32o2b.wav
160,192,71625,1,0,0:0:0:0:b_drums_v106l32o3d.wav
480,192,71625,1,0,0:0:0:0:b_drums_v77l32o3gp.wav
96,192,71812,1,0,0:0:0:0:b_drums_v101l32o2b.wav
160,192,72000,1,0,0:0:0:0:b_drums_v99l32o3d.wav
480,192,72000,1,0,0:0:0:0:b_drums_v77l32o3gp.wav
160,192,72375,1,0,0:0:0:0:b_drums_v100l32o3d.wav
480,192,72375,1,0,0:0:0:0:b_drums_v77l32o3gp.wav
96,192,72562,1,0,0:0:0:0:b_drums_v101l32o2b.wav
160,192,72750,1,0,0:0:0:0:b_drums_v101l32o3d.wav
480,192,72750,1,0,0:0:0:0:b_drums_v77l32o3gp.wav
96,192,72937,1,0,0:0:0:0:b_drums_v101l32o2b.wav
160,192,73125,1,0,0:0:0:0:b_drums_v106l32o3d.wav
480,192,73125,1,0,0:0:0:0:b_drums_v77l32o3gp.wav
96,192,73312,1,0,0:0:0:0:b_drums_v101l32o2b.wav
160,192,73500,1,0,0:0:0:0:b_drums_v99l32o3d.wav
32,192,73500,1,0,0:0:0:0:b_drums_v105l32o4a.wav
480,192,73500,1,0,0:0:0:0:b_drums_v77l32o3gp.wav
160,192,73875,1,0,0:0:0:0:b_drums_v100l32o3d.wav
480,192,73875,1,0,0:0:0:0:b_drums_v77l32o3gp.wav
160,192,74250,1,0,0:0:0:0:b_drums_v101l32o3d.wav
480,192,74250,1,0,0:0:0:0:b_drums_v77l32o3gp.wav
96,192,74437,1,0,0:0:0:0:b_drums_v101l32o2b.wav
160,192,74625,1,0,0:0:0:0:b_drums_v106l32o3d.wav
480,192,74625,1,0,0:0:0:0:b_drums_v77l32o3gp.wav
96,192,74812,1,0,0:0:0:0:b_drums_v101l32o2b.wav
160,192,75000,1,0,0:0:0:0:b_drums_v109l32o3d.wav
480,192,75000,1,0,0:0:0:0:b_drums_v89l32o3gp.wav
160,192,75375,1,0,0:0:0:0:b_drums_v109l32o3d.wav
480,192,75375,1,0,0:0:0:0:b_drums_v89l32o3gp.wav
96,192,75750,1,0,0:0:0:0:b_drums_v101l32o2b.wav
160,192,75750,1,0,0:0:0:0:b_drums_v109l32o3d.wav
480,192,75750,1,0,0:0:0:0:b_drums_v89l32o3gp.wav
160,192,75937,1,0,0:0:0:0:b_drums_v60l32o3d.wav
224,192,76031,1,0,0:0:0:0:b_drums_v69l32o3e.wav
96,192,76125,1,0,0:0:0:0:b_drums_v101l32o2b.wav
160,192,76125,1,0,0:0:0:0:b_drums_v79l32o3d.wav
224,192,76218,1,0,0:0:0:0:b_drums_v89l32o3e.wav
160,192,76312,1,0,0:0:0:0:b_drums_v99l32o3d.wav
224,192,76406,1,0,0:0:0:0:b_drums_v109l32o3e.wav
96,192,76500,1,0,0:0:0:0:b_drums_v101l32o2b.wav
160,192,76500,1,0,0:0:0:0:b_drums_v109l32o3d.wav
96,192,78000,1,0,0:0:0:0:b_drums_v101l32o2b.wav
352,192,78000,1,0,0:0:0:0:b_drums_v76l32o3fp.wav
160,192,78375,1,0,0:0:0:0:b_drums_v109l32o3d.wav
352,192,78375,1,0,0:0:0:0:b_drums_v76l32o3fp.wav
96,192,78750,1,0,0:0:0:0:b_drums_v101l32o2b.wav
352,192,78750,1,0,0:0:0:0:b_drums_v76l32o3fp.wav
96,192,78937,1,0,0:0:0:0:b_drums_v101l32o2b.wav
352,192,79125,1,0,0:0:0:0:b_drums_v76l32o3fp.wav
160,192,79312,1,0,0:0:0:0:b_drums_v109l32o3d.wav
352,192,79500,1,0,0:0:0:0:b_drums_v100l32o3fp.wav
96,192,79687,1,0,0:0:0:0:b_drums_v101l32o2b.wav
160,192,79875,1,0,0:0:0:0:b_drums_v109l32o3d.wav
352,192,79875,1,0,0:0:0:0:b_drums_v100l32o3fp.wav
96,192,80250,1,0,0:0:0:0:b_drums_v101l32o2b.wav
352,192,80250,1,0,0:0:0:0:b_drums_v100l32o3fp.wav
96,192,80437,1,0,0:0:0:0:b_drums_v101l32o2b.wav
160,192,80625,1,0,0:0:0:0:b_drums_v109l32o3d.wav
352,192,80625,1,0,0:0:0:0:b_drums_v100l32o3fp.wav
96,192,81000,1,0,0:0:0:0:b_drums_v101l32o2b.wav
352,192,81000,1,0,0:0:0:0:b_drums_v100l32o3fp.wav
160,192,81375,1,0,0:0:0:0:b_drums_v109l32o3d.wav
352,192,81375,1,0,0:0:0:0:b_drums_v100l32o3fp.wav
96,192,81750,1,0,0:0:0:0:b_drums_v101l32o2b.wav
352,192,81750,1,0,0:0:0:0:b_drums_v100l32o3fp.wav
96,192,81937,1,0,0:0:0:0:b_drums_v101l32o2b.wav
352,192,82125,1,0,0:0:0:0:b_drums_v100l32o3fp.wav
160,192,82312,1,0,0:0:0:0:b_drums_v109l32o3d.wav
352,192,82500,1,0,0:0:0:0:b_drums_v100l32o3fp.wav
96,192,82687,1,0,0:0:0:0:b_drums_v101l32o2b.wav
160,192,82875,1,0,0:0:0:0:b_drums_v109l32o3d.wav
352,192,82875,1,0,0:0:0:0:b_drums_v100l32o3fp.wav
96,192,83250,1,0,0:0:0:0:b_drums_v101l32o2b.wav
352,192,83250,1,0,0:0:0:0:b_drums_v100l32o3fp.wav
96,192,83437,1,0,0:0:0:0:b_drums_v101l32o2b.wav
160,192,83625,1,0,0:0:0:0:b_drums_v109l32o3d.wav
352,192,83625,1,0,0:0:0:0:b_drums_v100l32o3fp.wav
352,192,83906,1,0,0:0:0:0:b_drums_v100l32o3fp.wav
96,192,84000,1,0,0:0:0:0:b_drums_v101l32o2b.wav
480,192,84000,1,0,0:0:0:0:b_drums_v100l32o3gp.wav
160,192,84375,1,0,0:0:0:0:b_drums_v109l32o3d.wav
352,192,84375,1,0,0:0:0:0:b_drums_v100l32o3fp.wav
96,192,84750,1,0,0:0:0:0:b_drums_v101l32o2b.wav
352,192,84750,1,0,0:0:0:0:b_drums_v100l32o3fp.wav
96,192,84937,1,0,0:0:0:0:b_drums_v101l32o2b.wav
352,192,85125,1,0,0:0:0:0:b_drums_v100l32o3fp.wav
160,192,85312,1,0,0:0:0:0:b_drums_v109l32o3d.wav
352,192,85500,1,0,0:0:0:0:b_drums_v100l32o3fp.wav
96,192,85687,1,0,0:0:0:0:b_drums_v101l32o2b.wav
160,192,85875,1,0,0:0:0:0:b_drums_v109l32o3d.wav
352,192,85875,1,0,0:0:0:0:b_drums_v100l32o3fp.wav
96,192,86250,1,0,0:0:0:0:b_drums_v101l32o2b.wav
352,192,86250,1,0,0:0:0:0:b_drums_v100l32o3fp.wav
96,192,86437,1,0,0:0:0:0:b_drums_v101l32o2b.wav
160,192,86625,1,0,0:0:0:0:b_drums_v109l32o3d.wav
352,192,86625,1,0,0:0:0:0:b_drums_v100l32o3fp.wav
96,192,87000,1,0,0:0:0:0:b_drums_v101l32o2b.wav
352,192,87000,1,0,0:0:0:0:b_drums_v100l32o3fp.wav
160,192,87375,1,0,0:0:0:0:b_drums_v109l32o3d.wav
352,192,87375,1,0,0:0:0:0:b_drums_v100l32o3fp.wav
96,192,87750,1,0,0:0:0:0:b_drums_v101l32o2b.wav
352,192,87750,1,0,0:0:0:0:b_drums_v100l32o3fp.wav
96,192,87937,1,0,0:0:0:0:b_drums_v101l32o2b.wav
352,192,88125,1,0,0:0:0:0:b_drums_v100l32o3fp.wav
160,192,88312,1,0,0:0:0:0:b_drums_v109l32o3d.wav
352,192,88500,1,0,0:0:0:0:b_drums_v100l32o3fp.wav
96,192,88687,1,0,0:0:0:0:b_drums_v101l32o2b.wav
160,192,88875,1,0,0:0:0:0:b_drums_v109l32o3d.wav
352,192,88875,1,0,0:0:0:0:b_drums_v100l32o3fp.wav
96,192,89250,1,0,0:0:0:0:b_drums_v101l32o2b.wav
352,192,89250,1,0,0:0:0:0:b_drums_v100l32o3fp.wav
96,192,89437,1,0,0:0:0:0:b_drums_v101l32o2b.wav
160,192,89625,1,0,0:0:0:0:b_drums_v109l32o3d.wav
480,192,89625,1,0,0:0:0:0:b_drums_v109l32o3gp.wav
160,192,89812,1,0,0:0:0:0:b_drums_v109l32o3d.wav
480,192,89812,1,0,0:0:0:0:b_drums_v109l32o3gp.wav
