osu file format v13

[General]
AudioFilename: instoffset.ogg
AudioLeadIn: 0
PreviewTime: 50509
Countdown: 0
SampleSet: Soft
StackLeniency: 0.3
Mode: 3
LetterboxInBreaks: 0
SpecialStyle: 0
WidescreenStoryboard: 1

[Editor]
DistanceSpacing: 1
BeatDivisor: 4
GridSize: 4
TimelineZoom: 1.4

[Metadata]
Title:Hana wa Odore ya Irohaniho (TVsize)
TitleUnicode:花ハ踊レヤいろはにほ (TVsize)
Artist:Team "Hanayamata"
ArtistUnicode:チーム"ハナヤマタ"
Creator:chonicle
Version:Piano+drum
Source:Hanayamata
Tags:
BeatmapID:496022
BeatmapSetID:206288

[Difficulty]
HPDrainRate:5
CircleSize:7
OverallDifficulty:7
ApproachRate:2
SliderMultiplier:0.9
SliderTickRate:1

[Events]
//Background and Video events
0,0,"BG.jpg",0,0
//Break Periods
//Storyboard Layer 0 (Background)
//Storyboard Layer 1 (Fail)
//Storyboard Layer 2 (Pass)
//Storyboard Layer 3 (Foreground)
//Storyboard Sound Samples
Sample,0,0,"1_0_0_C-1.ogg",70
Sample,1500,0,"1_9_1500_C7.ogg",70
Sample,2062,0,"1_9_2062_A#6.ogg",70
Sample,2250,0,"1_9_2250_C7.ogg",70
Sample,2812,0,"1_9_2812_A#6.ogg",70
Sample,3000,0,"1_9_3000_G6.ogg",70
Sample,3187,0,"1_9_3187_A#6.ogg",70
Sample,3375,0,"1_9_3375_G6.ogg",70
Sample,3562,0,"1_9_3562_F6.ogg",70
Sample,3750,0,"1_9_3750_G6.ogg",70
Sample,4500,0,"1_9_4500_F6.ogg",70
Sample,4687,0,"1_9_4687_F6.ogg",70
Sample,4875,0,"1_9_4875_F6.ogg",70
Sample,5062,0,"1_9_5062_G6.ogg",70
Sample,5250,0,"1_9_5250_A#6.ogg",70
Sample,5812,0,"1_9_5812_G6.ogg",70
Sample,6000,0,"1_9_6000_F6.ogg",70
Sample,6187,0,"1_9_6187_G6.ogg",70
Sample,6375,0,"1_9_6375_F6.ogg",70
Sample,6562,0,"1_9_6562_D#6.ogg",70
Sample,6750,0,"1_9_6750_C6.ogg",70
Sample,7125,0,"b_ch5_bass_v44l32_7o3f.wav",70
Sample,7500,0,"b_ch2_piano_00005_apapfgpcp.wav",70
Sample,7500,0,"b_ch5_bass_v77l32_7o3ap.wav",70
Sample,7875,0,"b_ch5_bass_v77l32_3o3ap.wav",70
Sample,7875,0,"b_drums_v27l32o3gp.wav",70
Sample,8062,0,"b_drums_v27l32o3gp.wav",70
Sample,8062,0,"b_ch5_bass_v77l32_3o3ap.wav",70
Sample,8250,0,"b_ch5_bass_v77l32_3o3ap.wav",70
Sample,8250,0,"b_drums_v27l32o3gp.wav",70
Sample,8437,0,"b_drums_v27l32o3gp.wav",70
Sample,8437,0,"b_ch5_bass_v77l32_3o3ap.wav",70
Sample,8625,0,"b_ch5_bass_v77l32_3o3ap.wav",70
Sample,8625,0,"b_drums_v33l32o3gp.wav",70
Sample,8812,0,"b_drums_v32l32o3gp.wav",70
Sample,8812,0,"b_ch5_bass_v77l32_3o3ap.wav",70
Sample,9000,0,"b_drums_v39l32o3gp.wav",70
Sample,9000,0,"b_ch5_bass_v77l32_3o4c.wav",70
Sample,9000,0,"b_ch2_piano_00006_ccgapdp.wav",70
Sample,9187,0,"b_ch5_bass_v77l32_3o4c.wav",70
Sample,9187,0,"b_drums_v45l32o3gp.wav",70
Sample,9375,0,"b_drums_v44l32o3gp.wav",70
Sample,9375,0,"b_ch5_bass_v77l32_3o4c.wav",70
Sample,9562,0,"b_ch5_bass_v77l32_3o4c.wav",70
Sample,9562,0,"b_drums_v50l32o3gp.wav",70
Sample,9750,0,"b_drums_v56l32o3gp.wav",70
Sample,9750,0,"b_ch5_bass_v77l32_3o4c.wav",70
Sample,9750,0,"b_ch2_piano_00007_apdpgap.wav",70
Sample,9937,0,"b_drums_v56l32o3gp.wav",70
Sample,9937,0,"b_ch5_bass_v77l32_3o4c.wav",70
Sample,10125,0,"b_ch5_bass_v77l32_3o4c.wav",70
Sample,10125,0,"b_drums_v56l32o3gp.wav",70
Sample,10312,0,"b_drums_v56l32o3gp.wav",70
Sample,10312,0,"b_ch5_bass_v77l32_3o4c.wav",70
Sample,10500,0,"b_ch5_bass_v47l32_3o4cp.wav",70
Sample,10500,0,"b_ch2_piano_00008_cpcpgpcfgp.wav",70
Sample,10500,0,"b_drums_v56l32o3gp.wav",70
Sample,10687,0,"b_drums_v48l32o3gp.wav",70
Sample,10687,0,"b_ch5_bass_v47l32_3o4cp.wav",70
Sample,10875,0,"b_ch5_bass_v47l32_3o4cp.wav",70
Sample,10875,0,"b_drums_v48l32o3gp.wav",70
Sample,11062,0,"b_drums_v48l32o3gp.wav",70
Sample,11062,0,"b_ch5_bass_v47l32_3o4cp.wav",70
Sample,11250,0,"b_ch5_bass_v47l32_3o4cp.wav",70
Sample,11250,0,"b_drums_v48l32o3gp.wav",70
Sample,11437,0,"b_drums_v48l32o3gp.wav",70
Sample,11437,0,"b_ch5_bass_v47l32_3o4cp.wav",70
Sample,11625,0,"b_ch5_bass_v47l32_3o4cp.wav",70
Sample,11625,0,"b_drums_v48l32o3gp.wav",70
Sample,11812,0,"b_drums_v48l32o3gp.wav",70
Sample,11812,0,"b_ch5_bass_v47l32_3o4cp.wav",70
Sample,12000,0,"b_drums_v48l32o3gp.wav",70
Sample,12000,0,"b_ch5_bass_v42l32_3o4dp.wav",70
Sample,12187,0,"b_ch5_bass_v42l32_3o4dp.wav",70
Sample,12187,0,"b_drums_v48l32o3gp.wav",70
Sample,12375,0,"b_ch5_bass_v42l8o4dp.wav",70
Sample,12750,0,"b_drums_v87l32o3gp.wav",70
Sample,12750,0,"b_ch5_bass_v42l32_3o4dp.wav",70
Sample,13312,0,"1_9_13312_C6.ogg",70
Sample,13500,0,"b_ch5_bass_v80l32_3o4cp.wav",70
Sample,13500,0,"1_9_13500_F6.ogg",70
Sample,13500,0,"b_drums_v100l32o3fp.wav",70
Sample,13687,0,"b_drums_v58l32o3fp.wav",70
Sample,13687,0,"b_ch5_bass_v80l32_3o4cp.wav",70
Sample,13875,0,"b_ch5_bass_v80l32_3o4cp.wav",70
Sample,13875,0,"b_drums_v100l32o3fp.wav",70
Sample,14062,0,"b_ch5_bass_v80l32_3o4cp.wav",70
Sample,14062,0,"b_drums_v58l32o3fp.wav",70
Sample,14062,0,"1_9_14062_D#6.ogg",70
Sample,14250,0,"1_9_14250_D#6.ogg",70
Sample,14250,0,"b_ch5_bass_v80l32_3o4cp.wav",70
Sample,14250,0,"b_drums_v100l32o3fp.wav",70
Sample,14437,0,"b_drums_v58l32o3fp.wav",70
Sample,14437,0,"b_ch5_bass_v80l32_3o4cp.wav",70
Sample,14625,0,"b_ch5_bass_v80l32_3o4cp.wav",70
Sample,14625,0,"b_drums_v100l32o3fp.wav",70
Sample,14812,0,"b_ch5_bass_v80l32_3o4cp.wav",70
Sample,14812,0,"b_drums_v58l32o3fp.wav",70
Sample,14812,0,"1_9_14812_C6.ogg",70
Sample,15000,0,"b_ch5_bass_v80l32_3o4cp.wav",70
Sample,15000,0,"b_drums_v100l32o3fp.wav",70
Sample,15000,0,"1_9_15000_F6.ogg",70
Sample,15187,0,"b_ch5_bass_v80l32_3o4cp.wav",70
Sample,15187,0,"b_drums_v58l32o3fp.wav",70
Sample,15375,0,"b_drums_v100l32o3fp.wav",70
Sample,15375,0,"b_ch5_bass_v80l32_3o4cp.wav",70
Sample,15562,0,"b_drums_v58l32o3fp.wav",70
Sample,15562,0,"1_9_15562_D#6.ogg",70
Sample,15562,0,"b_ch5_bass_v80l32_3o4cp.wav",70
Sample,15750,0,"1_9_15750_D#6.ogg",70
Sample,15750,0,"b_drums_v100l32o3fp.wav",70
Sample,15750,0,"b_ch5_bass_v80l32_3o4cp.wav",70
Sample,15937,0,"b_ch5_bass_v80l32_3o4cp.wav",70
Sample,15937,0,"b_drums_v58l32o3fp.wav",70
Sample,16125,0,"b_drums_v100l32o3fp.wav",70
Sample,16125,0,"b_ch5_bass_v80l32_3o4cp.wav",70
Sample,16312,0,"b_drums_v58l32o3fp.wav",70
Sample,16312,0,"b_ch5_bass_v80l32_3o4cp.wav",70
Sample,16312,0,"1_9_16312_D#6.ogg",70
Sample,16406,0,"1_9_16406_F6.ogg",70
Sample,16500,0,"1_9_16500_G6.ogg",70
Sample,16500,0,"b_drums_v100l32o3fp.wav",70
Sample,16500,0,"b_ch5_bass_v80l32_3o4c.wav",70
Sample,16687,0,"b_drums_v55l32o3fp.wav",70
Sample,16687,0,"b_ch5_bass_v80l32_3o4c.wav",70
Sample,16875,0,"b_ch5_bass_v80l32_3o4c.wav",70
Sample,16875,0,"b_drums_v100l32o3fp.wav",70
Sample,16875,0,"1_9_16875_G6.ogg",70
Sample,17062,0,"b_drums_v55l32o3fp.wav",70
Sample,17062,0,"b_ch5_bass_v80l32_3o4c.wav",70
Sample,17062,0,"1_9_17062_G6.ogg",70
Sample,17250,0,"b_ch5_bass_v80l32_3o4c.wav",70
Sample,17250,0,"b_drums_v100l32o3fp.wav",70
Sample,17437,0,"1_9_17437_G#6.ogg",70
Sample,17437,0,"b_ch5_bass_v80l32_3o4c.wav",70
Sample,17437,0,"b_drums_v55l32o3fp.wav",70
Sample,17625,0,"1_9_17624_G6.ogg",70
Sample,17625,0,"b_drums_v100l32o3fp.wav",70
Sample,17625,0,"b_ch5_bass_v80l32_3o4c.wav",70
Sample,17812,0,"1_9_17812_D#6.ogg",70
Sample,17812,0,"b_ch5_bass_v80l32_3o4c.wav",70
Sample,17812,0,"b_drums_v55l32o3fp.wav",70
Sample,18000,0,"b_ch5_bass_v80l32_3o4c.wav",70
Sample,18000,0,"b_drums_v100l32o3fp.wav",70
Sample,18187,0,"b_drums_v55l32o3fp.wav",70
Sample,18187,0,"b_ch5_bass_v80l32_3o4c.wav",70
Sample,18375,0,"b_ch5_bass_v80l32_3o4c.wav",70
Sample,18375,0,"b_drums_v100l32o3fp.wav",70
Sample,18562,0,"b_drums_v55l32o3fp.wav",70
Sample,18562,0,"b_ch5_bass_v80l32_3o4c.wav",70
Sample,18750,0,"b_ch5_bass_v80l32_3o4c.wav",70
Sample,18750,0,"b_drums_v100l32o3fp.wav",70
Sample,18937,0,"b_drums_v55l32o3fp.wav",70
Sample,18937,0,"b_ch5_bass_v80l32_3o4c.wav",70
Sample,19125,0,"b_ch5_bass_v80l32_3o4c.wav",70
Sample,19125,0,"b_drums_v100l32o3fp.wav",70
Sample,19312,0,"b_ch5_bass_v80l32_3o4c.wav",70
Sample,19312,0,"b_drums_v55l32o3fp.wav",70
Sample,19312,0,"1_9_19312_A#5.ogg",70
Sample,19500,0,"b_ch5_bass_v80l32_3o3b.wav",70
Sample,19500,0,"1_9_19500_F6.ogg",70
Sample,19500,0,"b_drums_v100l32o3fp.wav",70
Sample,19687,0,"b_drums_v55l32o3fp.wav",70
Sample,19687,0,"b_ch5_bass_v80l32_3o3b.wav",70
Sample,19875,0,"b_ch5_bass_v80l32_3o3b.wav",70
Sample,19875,0,"b_drums_v100l32o3fp.wav",70
Sample,20062,0,"1_9_20062_D#6.ogg",70
Sample,20062,0,"b_drums_v55l32o3fp.wav",70
Sample,20062,0,"b_ch5_bass_v80l32_3o3b.wav",70
Sample,20250,0,"b_ch5_bass_v80l32_3o3b.wav",70
Sample,20250,0,"1_9_20250_D#6.ogg",70
Sample,20250,0,"b_drums_v100l32o3fp.wav",70
Sample,20437,0,"b_drums_v55l32o3fp.wav",70
Sample,20437,0,"b_ch5_bass_v80l32_3o3b.wav",70
Sample,20625,0,"b_ch5_bass_v80l32_3o3b.wav",70
Sample,20625,0,"b_drums_v100l32o3fp.wav",70
Sample,20812,0,"b_ch5_bass_v80l32_3o3b.wav",70
Sample,20812,0,"b_drums_v55l32o3fp.wav",70
Sample,20812,0,"1_9_20812_A#5.ogg",70
Sample,21000,0,"b_ch5_bass_v80l32_3o3b.wav",70
Sample,21000,0,"b_drums_v100l32o3fp.wav",70
Sample,21000,0,"1_9_21000_F6.ogg",70
Sample,21187,0,"b_ch5_bass_v80l32_3o3b.wav",70
Sample,21187,0,"b_drums_v55l32o3fp.wav",70
Sample,21375,0,"b_drums_v100l32o3fp.wav",70
Sample,21375,0,"b_ch5_bass_v80l32_3o3b.wav",70
Sample,21562,0,"b_drums_v55l32o3fp.wav",70
Sample,21562,0,"b_ch5_bass_v80l32_3o3b.wav",70
Sample,21562,0,"1_9_21562_D#6.ogg",70
Sample,21750,0,"1_9_21750_D#6.ogg",70
Sample,21750,0,"b_drums_v100l32o3fp.wav",70
Sample,21750,0,"b_ch5_bass_v80l32_3o3b.wav",70
Sample,21937,0,"b_ch5_bass_v80l32_3o3b.wav",70
Sample,21937,0,"b_drums_v55l32o3fp.wav",70
Sample,22125,0,"b_drums_v100l32o3fp.wav",70
Sample,22125,0,"b_ch5_bass_v80l32_3o3b.wav",70
Sample,22312,0,"b_drums_v55l32o3fp.wav",70
Sample,22312,0,"b_ch5_bass_v80l32_3o3b.wav",70
Sample,22312,0,"1_9_22312_D#6.ogg",70
Sample,22406,0,"1_9_22406_F6.ogg",70
Sample,22500,0,"1_9_22500_G6.ogg",70
Sample,22500,0,"b_drums_v100l32o3fp.wav",70
Sample,22500,0,"b_ch5_bass_v80l32_3o3ap.wav",70
Sample,22687,0,"b_drums_v55l32o3fp.wav",70
Sample,22687,0,"b_ch5_bass_v80l32_3o3ap.wav",70
Sample,22875,0,"b_ch5_bass_v80l32_3o3ap.wav",70
Sample,22875,0,"b_drums_v100l32o3fp.wav",70
Sample,22875,0,"1_9_22875_G6.ogg",70
Sample,23062,0,"b_drums_v55l32o3fp.wav",70
Sample,23062,0,"1_9_23062_G6.ogg",70
Sample,23062,0,"b_ch5_bass_v80l32_3o3ap.wav",70
Sample,23250,0,"b_ch5_bass_v80l32_3o3ap.wav",70
Sample,23250,0,"b_drums_v100l32o3fp.wav",70
Sample,23437,0,"1_9_23437_G#6.ogg",70
Sample,23437,0,"b_ch5_bass_v80l32_3o3ap.wav",70
Sample,23437,0,"b_drums_v55l32o3fp.wav",70
Sample,23625,0,"1_9_23624_A#6.ogg",70
Sample,23625,0,"b_drums_v100l32o3fp.wav",70
Sample,23625,0,"b_ch5_bass_v80l32_3o3ap.wav",70
Sample,23812,0,"1_9_23812_F6.ogg",70
Sample,23812,0,"b_ch5_bass_v80l32_3o3ap.wav",70
Sample,23812,0,"b_drums_v55l32o3fp.wav",70
Sample,24000,0,"b_drums_v100l32o3fp.wav",70
Sample,24000,0,"b_ch5_bass_v80l32_3o3dp.wav",70
Sample,24187,0,"b_ch5_bass_v80l32_3o3dp.wav",70
Sample,24187,0,"b_drums_v55l32o3fp.wav",70
Sample,24375,0,"b_drums_v100l32o3fp.wav",70
Sample,24375,0,"b_ch5_bass_v80l32_3o3dp.wav",70
Sample,24562,0,"b_ch5_bass_v80l32_3o3dp.wav",70
Sample,24562,0,"b_drums_v55l32o3fp.wav",70
Sample,24750,0,"b_ch5_bass_v80l32_3o3dp.wav",70
Sample,24750,0,"b_drums_v100l32o3fp.wav",70
Sample,24750,0,"1_9_24750_D#6.ogg",70
Sample,24937,0,"b_ch5_bass_v80l32_3o3dp.wav",70
Sample,24937,0,"1_9_24937_F6.ogg",70
Sample,24937,0,"b_drums_v55l32o3fp.wav",70
Sample,25125,0,"b_ch5_bass_v80l32_3o3dp.wav",70
Sample,25125,0,"1_9_25124_G6.ogg",70
Sample,25312,0,"1_9_25312_G#6.ogg",70
Sample,25312,0,"b_ch5_bass_v80l32_3o3dp.wav",70
Sample,25500,0,"b_ch5_bass_v90l32_3o3g.wav",70
Sample,25500,0,"b_drums_v100l32o2b.wav",70
Sample,25500,0,"b_ch2_piano_00020_ggdgapd.wav",70
Sample,25500,0,"b_drums_v95l32o3fp.wav",70
Sample,25687,0,"b_ch5_bass_v90l32_3o3g.wav",70
Sample,25875,0,"b_ch5_bass_v90l32_3o3g.wav",70
Sample,25875,0,"b_drums_v95l32o3fp.wav",70
Sample,26062,0,"b_ch5_bass_v90l32_3o3g.wav",70
Sample,26250,0,"b_drums_v95l32o3fp.wav",70
Sample,26250,0,"b_ch5_bass_v90l32_3o3g.wav",70
Sample,26250,0,"b_ch2_piano_00021_dfap.wav",70
Sample,26437,0,"b_ch5_bass_v90l32_3o3g.wav",70
Sample,26625,0,"b_ch5_bass_v90l32_3o3ap.wav",70
Sample,26812,0,"b_ch5_bass_v90l32_3o3b.wav",70
Sample,27000,0,"b_ch2_piano_00022_ccgapcpe.wav",70
Sample,27000,0,"b_drums_v95l32o3fp.wav",70
Sample,27000,0,"b_ch5_bass_v90l32_3o4c.wav",70
Sample,27187,0,"b_ch5_bass_v90l32_3o4c.wav",70
Sample,27375,0,"b_ch5_bass_v90l32_3o4c.wav",70
Sample,27375,0,"b_drums_v95l32o3fp.wav",70
Sample,27562,0,"b_ch5_bass_v90l32_3o4c.wav",70
Sample,27750,0,"b_drums_v95l32o3fp.wav",70
Sample,27750,0,"b_ch2_piano_00023_apcpeg.wav",70
Sample,27750,0,"b_ch5_bass_v90l32_3o4c.wav",70
Sample,27750,0,"1_9_27750_E6.ogg",70
Sample,27937,0,"1_9_27937_F6.ogg",70
Sample,27937,0,"b_ch5_bass_v90l32_3o4c.wav",70
Sample,28125,0,"b_ch5_bass_v90l32_3o4c.wav",70
Sample,28125,0,"1_9_28124_G6.ogg",70
Sample,28312,0,"1_9_28312_C6.ogg",70
Sample,28312,0,"b_ch5_bass_v90l32_3o3g.wav",70
Sample,28500,0,"b_ch5_bass_v90l32_3o3f.wav",70
Sample,28500,0,"b_drums_v95l32o3fp.wav",70
Sample,28500,0,"1_9_28500_A#6.ogg",70
Sample,28687,0,"b_ch5_bass_v90l32_3o3f.wav",70
Sample,28875,0,"1_9_28875_G#6.ogg",70
Sample,28875,0,"b_ch5_bass_v90l32_3o3f.wav",70
Sample,28875,0,"b_drums_v95l32o3fp.wav",70
Sample,29062,0,"1_9_29062_G#6.ogg",70
Sample,29062,0,"b_ch5_bass_v90l32_3o3f.wav",70
Sample,29250,0,"b_drums_v95l32o3fp.wav",70
Sample,29250,0,"b_ch5_bass_v90l32_3o4f.wav",70
Sample,29437,0,"1_9_29437_G6.ogg",70
Sample,29437,0,"b_ch5_bass_v90l32_3o3f.wav",70
Sample,29625,0,"b_ch5_bass_v94l32_3o4gp.wav",70
Sample,29625,0,"b_drums_v95l32o3fp.wav",70
Sample,29812,0,"1_9_29812_F6.ogg",70
Sample,29812,0,"b_ch5_bass_v99l32_3o4ap.wav",70
Sample,30000,0,"b_drums_v95l32o3fp.wav",70
Sample,30000,0,"b_ch5_bass_v98l32_3o4b.wav",70
Sample,30187,0,"b_ch5_bass_v98l32_3o4b.wav",70
Sample,30375,0,"b_drums_v95l32o3fp.wav",70
Sample,30375,0,"b_ch5_bass_v98l32_3o4b.wav",70
Sample,30562,0,"b_ch5_bass_v90l32_3o4f.wav",70
Sample,30750,0,"b_ch5_bass_v90l32_3o4f.wav",70
Sample,30750,0,"b_drums_v95l32o3fp.wav",70
Sample,30750,0,"1_9_30750_F6.ogg",70
Sample,30937,0,"1_9_30937_G6.ogg",70
Sample,30937,0,"b_ch5_bass_v90l32_3o4f.wav",70
Sample,31125,0,"1_9_31124_F6.ogg",70
Sample,31125,0,"b_ch5_bass_v90l32_3o3b.wav",70
Sample,31312,0,"1_9_31312_D#6.ogg",70
Sample,31312,0,"b_ch5_bass_v90l32_3o3b.wav",70
Sample,31500,0,"b_ch5_bass_v90l32_3o4dp.wav",70
Sample,31500,0,"b_drums_v95l32o3fp.wav",70
Sample,31500,0,"1_9_31500_A#5.ogg",70
Sample,31687,0,"b_ch5_bass_v90l32_3o4dp.wav",70
Sample,31875,0,"b_ch5_bass_v90l32_3o4dp.wav",70
Sample,32062,0,"1_9_32062_G6.ogg",70
Sample,32062,0,"b_ch5_bass_v90l32_3o4dp.wav",70
Sample,32250,0,"b_drums_v95l32o3fp.wav",70
Sample,32250,0,"1_9_32250_G6.ogg",70
Sample,32250,0,"b_ch5_bass_v90l32_3o4dp.wav",70
Sample,32437,0,"b_ch5_bass_v90l32_3o4dp.wav",70
Sample,32625,0,"b_ch5_bass_v90l32_3o4dp.wav",70
Sample,32812,0,"b_ch5_bass_v90l32_3o4dp.wav",70
Sample,33000,0,"b_drums_v95l32o3fp.wav",70
Sample,33000,0,"1_14_33000_B5.ogg",70
Sample,33000,0,"b_ch5_bass_v90l32_3o4dp.wav",70
Sample,33187,0,"b_ch5_bass_v90l32_3o4dp.wav",70
Sample,33375,0,"b_drums_v95l32o3fp.wav",70
Sample,33375,0,"b_ch5_bass_v90l32_3o4dp.wav",70
Sample,33562,0,"b_ch5_bass_v90l32_3o4dp.wav",70
Sample,33562,0,"1_14_33562_G6.ogg",70
Sample,33750,0,"b_drums_v95l32o3fp.wav",70
Sample,33750,0,"1_14_33750_G6.ogg",70
Sample,33750,0,"b_ch5_bass_v90l32_3o4dp.wav",70
Sample,33937,0,"b_ch5_bass_v90l32_3o4dp.wav",70
Sample,34125,0,"b_ch5_bass_v90l32_3o4dp.wav",70
Sample,34312,0,"b_ch5_bass_v90l32_3o4dp.wav",70
Sample,34500,0,"b_drums_v95l32o3fp.wav",70
Sample,34500,0,"1_9_34500_C6.ogg",70
Sample,34500,0,"b_ch5_bass_v90l32_3o4dp.wav",70
Sample,34687,0,"b_ch5_bass_v90l32_3o4dp.wav",70
Sample,34875,0,"b_drums_v95l32o3fp.wav",70
Sample,34875,0,"b_ch5_bass_v90l32_3o4dp.wav",70
Sample,35062,0,"b_ch5_bass_v90l32_3o4dp.wav",70
Sample,35062,0,"1_9_35062_G6.ogg",70
Sample,35250,0,"b_drums_v95l32o3fp.wav",70
Sample,35250,0,"1_9_35250_G6.ogg",70
Sample,35250,0,"b_ch5_bass_v90l32_3o4dp.wav",70
Sample,35437,0,"b_ch5_bass_v90l32_3o4dp.wav",70
Sample,35625,0,"b_ch5_bass_v90l32_3o4dp.wav",70
Sample,35812,0,"b_ch5_bass_v90l32_3o4dp.wav",70
Sample,36000,0,"b_ch5_bass_v90l16o4dp.wav",70
Sample,36000,0,"b_ch2_piano_00029_dpdp.wav",70
Sample,36187,0,"b_ch5_bass_v90l16o4dp.wav",70
Sample,36375,0,"b_ch5_bass_v90l32_3o3ap.wav",70
Sample,36562,0,"1_9_36562_D#6.ogg",70
Sample,36562,0,"b_ch5_bass_v90l32_3o4dp.wav",70
Sample,36750,0,"b_drums_v100l32o2b.wav",70
Sample,36750,0,"b_drums_v77l32o3d.wav",70
Sample,36750,0,"b_drums_v95l32o3ap.wav",70
Sample,36750,0,"b_ch5_bass_v89l32_13o4e.wav",70
Sample,36750,0,"1_9_36750_C7.ogg",70
Sample,36843,0,"b_drums_v81l32o3e.wav",70
Sample,36937,0,"1_9_36937_A#6.ogg",70
Sample,36937,0,"b_drums_v86l32o3d.wav",70
Sample,37031,0,"b_drums_v90l32o3e.wav",70
Sample,37125,0,"1_9_37124_G6.ogg",70
Sample,37125,0,"b_drums_v94l32o3d.wav",70
Sample,37218,0,"b_drums_v98l32o3e.wav",70
Sample,37312,0,"1_9_37312_A#6.ogg",70
Sample,37312,0,"b_drums_v102l32o3d.wav",70
Sample,37406,0,"b_drums_v107l32o3e.wav",70
Sample,37500,0,"1_9_37500_C7.ogg",70
Sample,37500,0,"b_drums_v95l32o3fp.wav",70
Sample,37500,0,"b_ch5_bass_v81l32_3o4cp.wav",70
Sample,37757,0,"b_ch5_bass_v81l32_3o4cp.wav",70
Sample,37875,0,"b_drums_v95l32o3fp.wav",70
Sample,37875,0,"b_drums_v100l32o2b.wav",70
Sample,38062,0,"b_ch5_bass_v81l16o4cp.wav",70
Sample,38250,0,"b_ch5_bass_v81l8o4cp.wav",70
Sample,38250,0,"b_drums_v95l32o3fp.wav",70
Sample,38250,0,"b_drums_v100l32o2b.wav",70
Sample,38625,0,"b_drums_v100l32o2b.wav",70
Sample,38625,0,"b_ch5_bass_v81l32_7o4c.wav",70
Sample,38625,0,"b_drums_v95l32o3fp.wav",70
Sample,39000,0,"b_drums_v95l32o3fp.wav",70
Sample,39000,0,"b_ch5_bass_v81l32_3o4cp.wav",70
Sample,39187,0,"1_9_39187_D#6.ogg",70
Sample,39375,0,"b_drums_v95l32o3fp.wav",70
Sample,39375,0,"1_9_39375_D#6.ogg",70
Sample,39562,0,"1_9_39562_D#6.ogg",70
Sample,39750,0,"b_drums_v95l32o3fp.wav",70
Sample,39750,0,"1_9_39750_D#6.ogg",70
Sample,39937,0,"1_9_39937_A#5.ogg",70
Sample,40125,0,"b_drums_v95l32o3fp.wav",70
Sample,40125,0,"1_9_40124_F6.ogg",70
Sample,40312,0,"1_9_40312_G6.ogg",70
Sample,40500,0,"b_drums_v95l32o3fp.wav",70
Sample,40500,0,"b_ch5_bass_v81l32_3o4c.wav",70
Sample,40757,0,"b_ch5_bass_v81l32_3o4c.wav",70
Sample,40875,0,"b_drums_v95l32o3fp.wav",70
Sample,40875,0,"b_drums_v100l32o2b.wav",70
Sample,41062,0,"b_ch5_bass_v81l16o4c.wav",70
Sample,41250,0,"b_drums_v100l32o2b.wav",70
Sample,41250,0,"b_drums_v95l32o3fp.wav",70
Sample,41250,0,"b_ch5_bass_v81l8o4c.wav",70
Sample,41625,0,"b_ch5_bass_v81l32_7o3b.wav",70
Sample,41625,0,"b_drums_v100l32o2b.wav",70
Sample,41625,0,"b_drums_v95l32o3fp.wav",70
Sample,41812,0,"b_drums_v61l32o3fp.wav",70
Sample,42000,0,"b_ch5_bass_v81l32_3o4c.wav",70
Sample,42000,0,"b_drums_v95l32o3fp.wav",70
Sample,42187,0,"1_9_42187_A#6.ogg",70
Sample,42375,0,"1_9_42375_A#6.ogg",70
Sample,42375,0,"b_drums_v95l32o3fp.wav",70
Sample,42562,0,"1_9_42562_A#6.ogg",70
Sample,42750,0,"b_drums_v95l32o3fp.wav",70
Sample,42750,0,"1_9_42750_A#6.ogg",70
Sample,42750,0,"b_ch5_bass_v84l16_3o4c.wav",70
Sample,42750,0,"b_drums_v100l32o2b.wav",70
Sample,42937,0,"1_9_42937_D#6.ogg",70
Sample,43125,0,"b_ch5_bass_v84l32_7o3b.wav",70
Sample,43125,0,"b_drums_v100l32o2b.wav",70
Sample,43125,0,"1_9_43124_D#6.ogg",70
Sample,43125,0,"b_drums_v95l32o3fp.wav",70
Sample,43500,0,"1_9_43500_C#6.ogg",70
Sample,43500,0,"1_3_49500_A#3.wav",70
Sample,43500,0,"b_ch5_bass_v90l32_3o3ap.wav",70
Sample,43500,0,"b_drums_v95l32o3gp.wav",70
Sample,43687,0,"b_ch5_bass_v90l32_3o3ap.wav",70
Sample,43875,0,"b_ch5_bass_v90l32_3o3ap.wav",70
Sample,43875,0,"b_drums_v95l32o3gp.wav",70
Sample,44062,0,"1_9_44062_G#6.ogg",70
Sample,44062,0,"b_ch5_bass_v90l32_3o3ap.wav",70
Sample,44250,0,"1_9_44250_G#6.ogg",70
Sample,44250,0,"b_ch5_bass_v90l32_3o3ap.wav",70
Sample,44250,0,"b_drums_v95l32o3gp.wav",70
Sample,44437,0,"b_ch5_bass_v90l32_3o3ap.wav",70
Sample,44625,0,"b_ch5_bass_v90l32_3o3ap.wav",70
Sample,44625,0,"b_drums_v95l32o3gp.wav",70
Sample,44812,0,"1_9_44812_C#6.ogg",70
Sample,44812,0,"b_ch5_bass_v90l32_3o3b.wav",70
Sample,45000,0,"b_drums_v95l32o3gp.wav",70
Sample,45000,0,"b_ch5_bass_v90l32_3o4c.wav",70
Sample,45000,0,"1_3_51000_C4.wav",70
Sample,45000,0,"1_9_45000_D#6.ogg",70
Sample,45187,0,"b_ch5_bass_v90l32_3o4c.wav",70
Sample,45375,0,"b_ch5_bass_v90l32_3o4c.wav",70
Sample,45375,0,"b_drums_v95l32o3gp.wav",70
Sample,45562,0,"1_9_45562_A#6.ogg",70
Sample,45562,0,"b_ch5_bass_v90l32_3o4c.wav",70
Sample,45750,0,"b_ch5_bass_v90l32_3o4c.wav",70
Sample,45750,0,"b_drums_v95l32o3gp.wav",70
Sample,45750,0,"1_9_45750_A#6.ogg",70
Sample,45937,0,"b_ch5_bass_v90l32_3o3fp.wav",70
Sample,46125,0,"b_ch5_bass_v90l32_3o4c.wav",70
Sample,46125,0,"b_drums_v95l32o3gp.wav",70
Sample,46312,0,"1_9_46312_D#6.ogg",70
Sample,46312,0,"b_ch5_bass_v90l32_3o4dp.wav",70
Sample,46500,0,"1_3_52500_C#4.wav",70
Sample,46500,0,"1_9_46500_F6.ogg",70
Sample,46500,0,"b_drums_v95l32o3gp.wav",70
Sample,46500,0,"b_ch5_bass_v90l32_3o4cp.wav",70
Sample,46687,0,"b_ch5_bass_v90l32_3o4cp.wav",70
Sample,46875,0,"b_drums_v95l32o3gp.wav",70
Sample,46875,0,"b_ch5_bass_v90l32_3o4cp.wav",70
Sample,47062,0,"b_ch5_bass_v90l32_3o4cp.wav",70
Sample,47062,0,"1_9_47062_C7.ogg",70
Sample,47250,0,"1_9_47250_C7.ogg",70
Sample,47250,0,"b_drums_v95l32o3gp.wav",70
Sample,47250,0,"b_ch5_bass_v90l32_3o4cp.wav",70
Sample,47437,0,"b_ch5_bass_v90l32_3o4cp.wav",70
Sample,47625,0,"b_drums_v95l32o3gp.wav",70
Sample,47625,0,"b_ch5_bass_v90l32_3o4cp.wav",70
Sample,47812,0,"b_ch5_bass_v90l32_3o4cp.wav",70
Sample,48000,0,"b_drums_v95l32o3gp.wav",70
Sample,48000,0,"1_3_54000_D4.wav",70
Sample,48000,0,"b_ch5_bass_v90l32_3o4d.wav",70
Sample,48187,0,"b_ch5_bass_v90l32_3o4d.wav",70
Sample,48375,0,"b_drums_v95l32o3gp.wav",70
Sample,48375,0,"b_ch5_bass_v90l32_3o4d.wav",70
Sample,48562,0,"1_9_48562_F6.ogg",70
Sample,48750,0,"b_ch5_bass_v90l32_3o3gp.wav",70
Sample,48750,0,"1_9_48750_F6.ogg",70
Sample,48750,0,"b_drums_v95l32o3gp.wav",70
Sample,48937,0,"1_9_48937_G6.ogg",70
Sample,48937,0,"b_ch5_bass_v90l32_3o3gp.wav",70
Sample,49125,0,"b_ch5_bass_v90l32_3o3gp.wav",70
Sample,49125,0,"b_drums_v95l32o3gp.wav",70
Sample,49125,0,"1_9_49124_G#6.ogg",70
Sample,49312,0,"1_9_49312_F6.ogg",70
Sample,49312,0,"b_ch5_bass_v90l32_3o3dp.wav",70
Sample,49500,0,"1_9_49500_C7.ogg",70
Sample,49500,0,"b_ch5_bass_v74l32_3o3dp.wav",70
Sample,49500,0,"b_drums_v95l32o3gp.wav",70
Sample,49875,0,"b_drums_v95l32o3gp.wav",70
Sample,49875,0,"b_ch5_bass_v74l32_3o3dp.wav",70
Sample,50062,0,"1_9_50062_A#6.ogg",70
Sample,50250,0,"b_ch5_bass_v74l32_3o3dp.wav",70
Sample,50250,0,"1_9_50250_A#6.ogg",70
Sample,50250,0,"b_drums_v95l32o3gp.wav",70
Sample,50625,0,"b_drums_v95l32o3gp.wav",70
Sample,50625,0,"b_ch5_bass_v90l32_3o3g.wav",70
Sample,50812,0,"b_ch5_bass_v90l16o3ap.wav",70
Sample,51000,0,"b_ch5_bass_v75l32_3o4dp.wav",70
Sample,51562,0,"1_9_51562_D#6.ogg",70
Sample,51750,0,"1_9_51750_D#6.ogg",70
Sample,51937,0,"1_9_51937_F6.ogg",70
Sample,52125,0,"1_9_52124_G6.ogg",70
Sample,52312,0,"1_9_52312_A#6.ogg",70
Sample,52500,0,"b_ch5_bass_v90l32_3o3gp.wav",70
Sample,52500,0,"1_9_52500_C7.ogg",70
Sample,52500,0,"b_drums_v89l32o3fp.wav",70
Sample,52687,0,"b_ch5_bass_v90l32_3o3gp.wav",70
Sample,52875,0,"b_drums_v89l32o3fp.wav",70
Sample,52875,0,"b_ch5_bass_v90l16o3gp.wav",70
Sample,52875,0,"b_drums_v101l32o2b.wav",70
Sample,52875,0,"b_drums_v109l32o4b.wav",70
Sample,53062,0,"b_ch5_bass_v90l32_3o3gp.wav",70
Sample,53062,0,"1_9_53062_A#6.ogg",70
Sample,53250,0,"1_9_53250_C7.ogg",70
Sample,53250,0,"b_ch5_bass_v90l32_3o3gp.wav",70
Sample,53250,0,"b_drums_v89l32o3fp.wav",70
Sample,53437,0,"b_ch5_bass_v90l32_3o3gp.wav",70
Sample,53625,0,"b_drums_v89l32o3fp.wav",70
Sample,53625,0,"b_drums_v101l32o2b.wav",70
Sample,53625,0,"b_drums_v109l32o4b.wav",70
Sample,53625,0,"b_ch5_bass_v90l16o3gp.wav",70
Sample,53812,0,"1_9_53812_A#6.ogg",70
Sample,53812,0,"b_ch5_bass_v90l32_3o4dp.wav",70
Sample,54000,0,"b_ch5_bass_v90l32_3o4g.wav",70
Sample,54000,0,"b_drums_v89l32o3fp.wav",70
Sample,54000,0,"1_9_54000_G6.ogg",70
Sample,54187,0,"b_ch5_bass_v90l32_3o4g.wav",70
Sample,54187,0,"1_9_54187_A#6.ogg",70
Sample,54375,0,"b_ch5_bass_v90l32_3o4g.wav",70
Sample,54375,0,"b_drums_v89l32o3fp.wav",70
Sample,54375,0,"b_drums_v101l32o2b.wav",70
Sample,54375,0,"1_9_54375_G6.ogg",70
Sample,54375,0,"b_drums_v109l32o4b.wav",70
Sample,54562,0,"b_ch5_bass_v90l32_3o4dp.wav",70
Sample,54562,0,"1_9_54562_F6.ogg",70
Sample,54750,0,"b_ch5_bass_v90l32_3o4dp.wav",70
Sample,54750,0,"b_drums_v89l32o3fp.wav",70
Sample,54750,0,"1_9_54750_G6.ogg",70
Sample,54937,0,"b_ch5_bass_v90l32_3o4dp.wav",70
Sample,55125,0,"b_ch5_bass_v90l32_3o3gp.wav",70
Sample,55125,0,"b_drums_v89l32o3fp.wav",70
Sample,55125,0,"b_drums_v101l32o2b.wav",70
Sample,55125,0,"b_drums_v109l32o4b.wav",70
Sample,55312,0,"b_ch5_bass_v90l32_3o3gp.wav",70
Sample,55500,0,"b_drums_v89l32o3fp.wav",70
Sample,55500,0,"b_ch5_bass_v90l32_3o3g.wav",70
Sample,55500,0,"1_9_55500_F6.ogg",70
Sample,55687,0,"1_9_55687_F6.ogg",70
Sample,55687,0,"b_ch5_bass_v90l32_3o3g.wav",70
Sample,55875,0,"b_drums_v89l32o3fp.wav",70
Sample,55875,0,"1_9_55875_F6.ogg",70
Sample,55875,0,"b_drums_v83l32o4b.wav",70
Sample,55875,0,"b_ch5_bass_v90l16o3g.wav",70
Sample,55875,0,"b_drums_v101l32o2b.wav",70
Sample,56062,0,"1_9_56062_G6.ogg",70
Sample,56250,0,"b_ch5_bass_v90l32_3o3g.wav",70
Sample,56250,0,"1_9_56250_A#6.ogg",70
Sample,56250,0,"b_drums_v89l32o3fp.wav",70
Sample,56437,0,"b_ch5_bass_v90l32_3o3g.wav",70
Sample,56625,0,"b_drums_v89l32o3fp.wav",70
Sample,56625,0,"b_ch5_bass_v90l16o3g.wav",70
Sample,56625,0,"b_drums_v101l32o2b.wav",70
Sample,56625,0,"b_drums_v83l32o4b.wav",70
Sample,56812,0,"1_9_56812_G6.ogg",70
Sample,56812,0,"b_ch5_bass_v90l32_3o3g.wav",70
Sample,57000,0,"1_9_57000_F6.ogg",70
Sample,57000,0,"b_drums_v89l32o3fp.wav",70
Sample,57000,0,"b_ch1_piano_00097_acdp.wav",70
Sample,57000,0,"b_ch5_bass_v90l32_3o3fp.wav",70
Sample,57187,0,"b_ch5_bass_v90l32_3o3fp.wav",70
Sample,57187,0,"1_9_57187_G6.ogg",70
Sample,57375,0,"b_drums_v89l32o3fp.wav",70
Sample,57375,0,"1_9_57375_F6.ogg",70
Sample,57375,0,"b_drums_v83l32o4b.wav",70
Sample,57375,0,"b_ch5_bass_v90l32_3o3fp.wav",70
Sample,57375,0,"b_drums_v101l32o2b.wav",70
Sample,57562,0,"1_9_57562_D#6.ogg",70
Sample,57750,0,"b_ch5_bass_v90l32_3o3fp.wav",70
Sample,57750,0,"1_9_57750_C6.ogg",70
Sample,57750,0,"b_drums_v89l32o3fp.wav",70
Sample,57937,0,"b_ch5_bass_v90l32_3o3fp.wav",70
Sample,57937,0,"b_drums_v105l32o3ap.wav",70
Sample,58125,0,"b_drums_v101l32o2b.wav",70
Sample,58125,0,"b_drums_v83l32o4b.wav",70
Sample,58125,0,"b_drums_v89l32o3fp.wav",70
Sample,58125,0,"b_ch5_bass_v90l32_3o3fp.wav",70
Sample,58312,0,"b_ch5_bass_v90l32_3o3fp.wav",70
Sample,58500,0,"b_ch5_bass_v90l32_3o3f.wav",70
Sample,58500,0,"b_drums_v89l32o3fp.wav",70
Sample,58500,0,"1_9_58500_C6.ogg",70
Sample,58687,0,"b_ch5_bass_v90l32_3o3f.wav",70
Sample,58875,0,"1_9_58875_D6.ogg",70
Sample,58875,0,"b_drums_v89l32o3fp.wav",70
Sample,58875,0,"b_drums_v101l32o2b.wav",70
Sample,58875,0,"b_ch5_bass_v90l16o3f.wav",70
Sample,59062,0,"b_ch5_bass_v90l32_3o3f.wav",70
Sample,59250,0,"b_ch5_bass_v90l32_3o3f.wav",70
Sample,59250,0,"b_drums_v89l32o3fp.wav",70
Sample,59250,0,"1_9_59250_D#6.ogg",70
Sample,59437,0,"1_9_59437_G6.ogg",70
Sample,59437,0,"b_ch5_bass_v90l32_3o3f.wav",70
Sample,59625,0,"b_drums_v101l32o2b.wav",70
Sample,59625,0,"b_ch5_bass_v90l16o3gp.wav",70
Sample,59625,0,"b_drums_v89l32o3fp.wav",70
Sample,59812,0,"1_9_59812_F6.ogg",70
Sample,59812,0,"b_ch5_bass_v90l32_3o3a.wav",70
Sample,60000,0,"b_ch5_bass_v90l32_3o3b.wav",70
Sample,60000,0,"b_drums_v89l32o3fp.wav",70
Sample,60187,0,"b_ch5_bass_v90l32_3o3b.wav",70
Sample,60375,0,"b_drums_v89l32o3fp.wav",70
Sample,60375,0,"b_ch5_bass_v90l32_3o3b.wav",70
Sample,60375,0,"b_drums_v101l32o2b.wav",70
Sample,60375,0,"1_9_60375_D#6.ogg",70
Sample,60562,0,"b_ch5_bass_v90l32_3o3b.wav",70
Sample,60750,0,"b_drums_v89l32o3fp.wav",70
Sample,60750,0,"b_ch5_bass_v90l32_3o3b.wav",70
Sample,60750,0,"1_9_60750_D6.ogg",70
Sample,60937,0,"b_ch5_bass_v90l32_3o3b.wav",70
Sample,61125,0,"b_drums_v101l32o2b.wav",70
Sample,61125,0,"1_9_61124_D#6.ogg",70
Sample,61125,0,"b_drums_v89l32o3fp.wav",70
Sample,61125,0,"b_ch5_bass_v90l32_3o3gp.wav",70
Sample,61312,0,"b_ch5_bass_v90l32_3o3b.wav",70
Sample,61500,0,"1_9_61500_F6.ogg",70
Sample,61500,0,"b_ch5_bass_v90l32_3o4c.wav",70
Sample,61500,0,"b_drums_v89l32o3fp.wav",70
Sample,61687,0,"b_ch5_bass_v90l32_3o4c.wav",70
Sample,61875,0,"b_drums_v101l32o2b.wav",70
Sample,61875,0,"b_drums_v89l32o3fp.wav",70
Sample,61875,0,"b_ch5_bass_v90l32_3o4c.wav",70
Sample,62062,0,"1_9_62062_A#6.ogg",70
Sample,62250,0,"1_9_62250_G6.ogg",70
Sample,62250,0,"b_ch5_bass_v90l32_3o4c.wav",70
Sample,62250,0,"b_drums_v89l32o3fp.wav",70
Sample,62437,0,"b_ch5_bass_v90l32_3o3g.wav",70
Sample,62625,0,"b_ch5_bass_v90l32_3o4c.wav",70
Sample,62625,0,"b_drums_v89l32o3fp.wav",70
Sample,62625,0,"b_drums_v101l32o2b.wav",70
Sample,62812,0,"b_ch5_bass_v90l32_3o3b.wav",70
Sample,63000,0,"b_ch5_bass_v90l32_3o3ap.wav",70
Sample,63000,0,"b_drums_v109l32o4b.wav",70
Sample,63000,0,"b_drums_v89l32o3fp.wav",70
Sample,63187,0,"b_ch5_bass_v90l32_3o3ap.wav",70
Sample,63375,0,"b_drums_v101l32o2b.wav",70
Sample,63375,0,"b_drums_v109l32o4b.wav",70
Sample,63375,0,"b_ch5_bass_v90l32_3o4cp.wav",70
Sample,63375,0,"b_drums_v89l32o3gp.wav",70
Sample,63562,0,"b_ch5_bass_v90l32_3o4d.wav",70
Sample,63562,0,"1_9_63562_D#6.ogg",70
Sample,63750,0,"b_drums_v101l32o2b.wav",70
Sample,63750,0,"1_9_63750_D#6.ogg",70
Sample,63750,0,"b_ch5_bass_v90l16o4dp.wav",70
Sample,63843,0,"b_drums_v50l32o3e.wav",70
Sample,63937,0,"b_ch5_bass_v90l16o4dp.wav",70
Sample,63937,0,"1_9_63937_F6.ogg",70
Sample,64125,0,"b_ch5_bass_v90l16o4dp.wav",70
Sample,64125,0,"1_9_64124_G6.ogg",70
Sample,64125,0,"b_drums_v101l32o2b.wav",70
Sample,64312,0,"1_9_64312_A#6.ogg",70
Sample,64312,0,"b_ch5_bass_v90l16o4dp.wav",70
Sample,64500,0,"b_ch5_bass_v95l32_3o4a.wav",70
Sample,64500,0,"b_drums_v109l32o4b.wav",70
Sample,64500,0,"1_9_64500_C7.ogg",70
Sample,64500,0,"b_drums_v89l32o3fp.wav",70
Sample,64687,0,"b_ch5_bass_v95l32_3o4a.wav",70
Sample,64875,0,"b_drums_v89l32o3fp.wav",70
Sample,64875,0,"b_drums_v104l32o2b.wav",70
Sample,64875,0,"b_ch5_bass_v95l16o4a.wav",70
Sample,64875,0,"b_drums_v109l32o4b.wav",70
Sample,65062,0,"1_9_65062_A#6.ogg",70
Sample,65062,0,"b_ch5_bass_v90l32_3o4dp.wav",70
Sample,65250,0,"b_ch5_bass_v90l32_3o4dp.wav",70
Sample,65250,0,"1_9_65250_C7.ogg",70
Sample,65250,0,"b_drums_v89l32o3fp.wav",70
Sample,65437,0,"b_ch5_bass_v90l32_3o4dp.wav",70
Sample,65625,0,"b_drums_v89l32o3fp.wav",70
Sample,65625,0,"b_ch5_bass_v95l16o4a.wav",70
Sample,65625,0,"b_drums_v101l32o2b.wav",70
Sample,65625,0,"b_drums_v109l32o4b.wav",70
Sample,65812,0,"1_9_65812_A#6.ogg",70
Sample,65812,0,"b_ch5_bass_v95l32_3o4a.wav",70
Sample,66000,0,"b_drums_v89l32o3fp.wav",70
Sample,66000,0,"1_9_66000_G6.ogg",70
Sample,66000,0,"b_ch5_bass_v90l32_3o4gp.wav",70
Sample,66000,0,"b_drums_v109l32o4b.wav",70
Sample,66187,0,"1_9_66187_A#6.ogg",70
Sample,66187,0,"b_ch5_bass_v90l32_3o4gp.wav",70
Sample,66375,0,"b_ch5_bass_v90l32_3o4gp.wav",70
Sample,66375,0,"b_drums_v101l32o2b.wav",70
Sample,66375,0,"b_drums_v109l32o4b.wav",70
Sample,66375,0,"1_9_66375_G6.ogg",70
Sample,66375,0,"b_drums_v89l32o3fp.wav",70
Sample,66562,0,"b_ch5_bass_v90l32_3o4dp.wav",70
Sample,66562,0,"1_9_66562_F6.ogg",70
Sample,66750,0,"b_ch5_bass_v90l32_3o4dp.wav",70
Sample,66750,0,"b_drums_v89l32o3fp.wav",70
Sample,66750,0,"1_9_66750_G6.ogg",70
Sample,67125,0,"b_ch5_bass_v90l32_3o3gp.wav",70
Sample,67125,0,"b_drums_v89l32o3fp.wav",70
Sample,67125,0,"b_drums_v109l32o4b.wav",70
Sample,67125,0,"b_drums_v101l32o2b.wav",70
Sample,67312,0,"b_ch5_bass_v90l32_3o3gp.wav",70
Sample,67500,0,"b_ch5_bass_v90l32_3o3g.wav",70
Sample,67500,0,"b_drums_v109l32o4b.wav",70
Sample,67500,0,"1_9_67500_F6.ogg",70
Sample,67500,0,"b_drums_v89l32o3fp.wav",70
Sample,67687,0,"b_ch5_bass_v90l32_3o3g.wav",70
Sample,67687,0,"1_9_67687_F6.ogg",70
Sample,67875,0,"1_9_67875_F6.ogg",70
Sample,67875,0,"b_drums_v109l32o4b.wav",70
Sample,67875,0,"b_drums_v101l32o2b.wav",70
Sample,67875,0,"b_drums_v89l32o3fp.wav",70
Sample,67875,0,"b_ch5_bass_v90l16o3g.wav",70
Sample,68062,0,"b_ch5_bass_v90l32_3o3g.wav",70
Sample,68062,0,"1_9_68062_G6.ogg",70
Sample,68250,0,"b_ch5_bass_v90l32_3o3g.wav",70
Sample,68250,0,"1_9_68250_A#6.ogg",70
Sample,68250,0,"b_drums_v89l32o3fp.wav",70
Sample,68437,0,"b_ch5_bass_v90l32_3o3g.wav",70
Sample,68437,0,"1_9_68437_C7.ogg",70
Sample,68625,0,"b_ch5_bass_v90l16o3g.wav",70
Sample,68625,0,"b_drums_v109l32o4b.wav",70
Sample,68625,0,"1_9_68624_A#6.ogg",70
Sample,68625,0,"b_drums_v89l32o3fp.wav",70
Sample,68625,0,"b_drums_v101l32o2b.wav",70
Sample,68812,0,"1_9_68812_C7.ogg",70
Sample,68812,0,"b_ch5_bass_v90l32_3o3g.wav",70
Sample,69000,0,"b_ch2_piano_00070_ccgap.wav",70
Sample,69000,0,"b_drums_v89l32o3fp.wav",70
Sample,69000,0,"1_9_69000_C#7.ogg",70
Sample,69000,0,"b_ch5_bass_v90l32_3o4c.wav",70
Sample,69187,0,"b_ch5_bass_v90l32_3o4c.wav",70
Sample,69187,0,"1_9_69187_C#7.ogg",70
Sample,69375,0,"b_drums_v89l32o3fp.wav",70
Sample,69375,0,"b_drums_v101l32o2b.wav",70
Sample,69375,0,"1_9_69375_C#7.ogg",70
Sample,69375,0,"b_ch2_piano_00070_ccgap.wav",70
Sample,69375,0,"b_ch5_bass_v90l32_3o4c.wav",70
Sample,69562,0,"1_9_69562_C7.ogg",70
Sample,69562,0,"b_ch5_bass_v90l32_3o4c.wav",70
Sample,69750,0,"1_9_69750_G6.ogg",70
Sample,69750,0,"b_ch2_piano_00070_ccgap.wav",70
Sample,69750,0,"b_ch5_bass_v90l16_5o4c.wav",70
Sample,69750,0,"b_drums_v89l32o3fp.wav",70
Sample,69937,0,"b_drums_v105l32o4e.wav",70
Sample,70125,0,"b_ch2_piano_00070_ccgap.wav",70
Sample,70125,0,"b_drums_v89l32o3fp.wav",70
Sample,70500,0,"b_ch5_bass_v90l32_3o3f.wav",70
Sample,70500,0,"b_drums_v77l32o3gp.wav",70
Sample,70500,0,"b_ch2_piano_00071_ff.wav",70
Sample,70875,0,"b_ch2_piano_00071_ff.wav",70
Sample,70875,0,"b_ch5_bass_v90l32_3o3f.wav",70
Sample,70875,0,"1_9_70875_A#6.ogg",70
Sample,70875,0,"b_drums_v77l32o3gp.wav",70
Sample,71250,0,"b_ch5_bass_v90l32_3o3f.wav",70
Sample,71250,0,"b_ch2_piano_00071_ff.wav",70
Sample,71250,0,"b_drums_v77l32o3gp.wav",70
Sample,71250,0,"1_9_71250_D#6.ogg",70
Sample,71625,0,"b_drums_v77l32o3gp.wav",70
Sample,71625,0,"b_ch2_piano_00071_ff.wav",70
Sample,71625,0,"b_ch5_bass_v90l32_3o3f.wav",70
Sample,71812,0,"1_9_71812_D#6.ogg",70
Sample,72000,0,"b_ch2_piano_00072_gap.wav",70
Sample,72000,0,"b_ch5_bass_v90l32_3o3g.wav",70
Sample,72000,0,"b_drums_v77l32o3gp.wav",70
Sample,72000,0,"1_9_72000_A#6.ogg",70
Sample,72187,0,"1_9_72187_D#6.ogg",70
Sample,72375,0,"b_ch2_piano_00072_gap.wav",70
Sample,72375,0,"b_ch5_bass_v90l32_3o3g.wav",70
Sample,72375,0,"b_drums_v77l32o3gp.wav",70
Sample,72562,0,"1_9_72562_F6.ogg",70
Sample,72750,0,"b_ch2_piano_00072_gap.wav",70
Sample,72750,0,"b_drums_v77l32o3gp.wav",70
Sample,72750,0,"b_ch5_bass_v90l32_3o3g.wav",70
Sample,72937,0,"1_9_72937_D#6.ogg",70
Sample,73125,0,"b_ch2_piano_00072_gap.wav",70
Sample,73125,0,"b_ch5_bass_v90l32_3o3g.wav",70
Sample,73125,0,"b_drums_v77l32o3gp.wav",70
Sample,73312,0,"1_9_73312_A#6.ogg",70
Sample,73406,0,"1_9_73406_B6.ogg",70
Sample,73500,0,"b_ch5_bass_v90l32_3o3gp.wav",70
Sample,73500,0,"1_9_73500_C#7.ogg",70
Sample,73500,0,"b_ch2_piano_00073_gpb.wav",70
Sample,73500,0,"b_drums_v77l32o3gp.wav",70
Sample,73875,0,"1_9_73875_B6.ogg",70
Sample,73875,0,"b_ch2_piano_00073_gpb.wav",70
Sample,73875,0,"b_drums_v77l32o3gp.wav",70
Sample,73875,0,"b_ch5_bass_v90l32_3o3gp.wav",70
Sample,74062,0,"1_9_74062_A#6.ogg",70
Sample,74250,0,"b_ch5_bass_v90l32_3o3gp.wav",70
Sample,74250,0,"b_ch2_piano_00073_gpb.wav",70
Sample,74250,0,"b_drums_v77l32o3gp.wav",70
Sample,74437,0,"1_9_74437_G#6.ogg",70
Sample,74625,0,"b_ch2_piano_00073_gpb.wav",70
Sample,74625,0,"b_drums_v77l32o3gp.wav",70
Sample,74625,0,"b_ch5_bass_v90l32_3o3gp.wav",70
Sample,74812,0,"1_9_74812_A#6.ogg",70
Sample,75000,0,"b_drums_v89l32o3gp.wav",70
Sample,75000,0,"b_ch5_bass_v90l32_3o3ap.wav",70
Sample,75187,0,"b_ch5_bass_v97l32_3o4ap.wav",70
Sample,75375,0,"b_drums_v89l32o3gp.wav",70
Sample,75375,0,"b_ch5_bass_v97l32_3o4ap.wav",70
Sample,75562,0,"b_ch5_bass_v97l32_3o4ap.wav",70
Sample,75750,0,"b_ch5_bass_v97l32_3o4ap.wav",70
Sample,75750,0,"b_drums_v101l32o2b.wav",70
Sample,75750,0,"b_drums_v89l32o3gp.wav",70
Sample,75937,0,"b_ch5_bass_v97l16o4ap.wav",70
Sample,76125,0,"b_drums_v101l32o2b.wav",70
Sample,76125,0,"b_ch5_bass_v90l16o4f.wav",70
Sample,76312,0,"b_ch5_bass_v90l16o3ap.wav",70
Sample,76500,0,"b_ch5_bass_v90l32_3o3ap.wav",70
Sample,76500,0,"b_drums_v109l32o3d.wav",70
Sample,76687,0,"1_9_76687_A#6.ogg",70
Sample,76875,0,"1_9_76875_A#6.ogg",70
Sample,77062,0,"1_9_77062_A#6.ogg",70
Sample,77250,0,"1_9_77250_A#6.ogg",70
Sample,77437,0,"1_9_77437_D#6.ogg",70
Sample,77625,0,"1_9_77624_D#6.ogg",70
Sample,77812,0,"1_9_77812_D#6.ogg",70
Sample,78000,0,"b_ch1_piano_00135_ap.wav",70
Sample,78000,0,"b_ch5_bass_v90l32_53o3gp.wav",70
Sample,78000,0,"b_drums_v76l32o3fp.wav",70
Sample,78187,0,"b_ch1_piano_00136_ap.wav",70
Sample,78375,0,"b_ch1_piano_00137_dp.wav",70
Sample,78375,0,"b_drums_v76l32o3fp.wav",70
Sample,78750,0,"b_drums_v76l32o3fp.wav",70
Sample,78750,0,"b_ch1_piano_00136_ap.wav",70
Sample,78937,0,"b_ch1_piano_00137_dp.wav",70
Sample,79125,0,"b_drums_v76l32o3fp.wav",70
Sample,79500,0,"b_drums_v100l32o3fp.wav",70
Sample,79500,0,"b_ch1_piano_00137_dp.wav",70
Sample,79687,0,"b_ch1_piano_00135_ap.wav",70
Sample,79875,0,"b_drums_v100l32o3fp.wav",70
Sample,80062,0,"b_ch1_piano_00137_dp.wav",70
Sample,80250,0,"b_drums_v100l32o3fp.wav",70
Sample,80437,0,"b_ch1_piano_00136_ap.wav",70
Sample,80625,0,"b_drums_v100l32o3fp.wav",70
Sample,80625,0,"b_ch1_piano_00137_dp.wav",70
Sample,80812,0,"b_ch1_piano_00135_ap.wav",70
Sample,81000,0,"b_ch1_piano_00136_ap.wav",70
Sample,81000,0,"b_drums_v100l32o3fp.wav",70
Sample,81000,0,"b_ch5_bass_v90l32_61o4c.wav",70
Sample,81187,0,"b_ch1_piano_00137_dp.wav",70
Sample,81375,0,"b_drums_v100l32o3fp.wav",70
Sample,81562,0,"b_ch1_piano_00136_ap.wav",70
Sample,81750,0,"b_ch1_piano_00137_dp.wav",70
Sample,81750,0,"b_drums_v100l32o3fp.wav",70
Sample,82125,0,"b_drums_v100l32o3fp.wav",70
Sample,82125,0,"b_ch1_piano_00136_ap.wav",70
Sample,82312,0,"b_ch1_piano_00137_dp.wav",70
Sample,82500,0,"b_drums_v100l32o3fp.wav",70
Sample,82687,0,"1_9_82687_A#6.ogg",70
Sample,82687,0,"b_ch1_piano_00136_ap.wav",70
Sample,82875,0,"b_ch1_piano_00137_dp.wav",70
Sample,82875,0,"1_9_82875_A#6.ogg",70
Sample,82875,0,"b_drums_v100l32o3fp.wav",70
Sample,83062,0,"1_9_83062_A#6.ogg",70
Sample,83250,0,"1_9_83250_A#6.ogg",70
Sample,83250,0,"b_drums_v100l32o3fp.wav",70
Sample,83250,0,"b_ch1_piano_00136_ap.wav",70
Sample,83437,0,"b_ch1_piano_00137_dp.wav",70
Sample,83437,0,"1_9_83437_D#6.ogg",70
Sample,83625,0,"1_9_83624_D#6.ogg",70
Sample,83625,0,"b_drums_v100l32o3fp.wav",70
Sample,83812,0,"1_9_83812_D#6.ogg",70
Sample,83812,0,"b_ch1_piano_00136_ap.wav",70
Sample,84000,0,"b_ch5_bass_v90l4_7o3g.wav",70
Sample,84000,0,"b_drums_v100l32o3gp.wav",70
Sample,84000,0,"b_ch1_piano_00137_dp.wav",70
Sample,84187,0,"b_ch1_piano_00135_ap.wav",70
Sample,84375,0,"b_ch1_piano_00136_ap.wav",70
Sample,84375,0,"b_drums_v100l32o3fp.wav",70
Sample,84562,0,"b_ch1_piano_00137_dp.wav",70
Sample,84750,0,"b_ch1_piano_00135_ap.wav",70
Sample,84750,0,"b_drums_v100l32o3fp.wav",70
Sample,85125,0,"b_drums_v100l32o3fp.wav",70
Sample,85125,0,"b_ch1_piano_00137_dp.wav",70
Sample,85312,0,"b_ch1_piano_00135_ap.wav",70
Sample,85500,0,"b_drums_v100l32o3fp.wav",70
Sample,85500,0,"b_ch1_piano_00136_ap.wav",70
Sample,85687,0,"b_ch1_piano_00137_dp.wav",70
Sample,85875,0,"b_drums_v100l32o3fp.wav",70
Sample,85875,0,"b_ch1_piano_00135_ap.wav",70
Sample,86062,0,"b_ch1_piano_00136_ap.wav",70
Sample,86250,0,"b_drums_v100l32o3fp.wav",70
Sample,86250,0,"b_ch1_piano_00137_dp.wav",70
Sample,86437,0,"b_ch1_piano_00135_ap.wav",70
Sample,86625,0,"b_drums_v100l32o3fp.wav",70
Sample,86625,0,"b_ch5_bass_v90l4o4c.wav",70
Sample,86812,0,"b_ch1_piano_00137_dp.wav",70
Sample,87000,0,"b_ch5_bass_v90l16_15o4f.wav",70
Sample,87000,0,"b_drums_v100l32o3fp.wav",70
Sample,87000,0,"b_ch1_piano_00135_ap.wav",70
Sample,87187,0,"b_ch1_piano_00136_ap.wav",70
Sample,87375,0,"b_ch1_piano_00137_dp.wav",70
Sample,87375,0,"b_drums_v100l32o3fp.wav",70
Sample,87750,0,"b_drums_v100l32o3fp.wav",70
Sample,87750,0,"b_ch1_piano_00136_ap.wav",70
Sample,87937,0,"b_ch1_piano_00137_dp.wav",70
Sample,88125,0,"b_drums_v100l32o3fp.wav",70
Sample,88500,0,"b_drums_v100l32o3fp.wav",70
Sample,88500,0,"b_ch5_bass_v90l32_3o4f.wav",70
Sample,88687,0,"b_ch5_bass_v90l32_3o4f.wav",70
Sample,88875,0,"b_drums_v100l32o3fp.wav",70
Sample,88875,0,"b_ch5_bass_v90l32_3o4f.wav",70
Sample,89062,0,"b_ch5_bass_v90l32_3o4f.wav",70
Sample,89250,0,"b_drums_v100l32o3fp.wav",70
Sample,89250,0,"b_ch5_bass_v90l32_3o4f.wav",70
Sample,89437,0,"b_ch5_bass_v90l32_3o4f.wav",70
Sample,89625,0,"b_ch5_bass_v90l32_3o4c.wav",70
Sample,89625,0,"b_ch1_piano_00145_g.wav",70
Sample,89812,0,"b_ch1_piano_00146_dp.wav",70
Sample,89812,0,"b_ch5_bass_v90l16o3gp.wav",70
//Background Colour Transformations
3,100,163,162,255

[TimingPoints]
0,375,4,2,0,70,1,0

[Colours]
Combo1 : 244,70,97
Combo2 : 156,31,250
Combo3 : 108,148,251

[HitObjects]
475,192,1382,5,0,0:0:0:0:b_ch1_piano_00001_c.wav
329,192,1429,1,0,0:0:0:0:b_ch1_piano_00002_gp.wav
36,192,1500,1,0,0:0:0:0:b_ch2_piano_00001_cpf.wav
182,192,1500,1,0,0:0:0:0:b_ch1_piano_00003_c.wav
109,192,3000,1,0,0:0:0:0:b_ch1_piano_00004_apdp.wav
182,192,3000,1,0,0:0:0:0:b_ch2_piano_00002_cpgf.wav
36,192,3703,1,0,0:0:0:0:b_ch1_piano_00005_ap.wav
109,192,3726,1,0,0:0:0:0:b_ch1_piano_00006_dp.wav
182,192,3750,1,0,0:0:0:0:b_ch1_piano_00007_f.wav
402,192,3796,1,0,0:0:0:0:b_ch1_piano_00008_ap.wav
182,192,4500,1,0,0:0:0:0:b_ch2_piano_00003_cg.wav
329,192,4500,1,0,0:0:0:0:b_ch1_piano_00009_apdpf.wav
36,192,6000,1,0,0:0:0:0:b_ch2_piano_00004_fgp.wav
256,192,6000,1,0,0:0:0:0:b_ch1_piano_00010_cdpf.wav
256,192,6656,1,0,0:0:0:0:b_ch1_piano_00011_g.wav
329,192,6703,1,0,0:0:0:0:b_ch1_piano_00012_c.wav
475,192,6750,1,0,0:0:0:0:b_ch1_piano_00013_dp.wav
36,192,7500,1,0,0:0:0:0:b_drums_v104l32o3c.wav
475,192,7500,1,0,0:0:0:0:b_drums_v127l32o4a.wav
182,192,7500,128,0,9000:0:0:0:0:1_3_13500_G#5.wav
36,192,7875,1,0,0:0:0:0:b_drums_v104l32o3c.wav
475,192,7875,1,0,0:0:0:0:b_drums_v86l32o3d.wav
329,192,8062,1,0,0:0:0:0:b_drums_v87l32o3d.wav
36,192,8250,1,0,0:0:0:0:b_drums_v104l32o3c.wav
475,192,8250,1,0,0:0:0:0:b_drums_v89l32o3d.wav
329,192,8437,1,0,0:0:0:0:b_drums_v90l32o3d.wav
36,192,8625,1,0,0:0:0:0:b_drums_v104l32o3c.wav
475,192,8625,1,0,0:0:0:0:b_drums_v92l32o3d.wav
329,192,8812,1,0,0:0:0:0:b_drums_v93l32o3d.wav
109,192,9000,1,0,0:0:0:0:b_drums_v104l32o3c.wav
402,192,9000,1,0,0:0:0:0:b_drums_v95l32o3d.wav
36,192,9000,128,0,9750:0:0:0:0:1_3_15000_G5.wav
329,192,9187,1,0,0:0:0:0:b_drums_v96l32o3d.wav
109,192,9375,1,0,0:0:0:0:b_drums_v104l32o3c.wav
402,192,9375,1,0,0:0:0:0:b_drums_v98l32o3d.wav
329,192,9562,1,0,0:0:0:0:b_drums_v96l32o3d.wav
182,192,9750,1,0,0:0:0:0:b_drums_v104l32o3c.wav
475,192,9750,1,0,0:0:0:0:b_drums_v97l32o3d.wav
109,192,9750,128,0,10500:0:0:0:0:1_3_15750_A#5.wav
329,192,9937,1,0,0:0:0:0:b_drums_v98l32o3d.wav
182,192,10125,1,0,0:0:0:0:b_drums_v104l32o3c.wav
475,192,10125,1,0,0:0:0:0:b_drums_v100l32o3d.wav
329,192,10312,1,0,0:0:0:0:b_drums_v101l32o3d.wav
36,192,10500,1,0,0:0:0:0:b_drums_v104l32o3c.wav
475,192,10500,1,0,0:0:0:0:b_drums_v102l32o3d.wav
256,192,10500,128,0,12000:0:0:0:0:1_3_16500_C6.wav
182,192,10687,1,0,0:0:0:0:b_drums_v104l32o3d.wav
36,192,10875,1,0,0:0:0:0:b_drums_v104l32o3c.wav
475,192,10875,1,0,0:0:0:0:b_drums_v105l32o3d.wav
182,192,11062,1,0,0:0:0:0:b_drums_v105l32o3d.wav
36,192,11250,1,0,0:0:0:0:b_drums_v104l32o3c.wav
475,192,11250,1,0,0:0:0:0:b_drums_v105l32o3d.wav
182,192,11437,1,0,0:0:0:0:b_drums_v105l32o3d.wav
36,192,11625,1,0,0:0:0:0:b_drums_v104l32o3c.wav
475,192,11625,1,0,0:0:0:0:b_drums_v105l32o3d.wav
182,192,11812,1,0,0:0:0:0:b_drums_v105l32o3d.wav
36,192,12000,1,0,0:0:0:0:b_drums_v104l32o3c.wav
182,192,12000,1,0,0:0:0:0:b_ch2_piano_00009_dpdpapdpgp.wav
329,192,12000,1,0,0:0:0:0:1_3_18000_C#6.wav
475,192,12000,1,0,0:0:0:0:b_drums_v105l32o3d.wav
36,192,12187,1,0,0:0:0:0:b_drums_v105l32o3d.wav
329,192,12375,1,0,0:0:0:0:b_drums_v104l32o4cp.wav
402,192,12375,1,0,0:0:0:0:b_ch2_piano_00010_apdpgpcp.wav
475,192,12375,1,0,0:0:0:0:b_drums_v104l32o3c.wav
36,192,12562,1,0,0:0:0:0:b_drums_v104l32o3c.wav
329,192,12750,1,0,0:0:0:0:b_drums_v104l32o4cp.wav
402,192,12750,1,0,0:0:0:0:b_ch2_piano_00011_apdpgpcp.wav
475,192,12750,1,0,0:0:0:0:b_drums_v104l32o3c.wav
36,192,12937,1,0,0:0:0:0:b_drums_v104l32o3f.wav
109,192,13031,1,0,0:0:0:0:b_drums_v104l32o3g.wav
182,192,13125,1,0,0:0:0:0:b_drums_v104l32o3a.wav
475,192,13125,1,0,0:0:0:0:b_drums_v100l32o3c.wav
256,192,13218,1,0,0:0:0:0:b_drums_v104l32o3b.wav
329,192,13312,1,0,0:0:0:0:b_drums_v104l32o4c.wav
402,192,13406,1,0,0:0:0:0:b_drums_v104l32o4c.wav
36,192,13500,1,0,0:0:0:0:b_drums_v100l32o2b.wav
182,192,13500,1,0,0:0:0:0:b_ch2_piano_00012_cpcp.wav
256,192,13500,1,0,0:0:0:0:b_drums_v100l32o4a.wav
475,192,13500,1,0,0:0:0:0:b_ch1_piano_00014_gpcf.wav
36,192,13875,1,0,0:0:0:0:b_drums_v100l32o2b.wav
36,192,14250,1,0,0:0:0:0:b_drums_v100l32o2b.wav
36,192,14625,1,0,0:0:0:0:b_drums_v100l32o2b.wav
36,192,15000,1,0,0:0:0:0:b_drums_v100l32o2b.wav
36,192,15375,1,0,0:0:0:0:b_drums_v100l32o2b.wav
402,192,15562,1,0,0:0:0:0:b_ch1_piano_00015_c.wav
36,192,15750,1,0,0:0:0:0:b_drums_v100l32o2b.wav
329,192,15937,1,0,0:0:0:0:b_ch2_piano_00013_cpcp.wav
475,192,15937,1,0,0:0:0:0:b_ch1_piano_00016_gpcfgp.wav
36,192,16125,1,0,0:0:0:0:b_drums_v100l32o2b.wav
475,192,16406,1,0,0:0:0:0:b_drums_v88l32o3gp.wav
36,192,16500,1,0,0:0:0:0:b_ch2_piano_00014_ccg.wav
109,192,16500,1,0,0:0:0:0:b_drums_v100l32o2b.wav
256,192,16500,1,0,0:0:0:0:b_ch1_piano_00017_apdpg.wav
109,192,16875,1,0,0:0:0:0:b_drums_v100l32o2b.wav
109,192,17250,1,0,0:0:0:0:b_drums_v100l32o2b.wav
109,192,17625,1,0,0:0:0:0:b_drums_v100l32o2b.wav
256,192,17835,1,0,0:0:0:0:b_ch1_piano_00018_dp.wav
329,192,17906,1,0,0:0:0:0:b_ch1_piano_00019_g.wav
109,192,18000,1,0,0:0:0:0:b_drums_v100l32o2b.wav
402,192,18000,1,0,0:0:0:0:b_ch1_piano_00020_ap.wav
109,192,18375,1,0,0:0:0:0:b_drums_v100l32o2b.wav
36,192,18750,1,0,0:0:0:0:b_ch2_piano_00015_ccg.wav
109,192,18750,1,0,0:0:0:0:b_drums_v100l32o2b.wav
256,192,18750,1,0,0:0:0:0:b_ch1_piano_00021_apdpg.wav
109,192,19125,1,0,0:0:0:0:b_drums_v100l32o2b.wav
475,192,19406,1,0,0:0:0:0:b_drums_v100l32o3gp.wav
36,192,19500,1,0,0:0:0:0:b_ch2_piano_00016_bbfp.wav
182,192,19500,1,0,0:0:0:0:b_drums_v100l32o2b.wav
402,192,19500,1,0,0:0:0:0:b_ch1_piano_00022_apdpfp.wav
182,192,19875,1,0,0:0:0:0:b_drums_v100l32o2b.wav
182,192,20250,1,0,0:0:0:0:b_drums_v100l32o2b.wav
182,192,20625,1,0,0:0:0:0:b_drums_v100l32o2b.wav
475,192,20812,1,0,0:0:0:0:b_ch1_piano_00023_f.wav
402,192,20906,1,0,0:0:0:0:b_ch1_piano_00024_dp.wav
329,192,20953,1,0,0:0:0:0:b_ch1_piano_00025_cp.wav
182,192,21000,1,0,0:0:0:0:b_drums_v100l32o2b.wav
256,192,21000,1,0,0:0:0:0:b_ch1_piano_00026_dpap.wav
182,192,21375,1,0,0:0:0:0:b_drums_v100l32o2b.wav
182,192,21750,1,0,0:0:0:0:b_drums_v100l32o2b.wav
182,192,22125,1,0,0:0:0:0:b_drums_v100l32o2b.wav
475,192,22406,1,0,0:0:0:0:b_drums_v88l32o3gp.wav
36,192,22500,1,0,0:0:0:0:b_drums_v100l32o2b.wav
182,192,22500,1,0,0:0:0:0:b_ch2_piano_00017_apapgp.wav
329,192,22500,1,0,0:0:0:0:b_ch1_piano_00027_cpfgp.wav
36,192,22875,1,0,0:0:0:0:b_drums_v100l32o2b.wav
36,192,23250,1,0,0:0:0:0:b_drums_v100l32o2b.wav
36,192,23625,1,0,0:0:0:0:b_drums_v100l32o2b.wav
329,192,23625,1,0,0:0:0:0:b_ch1_piano_00028_cp.wav
182,192,23812,1,0,0:0:0:0:b_ch1_piano_00029_d.wav
256,192,23953,1,0,0:0:0:0:b_ch1_piano_00030_dp.wav
329,192,23976,1,0,0:0:0:0:b_ch1_piano_00031_cp.wav
36,192,24000,1,0,0:0:0:0:b_drums_v100l32o2b.wav
402,192,24000,1,0,0:0:0:0:b_ch1_piano_00032_fgp.wav
475,192,24000,1,0,0:0:0:0:b_ch2_piano_00018_dp.wav
36,192,24375,1,0,0:0:0:0:b_drums_v100l32o2b.wav
36,192,24750,1,0,0:0:0:0:b_drums_v100l32o2b.wav
329,192,24750,1,0,0:0:0:0:b_ch1_piano_00033_dpg.wav
402,192,24750,1,0,0:0:0:0:b_ch2_piano_00019_dpgap.wav
36,192,25125,1,0,0:0:0:0:b_drums_v100l32o2b.wav
182,192,25125,1,0,0:0:0:0:b_drums_v95l32o3ap.wav
475,192,25125,1,0,0:0:0:0:b_drums_v88l32o3d.wav
36,192,25500,1,0,0:0:0:0:b_drums_v93l32o4a.wav
402,192,25500,1,0,0:0:0:0:b_ch16_electricguitar_00001_gap.wav
256,192,25500,128,0,26250:0:0:0:0:1_9_25500_A#6.ogg
329,192,25687,1,0,0:0:0:0:b_ch16_electricguitar_00002_g.wav
182,192,25875,1,0,0:0:0:0:b_drums_v118l32o3d.wav
402,192,25875,1,0,0:0:0:0:b_ch16_electricguitar_00003_ap.wav
475,192,26062,1,0,0:0:0:0:b_ch16_electricguitar_00004_d.wav
36,192,26250,1,0,0:0:0:0:b_drums_v100l32o2b.wav
402,192,26250,128,0,27000:0:0:0:0:1_9_26250_D6.ogg
36,192,26437,1,0,0:0:0:0:b_drums_v100l32o2b.wav
182,192,26625,1,0,0:0:0:0:b_drums_v114l32o3d.wav
475,192,26625,1,0,0:0:0:0:b_drums_v95l32o3fp.wav
36,192,27000,1,0,0:0:0:0:b_drums_v100l32o2b.wav
329,192,27000,1,0,0:0:0:0:b_ch16_electricguitar_00005_ape.wav
475,192,27000,128,0,27750:0:0:0:0:1_9_27000_E6.ogg
256,192,27187,1,0,0:0:0:0:b_ch16_electricguitar_00006_e.wav
182,192,27375,1,0,0:0:0:0:b_drums_v118l32o3d.wav
329,192,27375,1,0,0:0:0:0:b_ch16_electricguitar_00003_ap.wav
402,192,27562,1,0,0:0:0:0:b_ch16_electricguitar_00007_cp.wav
36,192,27750,1,0,0:0:0:0:b_drums_v100l32o2b.wav
36,192,27937,1,0,0:0:0:0:b_drums_v100l32o2b.wav
182,192,28125,1,0,0:0:0:0:b_drums_v114l32o3d.wav
475,192,28125,1,0,0:0:0:0:b_drums_v95l32o3fp.wav
36,192,28500,1,0,0:0:0:0:b_drums_v100l32o2b.wav
329,192,28500,1,0,0:0:0:0:b_ch2_piano_00024_fcfgp.wav
402,192,28500,1,0,0:0:0:0:b_ch1_piano_00034_cdp.wav
182,192,28875,1,0,0:0:0:0:b_drums_v118l32o3d.wav
402,192,29062,1,0,0:0:0:0:b_ch1_piano_00035_gp.wav
36,192,29250,1,0,0:0:0:0:b_drums_v100l32o2b.wav
36,192,29437,1,0,0:0:0:0:b_drums_v100l32o2b.wav
329,192,29437,1,0,0:0:0:0:b_ch1_piano_00036_f.wav
182,192,29625,1,0,0:0:0:0:b_drums_v114l32o3d.wav
402,192,29625,1,0,0:0:0:0:b_ch1_piano_00037_gp.wav
475,192,29812,1,0,0:0:0:0:b_ch1_piano_00038_ap.wav
36,192,30000,1,0,0:0:0:0:b_drums_v100l32o2b.wav
329,192,30000,1,0,0:0:0:0:b_ch1_piano_00039_bdf.wav
402,192,30000,1,0,0:0:0:0:b_ch2_piano_00025_b.wav
329,192,30187,1,0,0:0:0:0:b_ch1_piano_00039_bdf.wav
402,192,30187,1,0,0:0:0:0:b_ch2_piano_00025_b.wav
182,192,30375,1,0,0:0:0:0:b_drums_v118l32o3d.wav
329,192,30375,1,0,0:0:0:0:b_ch1_piano_00039_bdf.wav
402,192,30375,1,0,0:0:0:0:b_ch2_piano_00025_b.wav
256,192,30562,1,0,0:0:0:0:b_ch1_piano_00040_gpbd.wav
402,192,30562,1,0,0:0:0:0:b_ch2_piano_00026_b.wav
36,192,30750,1,0,0:0:0:0:b_drums_v100l32o2b.wav
36,192,30937,1,0,0:0:0:0:b_drums_v100l32o2b.wav
256,192,30937,1,0,0:0:0:0:b_ch1_piano_00041_gpbd.wav
402,192,30937,1,0,0:0:0:0:b_ch2_piano_00027_b.wav
182,192,31125,1,0,0:0:0:0:b_drums_v114l32o3d.wav
475,192,31125,1,0,0:0:0:0:b_drums_v95l32o3gp.wav
36,192,31312,1,0,0:0:0:0:b_drums_v100l32o2b.wav
109,192,31500,1,0,0:0:0:0:b_drums_v100l32o2b.wav
329,192,31500,1,0,0:0:0:0:b_ch2_piano_00028_dpdpg.wav
256,192,31500,128,0,31875:0:0:0:0:b_ch1_piano_00042_ap.wav
182,192,31875,1,0,0:0:0:0:b_drums_v118l32o3d.wav
475,192,31875,1,0,0:0:0:0:b_drums_v95l32o3gp.wav
329,192,32062,128,0,32437:0:0:0:0:b_ch1_piano_00043_dp.wav
109,192,32250,1,0,0:0:0:0:b_drums_v100l32o2b.wav
109,192,32437,1,0,0:0:0:0:b_drums_v100l32o2b.wav
402,192,32437,128,0,33000:0:0:0:0:b_ch1_piano_00044_g.wav
182,192,32625,1,0,0:0:0:0:b_drums_v114l32o3d.wav
475,192,32625,1,0,0:0:0:0:b_drums_v95l32o3fp.wav
109,192,33000,1,0,0:0:0:0:b_drums_v100l32o2b.wav
475,192,33000,1,0,0:0:0:0:b_ch2_piano_00028_dpdpg.wav
329,192,33000,128,0,33375:0:0:0:0:b_ch1_piano_00045_b.wav
182,192,33375,1,0,0:0:0:0:b_drums_v118l32o3d.wav
475,192,33562,128,0,33937:0:0:0:0:b_ch1_piano_00046_dpg.wav
109,192,33750,1,0,0:0:0:0:b_drums_v100l32o2b.wav
109,192,33937,1,0,0:0:0:0:b_drums_v100l32o2b.wav
182,192,34125,1,0,0:0:0:0:b_drums_v114l32o3d.wav
402,192,34125,1,0,0:0:0:0:b_drums_v95l32o3fp.wav
329,192,34125,128,0,34500:0:0:0:0:b_ch1_piano_00047_b.wav
36,192,34500,1,0,0:0:0:0:b_drums_v100l32o2b.wav
475,192,34500,1,0,0:0:0:0:b_ch2_piano_00028_dpdpg.wav
402,192,34500,128,0,34875:0:0:0:0:b_ch1_piano_00048_c.wav
182,192,34875,1,0,0:0:0:0:b_drums_v118l32o3d.wav
475,192,35062,128,0,35437:0:0:0:0:b_ch1_piano_00049_dpg.wav
36,192,35250,1,0,0:0:0:0:b_drums_v100l32o2b.wav
36,192,35437,1,0,0:0:0:0:b_drums_v100l32o2b.wav
402,192,35437,128,0,35812:0:0:0:0:b_ch1_piano_00050_c.wav
182,192,35625,1,0,0:0:0:0:b_drums_v114l32o3d.wav
329,192,35625,1,0,0:0:0:0:b_drums_v95l32o3fp.wav
36,192,36000,1,0,0:0:0:0:b_drums_v100l32o2b.wav
475,192,36000,1,0,0:0:0:0:b_drums_v95l32o3fp.wav
256,192,36000,128,0,36375:0:0:0:0:b_ch1_piano_00051_apcpdp.wav
329,192,36093,1,0,0:0:0:0:b_drums_v77l32o3fp.wav
475,192,36187,1,0,0:0:0:0:b_drums_v99l32o3fp.wav
329,192,36281,1,0,0:0:0:0:b_drums_v76l32o3fp.wav
182,192,36375,1,0,0:0:0:0:b_drums_v118l32o3d.wav
475,192,36375,1,0,0:0:0:0:b_drums_v95l32o3gp.wav
36,192,36750,1,0,0:0:0:0:b_ch1_piano_00052_g.wav
256,192,36750,1,0,0:0:0:0:b_ch2_piano_00030_eeceg.wav
182,192,36843,1,0,0:0:0:0:b_ch1_piano_00053_c.wav
329,192,36937,1,0,0:0:0:0:b_ch1_piano_00054_e.wav
475,192,37031,1,0,0:0:0:0:b_ch1_piano_00055_c.wav
36,192,37125,1,0,0:0:0:0:b_ch1_piano_00056_e.wav
182,192,37218,1,0,0:0:0:0:b_ch1_piano_00057_c.wav
329,192,37312,1,0,0:0:0:0:b_ch1_piano_00058_e.wav
475,192,37406,1,0,0:0:0:0:b_ch1_piano_00059_g.wav
36,192,37500,1,0,0:0:0:0:b_drums_v100l32o2b.wav
182,192,37500,1,0,0:0:0:0:b_drums_v95l32o4a.wav
256,192,37500,1,0,0:0:0:0:b_ch1_piano_00060_cpfgpc.wav
402,192,37500,1,0,0:0:0:0:b_ch2_piano_00031_cpcp.wav
256,192,37757,1,0,0:0:0:0:b_ch1_piano_00061_cpfgpc.wav
402,192,37757,1,0,0:0:0:0:b_ch2_piano_00032_cpcp.wav
256,192,38062,1,0,0:0:0:0:b_ch1_piano_00061_cpfgpc.wav
402,192,38062,1,0,0:0:0:0:b_ch2_piano_00033_cpcp.wav
109,192,38250,1,0,0:0:0:0:b_drums_v102l32o3d.wav
256,192,38250,1,0,0:0:0:0:b_ch1_piano_00062_cpfgpc.wav
402,192,38250,1,0,0:0:0:0:b_ch2_piano_00034_cpcp.wav
182,192,38625,1,0,0:0:0:0:b_ch1_piano_00063_cegb.wav
329,192,38625,1,0,0:0:0:0:b_ch2_piano_00035_cc.wav
36,192,39000,1,0,0:0:0:0:b_drums_v100l32o2b.wav
256,192,39000,1,0,0:0:0:0:b_ch1_piano_00060_cpfgpc.wav
402,192,39000,1,0,0:0:0:0:b_ch2_piano_00031_cpcp.wav
36,192,39375,1,0,0:0:0:0:b_drums_v100l32o2b.wav
36,192,39750,1,0,0:0:0:0:b_drums_v100l32o2b.wav
475,192,39750,1,0,0:0:0:0:b_drums_v102l32o3d.wav
36,192,40125,1,0,0:0:0:0:b_drums_v100l32o2b.wav
256,192,40406,1,0,0:0:0:0:b_drums_v95l32o3gp.wav
36,192,40500,1,0,0:0:0:0:b_drums_v100l32o2b.wav
329,192,40500,1,0,0:0:0:0:b_ch1_piano_00064_cdpgap.wav
475,192,40500,1,0,0:0:0:0:b_ch2_piano_00036_cc.wav
329,192,40757,1,0,0:0:0:0:b_ch1_piano_00065_cdpgap.wav
475,192,40757,1,0,0:0:0:0:b_ch2_piano_00037_cc.wav
329,192,41062,1,0,0:0:0:0:b_ch1_piano_00066_cdpgap.wav
475,192,41062,1,0,0:0:0:0:b_ch2_piano_00038_cc.wav
109,192,41250,1,0,0:0:0:0:b_drums_v102l32o3d.wav
329,192,41250,1,0,0:0:0:0:b_ch1_piano_00067_cdpgap.wav
475,192,41250,1,0,0:0:0:0:b_ch2_piano_00039_cc.wav
256,192,41625,1,0,0:0:0:0:b_ch1_piano_00068_bdfpa.wav
402,192,41625,1,0,0:0:0:0:b_ch2_piano_00040_bb.wav
36,192,42000,1,0,0:0:0:0:b_drums_v100l32o2b.wav
329,192,42000,1,0,0:0:0:0:b_ch1_piano_00064_cdpgap.wav
475,192,42000,1,0,0:0:0:0:b_ch2_piano_00036_cc.wav
36,192,42375,1,0,0:0:0:0:b_drums_v100l32o2b.wav
329,192,42750,1,0,0:0:0:0:b_drums_v95l32o4a.wav
475,192,42750,1,0,0:0:0:0:b_ch2_piano_00041_cccapdp.wav
182,192,42750,128,0,43125:0:0:0:0:b_drums_v102l32o3d.wav
256,192,43125,1,0,0:0:0:0:b_drums_v95l32o4a.wav
402,192,43125,1,0,0:0:0:0:b_ch2_piano_00042_bbbad.wav
109,192,43125,128,0,43500:0:0:0:0:b_drums_v102l32o3d.wav
36,192,43500,1,0,0:0:0:0:b_drums_v100l32o2b.wav
182,192,43500,1,0,0:0:0:0:b_ch2_piano_00043_apapgp.wav
256,192,43500,1,0,0:0:0:0:b_drums_v95l32o4a.wav
329,192,43500,1,0,0:0:0:0:b_ch1_piano_00069_cpf.wav
475,192,43875,1,0,0:0:0:0:b_drums_v109l32o3d.wav
329,192,44062,1,0,0:0:0:0:b_ch1_piano_00070_cpfgpcp.wav
36,192,44250,1,0,0:0:0:0:b_drums_v100l32o2b.wav
36,192,44437,1,0,0:0:0:0:b_drums_v100l32o2b.wav
329,192,44437,1,0,0:0:0:0:b_ch1_piano_00071_cpfgp.wav
475,192,44625,1,0,0:0:0:0:b_drums_v109l32o3d.wav
329,192,44812,1,0,0:0:0:0:b_ch1_piano_00072_d.wav
109,192,45000,1,0,0:0:0:0:b_drums_v100l32o2b.wav
256,192,45000,1,0,0:0:0:0:b_ch2_piano_00044_ccap.wav
402,192,45000,1,0,0:0:0:0:b_ch1_piano_00073_dpg.wav
475,192,45375,1,0,0:0:0:0:b_drums_v109l32o3d.wav
256,192,45562,1,0,0:0:0:0:b_ch1_piano_00074_apdpgap.wav
109,192,45750,1,0,0:0:0:0:b_drums_v100l32o2b.wav
109,192,45937,1,0,0:0:0:0:b_drums_v100l32o2b.wav
402,192,46125,1,0,0:0:0:0:b_ch1_piano_00075_apdp.wav
475,192,46125,1,0,0:0:0:0:b_drums_v109l32o3d.wav
109,192,46312,1,0,0:0:0:0:b_drums_v100l32o2b.wav
256,192,46312,1,0,0:0:0:0:b_ch1_piano_00076_dpg.wav
182,192,46500,1,0,0:0:0:0:b_drums_v100l32o2b.wav
329,192,46500,1,0,0:0:0:0:b_ch2_piano_00045_cpcpc.wav
475,192,46500,1,0,0:0:0:0:b_ch1_piano_00077_cpfgpc.wav
475,192,46875,1,0,0:0:0:0:b_drums_v109l32o3d.wav
402,192,47062,1,0,0:0:0:0:b_ch1_piano_00078_cpfgpc.wav
182,192,47250,1,0,0:0:0:0:b_drums_v100l32o2b.wav
182,192,47437,1,0,0:0:0:0:b_drums_v100l32o2b.wav
402,192,47437,1,0,0:0:0:0:b_ch1_piano_00077_cpfgpc.wav
475,192,47625,1,0,0:0:0:0:b_drums_v109l32o3d.wav
36,192,48000,1,0,0:0:0:0:b_drums_v100l32o2b.wav
182,192,48000,1,0,0:0:0:0:b_ch1_piano_00079_fgp.wav
329,192,48000,1,0,0:0:0:0:b_ch2_piano_00046_ddc.wav
475,192,48375,1,0,0:0:0:0:b_drums_v109l32o3d.wav
329,192,48562,1,0,0:0:0:0:b_ch5_bass_v90l32_3o3gp.wav
402,192,48562,1,0,0:0:0:0:b_ch1_piano_00080_gpcf.wav
36,192,48750,1,0,0:0:0:0:b_drums_v100l32o2b.wav
36,192,48937,1,0,0:0:0:0:b_drums_v100l32o2b.wav
329,192,48937,1,0,0:0:0:0:b_ch1_piano_00081_c.wav
256,192,49125,1,0,0:0:0:0:b_ch1_piano_00082_gp.wav
475,192,49125,1,0,0:0:0:0:b_drums_v109l32o3d.wav
36,192,49312,1,0,0:0:0:0:b_drums_v100l32o2b.wav
182,192,49312,1,0,0:0:0:0:b_ch1_piano_00083_f.wav
329,192,49500,128,0,49687:0:0:0:0:b_ch1_piano_00084_gpdpapdp.wav
475,192,49500,128,0,49687:0:0:0:0:b_ch2_piano_00047_dpdp.wav
329,192,49875,128,0,50062:0:0:0:0:b_ch1_piano_00084_gpdpapdp.wav
475,192,49875,128,0,50062:0:0:0:0:b_ch2_piano_00047_dpdp.wav
36,192,50062,1,0,0:0:0:0:b_drums_v100l32o2b.wav
329,192,50250,128,0,50437:0:0:0:0:b_ch1_piano_00084_gpdpapdp.wav
475,192,50250,128,0,50437:0:0:0:0:b_ch2_piano_00047_dpdp.wav
36,192,50437,1,0,0:0:0:0:b_drums_v100l32o2b.wav
36,192,50531,1,0,0:0:0:0:b_drums_v100l32o2b.wav
329,192,50625,128,0,50812:0:0:0:0:b_ch1_piano_00084_gpdpapdp.wav
475,192,50625,128,0,50812:0:0:0:0:b_ch2_piano_00047_dpdp.wav
36,192,50812,1,0,0:0:0:0:b_drums_v100l32o2b.wav
256,192,51000,128,0,51187:0:0:0:0:b_ch1_piano_00085_gdpapdp.wav
402,192,51000,128,0,51187:0:0:0:0:b_ch2_piano_00048_dpdp.wav
475,192,51000,128,0,51187:0:0:0:0:b_drums_v109l32o3d.wav
109,192,51375,1,0,0:0:0:0:b_ch2_piano_00049_dpdp.wav
256,192,52125,1,0,0:0:0:0:b_drums_v109l32o3g.wav
36,192,52500,1,0,0:0:0:0:b_drums_v101l32o2b.wav
256,192,52500,1,0,0:0:0:0:b_drums_v105l32o4a.wav
402,192,52500,1,0,0:0:0:0:b_ch2_piano_00050_gpgpdpg.wav
475,192,52500,128,0,53062:0:0:0:0:b_ch1_piano_00086_cdpg.wav
109,192,52875,1,0,0:0:0:0:b_drums_v109l32o3d.wav
182,192,52875,1,0,0:0:0:0:b_ch1_piano_00087_g.wav
329,192,53062,128,0,53625:0:0:0:0:b_ch1_piano_00088_dpgc.wav
36,192,53250,1,0,0:0:0:0:b_drums_v101l32o2b.wav
182,192,53437,1,0,0:0:0:0:b_ch2_piano_00051_dp.wav
402,192,53437,128,0,53625:0:0:0:0:b_ch1_piano_00089_cdp.wav
109,192,53625,1,0,0:0:0:0:b_drums_v109l32o3d.wav
36,192,54000,1,0,0:0:0:0:b_drums_v101l32o2b.wav
329,192,54000,1,0,0:0:0:0:b_ch1_piano_00090_b.wav
402,192,54000,128,0,54562:0:0:0:0:b_ch2_piano_00052_gpdpg.wav
109,192,54375,1,0,0:0:0:0:b_drums_v109l32o3d.wav
256,192,54562,128,0,55125:0:0:0:0:b_ch1_piano_00091_dpb.wav
36,192,54750,1,0,0:0:0:0:b_drums_v101l32o2b.wav
402,192,54937,1,0,0:0:0:0:b_ch1_piano_00092_dpg.wav
329,192,54937,128,0,55125:0:0:0:0:b_ch2_piano_00053_b.wav
109,192,55125,1,0,0:0:0:0:b_drums_v109l32o3d.wav
475,192,55125,1,0,0:0:0:0:1_9_54850_G6.ogg
36,192,55500,1,0,0:0:0:0:b_drums_v101l32o2b.wav
256,192,55500,1,0,0:0:0:0:b_ch2_piano_00054_ggd.wav
402,192,55500,128,0,56062:0:0:0:0:b_ch1_piano_00093_apdf.wav
109,192,55875,1,0,0:0:0:0:b_ch1_piano_00094_ap.wav
182,192,55875,1,0,0:0:0:0:b_drums_v109l32o3d.wav
329,192,56062,1,0,0:0:0:0:b_ch5_bass_v90l32_3o3g.wav
475,192,56062,128,0,56625:0:0:0:0:b_ch1_piano_00095_dap.wav
36,192,56250,1,0,0:0:0:0:b_drums_v101l32o2b.wav
109,192,56437,1,0,0:0:0:0:b_ch2_piano_00055_ap.wav
402,192,56437,128,0,56625:0:0:0:0:b_ch1_piano_00096_df.wav
182,192,56625,1,0,0:0:0:0:b_drums_v109l32o3d.wav
36,192,57000,1,0,0:0:0:0:b_drums_v101l32o2b.wav
109,192,57000,128,0,57750:0:0:0:0:b_ch2_piano_00056_fpfp.wav
182,192,57375,1,0,0:0:0:0:b_drums_v109l32o3d.wav
329,192,57562,1,0,0:0:0:0:b_ch5_bass_v90l32_3o3fp.wav
402,192,57562,128,0,57937:0:0:0:0:b_ch1_piano_00098_ca.wav
36,192,57750,1,0,0:0:0:0:b_drums_v101l32o2b.wav
182,192,57937,1,0,0:0:0:0:b_ch2_piano_00057_a.wav
475,192,57937,1,0,0:0:0:0:1_9_57850_C6.ogg
256,192,57937,128,0,58125:0:0:0:0:b_ch1_piano_00099_cfp.wav
182,192,58125,1,0,0:0:0:0:b_drums_v109l32o3d.wav
329,192,58125,1,0,0:0:0:0:b_drums_v105l32o3ap.wav
475,192,58125,1,0,0:0:0:0:1_9_57950_C6.ogg
182,192,58406,1,0,0:0:0:0:b_ch1_piano_00100_c.wav
109,192,58453,1,0,0:0:0:0:b_ch1_piano_00101_g.wav
256,192,58500,1,0,0:0:0:0:b_drums_v105l32o4a.wav
329,192,58500,1,0,0:0:0:0:b_drums_v109l32o4b.wav
475,192,58500,1,0,0:0:0:0:b_drums_v101l32o2b.wav
36,192,58500,128,0,59625:0:0:0:0:b_ch2_piano_00058_ffcfc.wav
329,192,58875,1,0,0:0:0:0:b_drums_v109l32o4b.wav
402,192,58875,1,0,0:0:0:0:b_drums_v109l32o3d.wav
182,192,59062,128,0,59625:0:0:0:0:b_ch1_piano_00102_fc.wav
256,192,59250,1,0,0:0:0:0:b_drums_v109l32o4b.wav
475,192,59250,1,0,0:0:0:0:b_drums_v101l32o2b.wav
329,192,59437,1,0,0:0:0:0:b_ch2_piano_00059_gp.wav
109,192,59437,128,0,59625:0:0:0:0:b_ch1_piano_00103_cdp.wav
256,192,59625,1,0,0:0:0:0:b_drums_v109l32o4b.wav
402,192,59625,1,0,0:0:0:0:b_drums_v109l32o3d.wav
109,192,60000,1,0,0:0:0:0:b_ch2_piano_00060_bb.wav
182,192,60000,1,0,0:0:0:0:b_drums_v109l32o4b.wav
475,192,60000,1,0,0:0:0:0:b_drums_v101l32o2b.wav
256,192,60000,128,0,61125:0:0:0:0:b_ch1_piano_00104_gdf.wav
109,192,60375,1,0,0:0:0:0:b_drums_v109l32o4b.wav
402,192,60375,1,0,0:0:0:0:b_drums_v109l32o3d.wav
36,192,60562,128,0,61125:0:0:0:0:b_ch1_piano_00105_b.wav
182,192,60750,1,0,0:0:0:0:b_drums_v109l32o4b.wav
475,192,60750,1,0,0:0:0:0:b_drums_v101l32o2b.wav
109,192,60937,1,0,0:0:0:0:b_ch2_piano_00061_g.wav
329,192,60937,128,0,61125:0:0:0:0:b_ch1_piano_00106_dg.wav
182,192,61125,1,0,0:0:0:0:b_drums_v109l32o4b.wav
402,192,61125,1,0,0:0:0:0:b_drums_v109l32o3d.wav
36,192,61406,1,0,0:0:0:0:b_ch1_piano_00107_f.wav
109,192,61453,1,0,0:0:0:0:b_ch1_piano_00108_dp.wav
329,192,61500,1,0,0:0:0:0:b_drums_v109l32o4b.wav
475,192,61500,1,0,0:0:0:0:b_drums_v101l32o2b.wav
182,192,61500,128,0,62625:0:0:0:0:b_ch2_piano_00062_ccgap.wav
256,192,61875,1,0,0:0:0:0:b_drums_v109l32o4b.wav
329,192,61875,1,0,0:0:0:0:b_drums_v109l32o3d.wav
109,192,62062,1,0,0:0:0:0:b_ch5_bass_v90l32_3o4c.wav
402,192,62062,128,0,62625:0:0:0:0:b_ch1_piano_00109_dpap.wav
36,192,62250,1,0,0:0:0:0:b_drums_v109l32o4b.wav
475,192,62250,1,0,0:0:0:0:b_drums_v101l32o2b.wav
256,192,62437,1,0,0:0:0:0:b_ch2_piano_00061_g.wav
329,192,62437,128,0,62625:0:0:0:0:b_ch1_piano_00092_dpg.wav
36,192,62625,1,0,0:0:0:0:b_drums_v109l32o4b.wav
475,192,62625,1,0,0:0:0:0:b_drums_v109l32o3d.wav
109,192,63000,1,0,0:0:0:0:b_ch1_piano_00110_gpcpf.wav
182,192,63000,1,0,0:0:0:0:b_ch2_piano_00063_apap.wav
475,192,63000,1,0,0:0:0:0:b_drums_v101l32o2b.wav
109,192,63375,1,0,0:0:0:0:b_ch1_piano_00111_fgpcp.wav
182,192,63375,1,0,0:0:0:0:b_ch2_piano_00063_apap.wav
402,192,63375,1,0,0:0:0:0:b_drums_v118l32o3d.wav
36,192,63750,1,0,0:0:0:0:b_ch2_piano_00064_dpdpap.wav
182,192,63750,1,0,0:0:0:0:b_ch1_piano_00112_gpdpg.wav
329,192,63750,1,0,0:0:0:0:b_drums_v95l32o3g.wav
475,192,63750,1,0,0:0:0:0:b_drums_v40l32o3d.wav
475,192,63937,1,0,0:0:0:0:b_drums_v60l32o3d.wav
329,192,64031,1,0,0:0:0:0:b_drums_v69l32o3e.wav
36,192,64125,1,0,0:0:0:0:b_ch2_piano_00065_dpdp.wav
182,192,64125,1,0,0:0:0:0:b_ch1_piano_00113_cpgap.wav
475,192,64125,1,0,0:0:0:0:b_drums_v79l32o3d.wav
329,192,64218,1,0,0:0:0:0:b_drums_v89l32o3e.wav
475,192,64312,1,0,0:0:0:0:b_drums_v99l32o3d.wav
329,192,64406,1,0,0:0:0:0:b_drums_v109l32o3e.wav
36,192,64500,1,0,0:0:0:0:b_drums_v101l32o2b.wav
109,192,64500,1,0,0:0:0:0:b_ch1_piano_00114_cdpg.wav
256,192,64500,1,0,0:0:0:0:b_drums_v105l32o4a.wav
475,192,64500,128,0,64875:0:0:0:0:b_ch2_piano_00066_aag.wav
329,192,64687,1,0,0:0:0:0:b_ch1_piano_00115_a.wav
182,192,64875,1,0,0:0:0:0:b_drums_v109l32o3d.wav
402,192,64875,1,0,0:0:0:0:b_ch1_piano_00116_c.wav
475,192,65062,1,0,0:0:0:0:b_ch1_piano_00117_dp.wav
36,192,65250,1,0,0:0:0:0:b_drums_v104l32o2b.wav
256,192,65250,1,0,0:0:0:0:b_drums_v109l32o4b.wav
329,192,65437,128,0,65812:0:0:0:0:b_ch2_piano_00067_c.wav
475,192,65437,128,0,65812:0:0:0:0:b_ch1_piano_00118_dpg.wav
182,192,65625,1,0,0:0:0:0:b_drums_v109l32o3d.wav
402,192,65812,1,0,0:0:0:0:b_ch1_piano_00116_c.wav
36,192,66000,1,0,0:0:0:0:b_drums_v101l32o2b.wav
109,192,66000,1,0,0:0:0:0:b_ch2_piano_00068_gpgpdp.wav
329,192,66000,1,0,0:0:0:0:b_ch1_piano_00119_bdpf.wav
256,192,66187,1,0,0:0:0:0:b_ch1_piano_00087_g.wav
182,192,66375,1,0,0:0:0:0:b_drums_v109l32o3d.wav
329,192,66375,1,0,0:0:0:0:b_ch1_piano_00120_b.wav
402,192,66562,1,0,0:0:0:0:b_ch1_piano_00117_dp.wav
36,192,66750,1,0,0:0:0:0:b_drums_v101l32o2b.wav
256,192,66750,1,0,0:0:0:0:b_drums_v109l32o4b.wav
109,192,66937,1,0,0:0:0:0:b_ch1_piano_00087_g.wav
402,192,66937,128,0,67125:0:0:0:0:b_ch5_bass_v90l32_3o4dp.wav
182,192,67125,1,0,0:0:0:0:b_drums_v109l32o3d.wav
329,192,67125,1,0,0:0:0:0:b_ch1_piano_00121_b.wav
475,192,67125,1,0,0:0:0:0:1_9_66850_G6.ogg
109,192,67500,1,0,0:0:0:0:b_drums_v101l32o2b.wav
402,192,67500,1,0,0:0:0:0:b_ch1_piano_00122_apcpf.wav
36,192,67500,128,0,68062:0:0:0:0:b_ch2_piano_00069_ggcp.wav
329,192,67687,1,0,0:0:0:0:b_ch1_piano_00087_g.wav
182,192,67875,1,0,0:0:0:0:b_drums_v109l32o3d.wav
475,192,67875,1,0,0:0:0:0:b_ch1_piano_00094_ap.wav
329,192,68062,128,0,68437:0:0:0:0:b_ch1_piano_00123_cp.wav
109,192,68250,1,0,0:0:0:0:b_drums_v101l32o2b.wav
256,192,68250,1,0,0:0:0:0:b_drums_v109l32o4b.wav
402,192,68437,1,0,0:0:0:0:b_ch1_piano_00124_cpf.wav
475,192,68437,1,0,0:0:0:0:b_ch2_piano_00055_ap.wav
182,192,68625,1,0,0:0:0:0:b_drums_v109l32o3d.wav
36,192,69000,1,0,0:0:0:0:b_drums_v101l32o2b.wav
475,192,69000,1,0,0:0:0:0:b_ch1_piano_00125_cpf.wav
182,192,69375,1,0,0:0:0:0:b_drums_v109l32o3d.wav
475,192,69375,1,0,0:0:0:0:b_ch1_piano_00125_cpf.wav
36,192,69750,1,0,0:0:0:0:b_drums_v101l32o2b.wav
329,192,69750,1,0,0:0:0:0:b_ch1_piano_00126_cf.wav
182,192,69937,1,0,0:0:0:0:b_drums_v109l32o3d.wav
475,192,69937,1,0,0:0:0:0:1_9_69850_G6.ogg
109,192,70125,1,0,0:0:0:0:b_drums_v109l32o3d.wav
329,192,70125,1,0,0:0:0:0:b_ch1_piano_00126_cf.wav
402,192,70125,1,0,0:0:0:0:b_drums_v105l32o4e.wav
475,192,70125,1,0,0:0:0:0:1_9_69950_G6.ogg
36,192,70312,1,0,0:0:0:0:b_drums_v101l32o2b.wav
109,192,70500,1,0,0:0:0:0:b_drums_v75l32o3d.wav
256,192,70500,1,0,0:0:0:0:b_drums_v105l32o4a.wav
402,192,70500,1,0,0:0:0:0:b_ch1_piano_00127_apdpgp.wav
109,192,70875,1,0,0:0:0:0:b_drums_v91l32o3d.wav
402,192,70875,1,0,0:0:0:0:b_ch1_piano_00127_apdpgp.wav
109,192,71250,1,0,0:0:0:0:b_drums_v98l32o3d.wav
402,192,71250,1,0,0:0:0:0:b_ch1_piano_00127_apdpgp.wav
256,192,71437,1,0,0:0:0:0:b_drums_v101l32o2b.wav
109,192,71625,1,0,0:0:0:0:b_drums_v106l32o3d.wav
402,192,71625,1,0,0:0:0:0:b_ch1_piano_00127_apdpgp.wav
256,192,71812,1,0,0:0:0:0:b_drums_v101l32o2b.wav
182,192,72000,1,0,0:0:0:0:b_drums_v99l32o3d.wav
475,192,72000,1,0,0:0:0:0:b_ch1_piano_00128_dfap.wav
182,192,72375,1,0,0:0:0:0:b_drums_v100l32o3d.wav
475,192,72375,1,0,0:0:0:0:b_ch1_piano_00128_dfap.wav
329,192,72562,1,0,0:0:0:0:b_drums_v101l32o2b.wav
182,192,72750,1,0,0:0:0:0:b_drums_v101l32o3d.wav
475,192,72750,1,0,0:0:0:0:b_ch1_piano_00128_dfap.wav
329,192,72937,1,0,0:0:0:0:b_drums_v101l32o2b.wav
182,192,73125,1,0,0:0:0:0:b_drums_v106l32o3d.wav
475,192,73125,1,0,0:0:0:0:b_ch1_piano_00128_dfap.wav
329,192,73312,1,0,0:0:0:0:b_drums_v101l32o2b.wav
36,192,73500,1,0,0:0:0:0:b_drums_v99l32o3d.wav
256,192,73500,1,0,0:0:0:0:b_drums_v105l32o4a.wav
402,192,73500,1,0,0:0:0:0:b_ch1_piano_00129_dpfpb.wav
36,192,73875,1,0,0:0:0:0:b_drums_v100l32o3d.wav
402,192,73875,1,0,0:0:0:0:b_ch1_piano_00129_dpfpb.wav
36,192,74250,1,0,0:0:0:0:b_drums_v101l32o3d.wav
402,192,74250,1,0,0:0:0:0:b_ch1_piano_00129_dpfpb.wav
256,192,74437,1,0,0:0:0:0:b_drums_v101l32o2b.wav
36,192,74625,1,0,0:0:0:0:b_drums_v106l32o3d.wav
402,192,74625,1,0,0:0:0:0:b_ch1_piano_00129_dpfpb.wav
256,192,74812,1,0,0:0:0:0:b_drums_v101l32o2b.wav
36,192,75000,1,0,0:0:0:0:b_drums_v109l32o3d.wav
402,192,75000,1,0,0:0:0:0:b_ch2_piano_00074_apap.wav
475,192,75000,1,0,0:0:0:0:b_ch1_piano_00130_dpfapdp.wav
109,192,75375,1,0,0:0:0:0:b_drums_v109l32o3d.wav
329,192,75375,1,0,0:0:0:0:b_ch1_piano_00131_ap.wav
402,192,75562,1,0,0:0:0:0:b_ch1_piano_00132_fapdp.wav
475,192,75562,1,0,0:0:0:0:b_ch2_piano_00075_ap.wav
109,192,75750,1,0,0:0:0:0:b_drums_v109l32o3d.wav
109,192,75937,1,0,0:0:0:0:b_drums_v60l32o3d.wav
329,192,75937,1,0,0:0:0:0:b_ch1_piano_00131_ap.wav
182,192,76031,1,0,0:0:0:0:b_drums_v69l32o3e.wav
109,192,76125,1,0,0:0:0:0:b_drums_v79l32o3d.wav
402,192,76125,1,0,0:0:0:0:b_ch1_piano_00133_fapdp.wav
475,192,76125,1,0,0:0:0:0:b_ch2_piano_00076_ap.wav
182,192,76218,1,0,0:0:0:0:b_drums_v89l32o3e.wav
109,192,76312,1,0,0:0:0:0:b_drums_v99l32o3d.wav
329,192,76312,1,0,0:0:0:0:b_ch1_piano_00131_ap.wav
182,192,76406,1,0,0:0:0:0:b_drums_v109l32o3e.wav
36,192,76500,1,0,0:0:0:0:b_drums_v101l32o2b.wav
256,192,76500,1,0,0:0:0:0:b_ch2_piano_00077_apap.wav
475,192,76500,1,0,0:0:0:0:b_ch1_piano_00134_fapd.wav
256,192,77953,1,0,0:0:0:0:b_ch16_electricguitar_00008_gp.wav
329,192,77976,1,0,0:0:0:0:b_ch16_electricguitar_00009_dp.wav
36,192,78000,1,0,0:0:0:0:b_drums_v101l32o2b.wav
402,192,78000,1,0,0:0:0:0:b_ch16_electricguitar_00010_c.wav
475,192,78023,1,0,0:0:0:0:b_ch16_electricguitar_00011_ap.wav
182,192,78375,1,0,0:0:0:0:b_drums_v109l32o3d.wav
475,192,78562,1,0,0:0:0:0:b_ch1_piano_00135_ap.wav
36,192,78750,1,0,0:0:0:0:b_drums_v101l32o2b.wav
36,192,78937,1,0,0:0:0:0:b_drums_v101l32o2b.wav
402,192,79125,1,0,0:0:0:0:b_ch1_piano_00135_ap.wav
182,192,79312,1,0,0:0:0:0:b_drums_v109l32o3d.wav
475,192,79312,1,0,0:0:0:0:b_ch1_piano_00136_ap.wav
36,192,79687,1,0,0:0:0:0:b_drums_v101l32o2b.wav
182,192,79875,1,0,0:0:0:0:b_drums_v109l32o3d.wav
475,192,79875,1,0,0:0:0:0:b_ch1_piano_00136_ap.wav
36,192,80250,1,0,0:0:0:0:b_drums_v101l32o2b.wav
402,192,80250,1,0,0:0:0:0:b_ch1_piano_00135_ap.wav
109,192,80437,1,0,0:0:0:0:b_drums_v101l32o2b.wav
182,192,80625,1,0,0:0:0:0:b_drums_v109l32o3d.wav
329,192,80625,1,0,0:0:0:0:b_ch5_bass_v90l32_3o3ap.wav
402,192,80812,1,0,0:0:0:0:b_ch5_bass_v90l32_3o3b.wav
36,192,81000,1,0,0:0:0:0:b_drums_v101l32o2b.wav
475,192,81000,1,0,0:0:0:0:b_ch16_electricguitar_00012_cgdpfap.wav
182,192,81375,1,0,0:0:0:0:b_drums_v109l32o3d.wav
475,192,81375,1,0,0:0:0:0:b_ch1_piano_00135_ap.wav
36,192,81750,1,0,0:0:0:0:b_drums_v101l32o2b.wav
109,192,81937,1,0,0:0:0:0:b_drums_v101l32o2b.wav
402,192,81937,1,0,0:0:0:0:b_ch1_piano_00135_ap.wav
182,192,82312,1,0,0:0:0:0:b_drums_v109l32o3d.wav
329,192,82500,1,0,0:0:0:0:b_ch1_piano_00135_ap.wav
36,192,82687,1,0,0:0:0:0:b_drums_v101l32o2b.wav
182,192,82875,1,0,0:0:0:0:b_drums_v109l32o3d.wav
329,192,83062,1,0,0:0:0:0:b_ch1_piano_00135_ap.wav
36,192,83250,1,0,0:0:0:0:b_drums_v101l32o2b.wav
36,192,83437,1,0,0:0:0:0:b_drums_v101l32o2b.wav
182,192,83625,1,0,0:0:0:0:b_drums_v109l32o3d.wav
475,192,83625,1,0,0:0:0:0:b_ch1_piano_00135_ap.wav
109,192,83906,1,0,0:0:0:0:b_drums_v100l32o3fp.wav
256,192,83953,1,0,0:0:0:0:b_ch16_electricguitar_00013_g.wav
329,192,83976,1,0,0:0:0:0:b_ch16_electricguitar_00014_d.wav
36,192,84000,1,0,0:0:0:0:b_drums_v101l32o2b.wav
402,192,84000,1,0,0:0:0:0:b_ch16_electricguitar_00015_apf.wav
475,192,84023,1,0,0:0:0:0:b_ch16_electricguitar_00016_ap.wav
182,192,84375,1,0,0:0:0:0:b_drums_v109l32o3d.wav
36,192,84750,1,0,0:0:0:0:b_drums_v101l32o2b.wav
109,192,84937,1,0,0:0:0:0:b_drums_v101l32o2b.wav
402,192,84937,1,0,0:0:0:0:b_ch1_piano_00136_ap.wav
182,192,85312,1,0,0:0:0:0:b_drums_v109l32o3d.wav
475,192,85312,1,0,0:0:0:0:b_ch16_electricguitar_00017_d.wav
36,192,85687,1,0,0:0:0:0:b_drums_v101l32o2b.wav
402,192,85687,1,0,0:0:0:0:b_ch16_electricguitar_00018_ap.wav
182,192,85875,1,0,0:0:0:0:b_drums_v109l32o3d.wav
329,192,86062,1,0,0:0:0:0:b_ch16_electricguitar_00019_f.wav
36,192,86250,1,0,0:0:0:0:b_drums_v101l32o2b.wav
36,192,86437,1,0,0:0:0:0:b_drums_v101l32o2b.wav
182,192,86625,1,0,0:0:0:0:b_drums_v109l32o3d.wav
475,192,86625,1,0,0:0:0:0:b_ch1_piano_00136_ap.wav
475,192,86906,1,0,0:0:0:0:b_ch16_electricguitar_00020_dp.wav
402,192,86953,1,0,0:0:0:0:b_ch16_electricguitar_00021_c.wav
329,192,86976,1,0,0:0:0:0:b_ch16_electricguitar_00022_fap.wav
36,192,87000,1,0,0:0:0:0:b_drums_v101l32o2b.wav
256,192,87000,1,0,0:0:0:0:b_ch16_electricguitar_00023_fgc.wav
182,192,87375,1,0,0:0:0:0:b_drums_v109l32o3d.wav
402,192,87562,1,0,0:0:0:0:b_ch1_piano_00135_ap.wav
36,192,87750,1,0,0:0:0:0:b_drums_v101l32o2b.wav
36,192,87937,1,0,0:0:0:0:b_drums_v101l32o2b.wav
402,192,88125,1,0,0:0:0:0:b_ch1_piano_00135_ap.wav
182,192,88312,1,0,0:0:0:0:b_drums_v109l32o3d.wav
329,192,88312,1,0,0:0:0:0:b_ch1_piano_00138_ap.wav
402,192,88500,1,0,0:0:0:0:b_ch1_piano_00139_dp.wav
36,192,88687,1,0,0:0:0:0:b_drums_v101l32o2b.wav
475,192,88687,1,0,0:0:0:0:b_ch1_piano_00140_ap.wav
182,192,88875,1,0,0:0:0:0:b_drums_v109l32o3d.wav
329,192,88875,1,0,0:0:0:0:b_ch1_piano_00141_ap.wav
402,192,89062,1,0,0:0:0:0:b_ch1_piano_00142_dp.wav
36,192,89250,1,0,0:0:0:0:b_drums_v101l32o2b.wav
475,192,89250,1,0,0:0:0:0:b_ch1_piano_00143_ap.wav
36,192,89437,1,0,0:0:0:0:b_drums_v101l32o2b.wav
402,192,89437,1,0,0:0:0:0:b_ch1_piano_00144_gp.wav
182,192,89625,1,0,0:0:0:0:b_drums_v109l32o3d.wav
329,192,89625,1,0,0:0:0:0:b_ch2_piano_00078_fcdpapdpgpap.wav
475,192,89625,1,0,0:0:0:0:b_drums_v109l32o3gp.wav
182,192,89812,1,0,0:0:0:0:b_drums_v109l32o3d.wav
329,192,89812,1,0,0:0:0:0:b_ch2_piano_00079_fcdpapdpgpap.wav
475,192,89812,1,0,0:0:0:0:b_drums_v109l32o3gp.wav
