osu file format v13

[General]
AudioFilename: Hanata.mp3
AudioLeadIn: 1500
PreviewTime: 50319
Countdown: 0
SampleSet: Soft
StackLeniency: 0.7
Mode: 0
LetterboxInBreaks: 0
WidescreenStoryboard: 0

[Editor]
Bookmarks: 13029,28757,70382,81279,88591
DistanceSpacing: 1.1
BeatDivisor: 4
GridSize: 4
TimelineZoom: 1.7

[Metadata]
Title:Hana wa Odore ya Irohaniho (TVsize)
TitleUnicode:花ハ踊レヤいろはにほ (TVsize)
Artist:Team "Hanayamata"
ArtistUnicode:チーム "ハナヤマタ"
Creator:Sekai-nyan
Version:Easy
Source:ハナヤマタ
Tags:TV Size Naru Sekiya Reina Ueda Yaya Sasame Kaya Okuno Hana N. Fontainestand Minami Tanaka Tami Nishigomon Yuka Ootsubo Machi Manami Numakura Hana Yamata Hanayamata opening Vicho Vicho-kun Fycho No Dap No_Dap Sekai
BeatmapID:455173
BeatmapSetID:191196

[Difficulty]
HPDrainRate:2
CircleSize:3
OverallDifficulty:2
ApproachRate:3
SliderMultiplier:0.799999999999999
SliderTickRate:1

[Events]
//Background and Video events
Video,0,"Video.avi"
0,0,"moe.jpg",0,0
//Break Periods
//Storyboard Layer 0 (Background)
//Storyboard Layer 1 (Fail)
//Storyboard Layer 2 (Pass)
//Storyboard Layer 3 (Foreground)
//Storyboard Sound Samples
//Background Colour Transformations
3,100,163,162,255

[TimingPoints]
257,375,4,2,2,60,1,0
12444,-100,4,2,2,60,0,0
14319,-100,4,2,2,60,0,0
14413,-100,4,2,2,60,0,0
16757,-100,4,2,2,60,0,0
16850,-100,4,2,2,60,0,0
17507,-100,4,2,2,60,0,0
17600,-100,4,2,2,60,0,0
18819,-100,4,2,2,60,0,0
18913,-100,4,2,2,60,0,0
20319,-100,4,2,2,60,0,0
20413,-100,4,2,2,60,0,0
21257,-100,4,2,2,60,0,0
21350,-100,4,2,2,60,0,0
22757,-100,4,2,2,60,0,0
51257,-100,4,2,2,70,0,1
69257,-100,4,2,2,60,0,0
76757,-100,4,2,2,50,0,0

[Colours]
Combo1 : 255,242,146
Combo2 : 254,191,212
Combo3 : 252,228,242
Combo4 : 185,229,254
Combo5 : 126,171,255
Combo6 : 209,50,88
Combo7 : 71,173,123
Combo8 : 171,240,209

[HitObjects]
92,192,257,6,0,P|160:192|224:132,1,160,2|0,0:0|0:0,0:0:0:0:
388,192,1757,2,0,P|320:192|256:252,1,160,2|2,0:0|0:0,0:0:0:0:
432,268,3257,6,0,P|472:204|440:120,1,160,2|0,0:0|0:0,0:0:0:0:
292,44,4757,2,0,P|252:108|284:192,1,160,2|2,0:0|0:0,0:0:0:0:
152,308,6257,6,0,P|108:320|40:296,2,120,4|8|8,0:0|0:0|0:0,0:0:0:0:
176,224,7757,2,0,P|220:212|288:236,2,120,8|8|8,0:0|0:0|0:0,0:0:0:0:
96,192,9257,6,0,P|72:120|120:40,1,160,12|8,0:0|0:0,0:0:0:0:
196,48,10382,1,8,0:0:0:0:
284,52,10757,2,0,L|372:60,1,79.9999999999999,8|12,0:0|0:0,0:0:0:0:
376,148,11507,2,0,L|288:140,2,79.9999999999999,8|8|4,0:0|0:0|0:0,0:0:0:0:
420,224,12632,6,0,P|416:292|344:352,1,160,8|8,0:1|0:1,0:0:0:0:
264,336,13757,2,0,P|220:316|144:340,2,120,8|2|8,0:1|0:0|0:1,0:0:0:0:
316,264,15257,6,0,B|316:216|336:188|336:188|312:148|312:104,1,160,8|8,0:1|0:1,0:0:0:0:
244,60,16382,1,8,0:1:0:0:
160,40,16757,2,0,L|84:72,1,79.9999999999999,10|8,0:1|0:1,0:0:0:0:
84,160,17507,2,0,L|160:128,1,79.9999999999999,10|8,0:1|0:1,0:0:0:0:
220,192,18257,6,0,P|268:192|328:140,2,120,10|2|8,0:1|0:0|0:1,0:0:0:0:
168,264,19757,2,0,P|168:312|220:372,2,120,10|2|8,0:1|0:0|0:1,0:0:0:0:
124,188,21257,5,10,0:1:0:0:
256,72,22007,1,2,0:0:0:0:
388,188,22757,2,0,P|422:257|390:327,1,160,4|2,0:0|0:0,0:0:0:0:
308,292,23882,1,8,0:0:0:0:
288,208,24257,6,0,P|252:208|200:180,1,79.9999999999999,4|8,0:0|0:0,0:0:0:0:
192,104,25007,2,0,P|228:104|280:132,2,79.9999999999999,2|8|10,0:0|0:0|0:1,0:0:0:0:
108,76,26132,1,8,0:0:0:0:
40,132,26507,2,0,P|44:168|32:212,1,79.9999999999999,8|8,0:1|0:0,0:0:0:0:
80,284,27257,6,0,P|128:340|208:332,1,160,10|0,0:1|0:0,0:0:0:0:
256,256,28382,1,8,0:0:0:0:
304,332,28757,2,0,P|380:341|432:284,1,160,10|8,0:1|0:1,0:0:0:0:
428,196,29882,1,8,0:0:0:0:
432,108,30257,6,0,B|368:108|368:108|320:68,2,120,4|2|8,0:0|0:0|0:0,0:0:0:0:
428,196,31757,2,0,B|364:196|364:196|316:236,2,120,10|2|8,0:1|0:0|0:0,0:0:0:0:
392,276,33257,6,0,P|324:316|252:268,1,160,10|8,0:1|0:1,0:0:0:0:
256,192,34382,1,8,0:0:0:0:
188,136,34757,2,0,P|111:138|73:206,2,160,10|8|6,0:1|0:0|0:0,0:0:0:0:
256,80,36632,6,0,P|308:64|344:64,1,79.9999999999999,10|8,0:1|0:0,0:0:0:0:
416,28,37382,1,10,0:1:0:0:
420,116,37757,2,0,P|412:144|424:196,1,79.9999999999999,10|8,0:1|0:1,0:0:0:0:
364,256,38507,2,0,P|396:272|448:272,2,79.9999999999999,10|8|10,0:0|0:1|0:1,0:0:0:0:
304,192,39632,6,0,L|248:256,1,79.9999999999999,10|8,0:1|0:0,0:0:0:0:
200,324,40382,1,10,0:1:0:0:
144,256,40757,2,0,L|96:184,1,79.9999999999999,10|8,0:1|0:1,0:0:0:0:
148,116,41507,2,0,L|196:188,1,79.9999999999999,12|12,0:0|0:0,0:0:0:0:
252,248,42257,6,0,P|308:268|372:236,2,120,4|2|8,0:0|0:0|0:0,0:0:0:0:
308,180,43757,2,0,P|362:158|417:178,2,120,10|2|8,0:1|0:0|0:0,0:0:0:0:
224,152,45257,6,0,B|224:100|224:100|256:40,2,120,4|2|8,0:0|0:0|0:0,0:0:0:0:
180,228,46757,1,10,0:1:0:0:
100,192,47132,2,0,P|92:240|108:280,2,79.9999999999999,8|10|8,0:0|0:1|0:0,0:0:0:0:
172,140,48257,6,0,P|136:112|96:104,1,79.9999999999999,12|8,0:0|0:0,0:0:0:0:
100,192,49007,1,8,0:0:0:0:
180,228,49382,2,0,P|228:208|256:176,1,79.9999999999999,8|8,0:0|0:0,0:0:0:0:
256,84,50132,1,2,0:0:0:0:
436,272,51257,6,0,P|400:304|320:304,2,120,4|2|8,0:0|0:0|0:0,0:0:0:0:
476,192,52757,2,0,L|404:148,1,79.9999999999999,10|8,0:1|0:0,0:0:0:0:
420,64,53507,2,0,L|492:108,2,79.9999999999999,10|8|10,0:1|0:0|0:1,0:0:0:0:
340,32,54632,5,8,0:0:0:0:
260,64,55007,2,0,P|216:84|172:84,1,79.9999999999999,10|8,0:1|0:0,0:0:0:0:
144,164,55757,2,0,P|104:128|100:60,2,120,10|2|8,0:1|0:0|0:0,0:0:0:0:
228,188,57257,5,4,0:0:0:0:
256,272,57632,2,0,B|296:272|296:272|332:288,1,79.9999999999999,8|10,0:0|0:1,0:0:0:0:
344,200,58382,2,0,B|380:216|380:216|420:216,1,79.9999999999999,8|10,0:0|0:1,0:0:0:0:
480,148,59132,5,8,0:0:0:0:
396,128,59507,2,0,P|320:116|256:172,1,160,10|10,0:1|0:1,0:0:0:0:
176,192,60632,2,0,P|152:160|144:112,2,79.9999999999999,8|10|8,0:0|0:1|0:0,0:0:0:0:
244,248,61757,5,10,0:1:0:0:
208,328,62132,2,0,B|168:328|168:328|124:352,2,79.9999999999999,8|2|8,0:0|0:0|0:0,0:0:0:0:
288,364,63257,6,0,P|312:328|324:280,1,79.9999999999999,4|10,0:0|0:1,0:0:0:0:
348,208,64007,2,0,P|384:224|408:255,2,79.9999999999999,8|10|2,0:0|0:1|0:0,0:0:0:0:
284,148,65132,1,8,0:0:0:0:
228,216,65507,2,0,P|184:220|140:200,2,79.9999999999999,10|8|10,0:1|0:0|0:1,0:0:0:0:
284,148,66632,6,0,P|284:108|336:44,2,120,8|2|10,0:0|0:0|0:1,0:0:0:0:
372,156,68132,2,0,P|372:196|320:260,2,120,8|8|12,0:0|0:0|0:0,0:0:0:0:
284,172,69632,6,0,P|224:172|192:188,1,79.9999999999999,8|8,0:0|0:0,0:0:0:0:
116,196,70382,1,8,0:0:0:0:
168,276,70757,2,0,P|228:276|260:260,2,79.9999999999999,8|8|8,0:0|0:0|0:0,0:0:0:0:
112,344,71882,2,0,P|88:316|80:264,1,79.9999999999999,8|12,0:0|0:0,0:0:0:0:
116,196,72632,5,8,0:0:0:0:
144,112,73007,2,0,B|188:112|188:112|224:92,1,79.9999999999999,8|8,0:0|0:0,0:0:0:0:
300,132,73757,2,0,B|331:114|331:114|375:114,1,79.9999999999999,8|8,0:0|0:0,0:0:0:0:
428,184,74507,2,0,P|428:232|456:272,1,79.9999999999999,8|8,0:0|0:0,0:0:0:0:
496,328,75257,1,8,0:0:0:0:
144,316,76757,6,0,P|112:284|108:204,2,120,4|2|2,0:0|0:0|0:0,0:0:0:0:
188,240,78257,2,0,P|220:208|300:204,2,120,2|2|8,0:0|0:0|0:0,0:0:0:0:
268,280,79757,2,0,P|264:324|276:372,1,79.9999999999999,8|8,0:1|0:0,0:0:0:0:
356,344,80507,2,0,P|360:300|348:252,1,79.9999999999999,8|0,0:1|0:0,0:0:0:0:
400,192,81257,6,0,P|444:192|496:132,2,120,2|2|8,0:0|0:0|0:0,0:0:0:0:
412,105,82757,2,0,P|368:105|316:165,2,120,4|2|2,0:0|0:0|0:0,0:0:0:0:
408,16,84257,1,2,0:0:0:0:
320,20,84632,2,0,P|280:40|236:40,1,79.9999999999999,8|10,0:0|0:1,0:0:0:0:
156,52,85382,1,8,0:0:0:0:
112,128,85757,6,0,P|80:200|116:276,1,160,4|8,0:0|0:1,0:0:0:0:
152,348,86882,1,0,0:0:0:0:
224,296,87257,2,0,P|264:280|312:280,1,79.9999999999999,2|8,0:0|0:0,0:0:0:0:
388,292,88007,2,0,B|448:284|448:284|496:224,1,120,8|12,0:1|0:0,0:0:0:0:
