osu file format v14

[General]
AudioFilename: Team Hanayamata Hana wa Odore ya Irohaniho.mp3
AudioLeadIn: 500
PreviewTime: 51060
Countdown: 0
SampleSet: Soft
StackLeniency: 0.7
Mode: 0
LetterboxInBreaks: 0
WidescreenStoryboard: 0

[Editor]
DistanceSpacing: 0.9
BeatDivisor: 4
GridSize: 4
TimelineZoom: 1

[Metadata]
Title:Hana wa Odore ya Irohaniho
TitleUnicode:花ハ踊レヤいろはにほ
Artist:Team "Hanayamata"
ArtistUnicode:チーム"ハナヤマタ"
Creator:A Mystery
Version:Normal
Source:ハナヤマタ
Tags:opening madhouse Naru Sekiya Reina Ueda Yaya Sasame Kaya Okuno Hana N. Fontainestand Minami Tanaka Tami Nigishimon Yuka Ootsubo Machi Tokiwa Manami Numakura setz kakifly Setz206
BeatmapID:688880
BeatmapSetID:304979

[Difficulty]
HPDrainRate:4
CircleSize:3.2
OverallDifficulty:3
ApproachRate:3.7
SliderMultiplier:0.999999999999999
SliderTickRate:1

[Events]
//Background and Video events
0,0,"hanayayayayaamammamaata.jpg",0,0
//Break Periods
2,196092,200740
//Storyboard Layer 0 (Background)
//Storyboard Layer 1 (Fail)
//Storyboard Layer 2 (Pass)
//Storyboard Layer 3 (Foreground)
//Storyboard Sound Samples

[TimingPoints]
1092,375,4,2,3,40,1,0
7092,-100,4,2,1,30,0,0
7842,-100,4,2,1,40,0,0
8592,-100,4,2,1,50,0,0
9342,-100,4,2,1,60,0,0
10467,-100,4,2,1,50,0,0
11217,-100,4,2,1,60,0,0
13092,-100,4,2,1,70,0,0
39342,-100,4,2,2,50,0,0
39529,-100,4,2,1,70,0,0
43092,-100,4,2,1,75,0,0
50967,-100,4,2,3,75,0,0
51717,-100,4,2,1,70,0,0
52092,-100,4,2,1,80,0,1
54717,-100,4,2,2,80,0,1
54904,-100,4,2,1,80,0,1
57529,-100,4,2,2,80,0,1
58092,-100,4,2,1,80,0,1
63904,-100,4,2,1,80,0,0
64092,-100,4,2,1,80,0,1
66717,-100,4,2,2,80,0,1
67092,-100,4,2,1,80,0,1
69529,-100,4,2,2,80,0,1
70092,-100,4,2,1,80,0,1
76092,-100,4,2,1,70,0,0
115842,-100,4,2,2,40,0,0
115935,-100,4,2,1,70,0,0
119592,-100,4,2,1,75,0,0
127467,-100,4,2,3,75,0,0
128217,-100,4,2,1,70,0,0
128592,-100,4,2,1,80,0,1
131217,-100,4,2,2,80,0,1
131592,-100,4,2,1,80,0,1
134029,-100,4,2,2,80,0,1
134592,-100,4,2,1,80,0,1
140404,-100,4,2,1,80,0,0
140592,-100,4,2,1,80,0,1
143217,-100,4,2,2,80,0,1
143592,-100,4,2,1,80,0,1
146029,-100,4,2,2,80,0,1
146592,-100,4,2,1,80,0,1
152592,-100,4,2,1,70,0,0
166467,-100,4,2,3,70,0,0
166654,-100,4,2,1,70,0,0
178467,-100,4,2,3,70,0,0
178654,-100,4,2,1,70,0,0
184092,-100,4,2,1,75,0,0
202095,375,4,2,1,65,1,0
203595,-100,4,2,1,30,0,0
203970,-100,4,2,1,40,0,0
204345,-100,4,2,1,50,0,0
204720,-100,4,2,1,60,0,0
205095,-100,4,2,1,70,0,0
208095,-100,4,2,1,80,0,1
210720,-100,4,2,2,80,0,1
211095,-100,4,2,1,80,0,1
213532,-100,4,2,2,80,0,1
214095,-100,4,2,1,80,0,1
220095,-100,4,2,1,70,0,0

[Colours]
Combo1 : 168,222,255
Combo2 : 242,140,222
Combo3 : 214,56,88
Combo4 : 224,213,249
Combo5 : 231,205,58

[HitObjects]
248,256,1092,6,0,P|205:228|107:258,1,150,2|0,0:0|0:0,0:0:0:0:
74,270,1842,2,0,P|53:232|71:127,1,150
106,106,2592,1,2,0:0:0:0:
279,56,3342,1,2,0:0:0:0:
448,116,4092,6,0,P|473:164|424:301,1,200,2|0,0:0|0:0,0:0:0:0:
251,280,5592,2,0,P|226:232|273:94,1,200,2|2,0:0|0:0,0:0:0:0:
420,192,7092,6,0,P|360:207|314:188,1,99.9999999999999,6|10,0:0|0:0,0:0:0:0:
370,117,7842,2,0,P|430:102|476:121,1,99.9999999999999,10|10,0:0|0:0,0:0:0:0:
420,192,8592,2,0,B|407:246|407:246|414:295,1,99.9999999999999,10|10,0:0|0:0,0:0:0:0:
324,306,9342,2,0,B|314:251|314:251|289:208,1,99.9999999999999,10|10,0:0|0:0,0:0:0:0:
215,165,10092,5,14,0:0:0:0:
131,198,10467,2,0,P|68:217|29:203,2,99.9999999999999,2|10|10,0:0|0:0|0:0,0:0:0:0:
76,126,11592,1,10,0:0:0:0:
165,116,11967,1,6,0:0:0:0:
223,184,12342,2,0,P|279:243|392:213,1,200,2|6,0:0|0:0,0:0:0:0:
403,131,13467,5,2,0:0:0:0:
341,64,13842,2,0,P|313:120|325:176,1,99.9999999999999,2|2,0:0|0:0,0:0:0:0:
356,236,14592,2,0,P|356:285|331:327,1,99.9999999999999,2|2,0:0|0:0,0:0:0:0:
247,294,15342,1,2,0:0:0:0:
160,319,15717,1,2,0:0:0:0:
81,274,16092,6,0,B|64:237|67:209|75:208|93:170|57:127,2,150,2|0|2,0:0|0:0|0:0,0:0:0:0:
159,230,17592,2,0,P|213:212|269:232,1,99.9999999999999,2|2,0:0|0:0,0:0:0:0:
307,293,18342,2,0,P|253:311|197:291,1,99.9999999999999,2|0,0:0|0:0,0:0:0:0:
159,230,19092,6,0,P|142:144|184:96,1,150,2|0,0:0|0:0,0:0:0:0:
222,91,19842,2,0,P|277:104|336:93,1,99.9999999999999,2|2,0:0|0:0,0:0:0:0:
399,141,20592,2,0,P|411:204|345:272,1,150,2|0,0:0|0:0,0:0:0:0:
315,269,21342,2,0,P|257:263|203:284,1,99.9999999999999,2|2,0:0|0:0,0:0:0:0:
133,244,22092,6,0,L|123:83,2,150,2|0|2,0:0|0:0|0:0,0:0:0:0:
186,317,23592,2,0,P|233:329|288:313,1,99.9999999999999,2|2,0:0|0:0,0:0:0:0:
326,237,24342,1,2,0:0:0:0:
281,158,24717,1,8,3:2:0:0:
370,164,25092,6,0,P|455:131|454:16,2,200,6|2|2,0:0|0:0|0:0,0:0:0:0:
385,75,26967,1,8,0:0:0:0:
300,104,27342,2,0,P|279:153|291:211,1,99.9999999999999,2|8,0:0|0:0,0:0:0:0:
367,233,28092,6,0,P|379:305|361:346,1,99.9999999999999,2|8,0:0|0:0,0:0:0:0:
348,368,28654,2,0,P|407:358|460:355,2,99.9999999999999,0|2|0,0:0|0:0|0:0,0:0:0:0:
303,378,29592,2,0,P|273:322|281:270,1,99.9999999999999,2|8,0:0|0:0,0:0:0:0:
299,200,30342,1,2,0:0:0:0:
216,165,30717,1,8,3:2:0:0:
148,227,31092,6,0,B|121:257|124:301|124:301|70:328|41:307|33:260,1,200,6|2,0:0|0:0,0:0:0:0:
62,178,32217,1,8,0:0:0:0:
128,117,32592,2,0,B|169:86|169:86|216:107|259:89|259:89|306:130,1,200,2|2,0:0|0:0,0:0:0:0:
358,195,33717,1,8,0:0:0:0:
303,266,34092,6,0,B|252:292|211:255|211:255|154:248|154:248|119:219,1,200,2|2,0:0|0:0,0:0:0:0:
64,149,35217,1,8,0:0:0:0:
18,228,35592,2,0,P|15:287|42:333,1,99.9999999999999,2|8,3:2|0:0,0:0:0:0:
116,356,36342,2,0,P|119:297|92:251,1,99.9999999999999,2|10,0:0|0:0,0:0:0:0:
112,172,37092,6,0,P|167:114|283:151,1,200,6|10,0:0|0:0,0:0:0:0:
300,225,38217,2,0,B|282:277|282:277|285:330,1,99.9999999999999,2|2,0:0|0:0,0:0:0:0:
370,295,38967,1,2,0:0:0:0:
398,209,39342,2,0,P|360:142|343:132,1,99.9999999999999,6|2,0:0|0:0,0:0:0:0:
249,135,40092,6,0,P|164:170|88:90,1,200,2|10,0:0|0:0,0:0:0:0:
177,82,41217,2,0,P|224:49|281:53,1,99.9999999999999,2|2,0:0|0:0,0:0:0:0:
349,79,41967,1,2,0:0:0:0:
406,148,42342,2,0,L|382:266,1,99.9999999999999,6|6,0:0|0:0,0:0:0:0:
325,312,43092,6,0,P|271:318|207:251,1,150,6|0,0:0|0:0,0:0:0:0:
209,209,43842,2,0,P|222:148|205:107,1,99.9999999999999,2|8,0:0|0:0,0:0:0:0:
145,51,44592,2,0,P|213:24|281:61,1,150,2|0,0:0|0:0,0:0:0:0:
314,83,45342,2,0,P|376:96|411:79,1,99.9999999999999,0|8,0:0|0:0,0:0:0:0:
471,145,46092,6,0,B|476:174|459:203|459:203|461:243|461:243|448:268|453:311,1,150,6|0,0:0|0:0,0:0:0:0:
415,318,46842,2,0,P|353:332|312:314,1,99.9999999999999,2|8,0:0|0:0,0:0:0:0:
265,248,47592,2,0,P|232:216|102:282,1,200,2|2,0:0|0:0,0:0:0:0:
190,294,48717,1,8,0:0:0:0:
263,345,49092,6,0,L|375:330,1,99.9999999999999,8|8,0:0|0:0,0:0:0:0:
343,243,49842,2,0,L|455:258,1,99.9999999999999,8|8,0:0|0:0,0:0:0:0:
428,167,50592,1,8,0:0:0:0:
463,84,50967,2,0,P|408:31|285:50,1,200,2|10,0:0|3:2,0:0:0:0:
210,74,52092,6,0,P|206:157|155:195,1,150,4|0,0:0|0:0,0:0:0:0:
113,183,52842,2,0,P|65:224|73:318,1,150,2|0,0:0|0:0,0:0:0:0:
95,339,53592,2,0,B|144:353|144:353|208:334,2,99.9999999999999,2|10|2,0:0|0:0|0:0,0:0:0:0:
145,266,54717,1,10,0:0:0:0:
231,242,55092,6,0,L|240:137,2,99.9999999999999,2|10|2,0:0|0:0|0:0,0:0:0:0:
309,287,56217,1,8,0:0:0:0:
393,256,56592,2,0,P|452:240|492:258,2,99.9999999999999,2|10|2,0:0|0:0|0:0,0:0:0:0:
349,243,57529,2,0,L|328:187,1,50,8|10,0:0|0:0,0:0:0:0:
290,115,58092,6,0,P|235:108|183:128,2,99.9999999999999,6|10|2,0:0|0:0|0:0,0:0:0:0:
326,141,59029,2,0,B|339:193|339:193|322:245,1,99.9999999999999
310,280,59592,1,0,0:0:0:0:
266,358,59967,1,0,0:0:0:0:
189,319,60342,2,0,P|173:272|186:224,1,99.9999999999999,2|10,0:0|0:0,0:0:0:0:
263,270,61092,6,0,P|342:293|407:263,1,150,2|0,0:0|0:0,0:0:0:0:
440,245,61842,2,0,P|470:171|469:140,1,99.9999999999999,2|10,0:0|0:0,0:0:0:0:
406,87,62592,2,0,L|297:94,1,99.9999999999999,2|10,0:0|0:0,0:0:0:0:
312,183,63342,2,0,L|212:176,1,99.9999999999999,2|10,0:0|0:0,0:0:0:0:
122,177,64092,6,0,P|71:238|91:316,1,150,6|0,0:0|0:0,0:0:0:0:
117,330,64842,2,0,B|156:332|188:351|188:351|227:330|276:329,1,150,2|0,0:0|0:0,0:0:0:0:
304,323,65592,2,0,P|373:328|401:356,2,99.9999999999999,2|10|2,0:0|0:0|0:0,0:0:0:0:
260,244,66717,1,10,0:0:0:0:
326,183,67092,6,0,L|334:76,1,99.9999999999999,2|10,0:0|0:0,0:0:0:0:
254,40,67842,2,0,L|246:139,1,99.9999999999999,2|10,0:0|0:0,0:0:0:0:
167,185,68592,2,0,P|117:204|55:179,2,99.9999999999999,2|10|2,0:0|0:0|0:0,0:0:0:0:
209,200,69529,2,0,L|198:269,1,50,8|8,0:0|0:0,0:0:0:0:
257,320,70092,5,12,0:0:0:0:
346,310,70467,1,8,0:0:0:0:
435,301,70842,2,0,P|455:252|438:196,1,99.9999999999999,8|8,0:0|0:0,0:0:0:0:
375,150,71592,2,0,P|346:95|392:3,2,150,8|2|8,0:0|0:0|0:0,0:0:0:0:
436,84,73092,6,0,P|465:139|419:231,2,150,12|0|8,0:0|0:0|0:0,0:0:0:0:
361,33,74592,2,0,P|307:16|256:33,1,99.9999999999999,8|8,0:0|0:0,0:0:0:0:
214,100,75342,2,0,P|268:117|319:100,1,99.9999999999999,10|8,0:0|0:0,0:0:0:0:
361,33,76092,5,2,0:0:0:0:
281,272,77592,2,0,P|351:286|389:263,1,99.9999999999999,6|8,0:0|0:0,0:0:0:0:
406,190,78342,2,0,B|405:161|416:138|416:138|373:86|392:31,2,150,2|8|8,0:0|0:0|0:0,0:0:0:0:
322,155,79842,2,0,P|257:135|220:144,1,99.9999999999999,2|8,0:0|0:0,0:0:0:0:
140,168,80592,6,0,L|161:272,1,99.9999999999999,2|8,0:0|0:0,0:0:0:0:
129,352,81342,2,0,P|71:354|7:278,2,150,2|8|8,0:0|0:0|0:0,0:0:0:0:
97,267,82842,1,2,0:0:0:0:
186,279,83217,1,8,0:0:0:0:
219,362,83592,6,0,B|270:371|270:371|325:351,1,99.9999999999999,2|8,3:2|0:0,0:0:0:0:
394,311,84342,2,0,P|426:251|386:163,2,150,2|8|8,0:0|0:0|0:0,0:0:0:0:
336,241,85842,2,0,P|309:192|317:136,1,99.9999999999999,2|8,0:0|0:0,0:0:0:0:
379,85,86592,6,0,P|404:128|402:177,1,99.9999999999999,2|8,0:0|0:0,0:0:0:0:
312,150,87342,2,0,P|250:157|182:84,2,150,2|8|8,0:0|0:0|0:0,0:0:0:0:
272,68,88842,2,0,P|226:18|176:14,1,99.9999999999999,2|8,0:0|0:0,0:0:0:0:
152,17,89404,2,0,L|98:57,1,50
48,111,89967,5,4,0:0:0:0:
34,198,90342,2,0,P|41:211|175:230,1,150,2|8,0:0|0:0,0:0:0:0:
202,224,91092,2,0,P|273:202|346:259,1,150
353,280,91842,1,2,0:0:0:0:
428,231,92217,1,8,0:0:0:0:
379,155,92592,6,0,B|366:122|373:89|373:89|336:53|281:76,2,150,2|0|0,0:0|0:0|0:0,0:0:0:0:
360,196,93904,2,0,P|321:230|225:213,1,150,8|8,0:0|0:0,0:0:0:0:
159,160,94842,2,0,L|147:266,1,99.9999999999999,2|8,0:0|3:2,0:0:0:0:
105,275,95404,2,0,P|76:293|61:310,1,50,0|2,0:0|0:0,0:0:0:0:
136,359,95967,5,12,0:0:0:0:
225,346,96342,2,0,P|262:278|244:198,1,150,2|8,0:0|0:0,0:0:0:0:
272,172,97092,2,0,P|326:138|415:178,1,150
428,200,97842,1,2,0:0:0:0:
342,226,98217,1,8,0:0:0:0:
272,172,98592,6,0,P|238:115|269:24,2,150,2|0|0,0:0|0:0|0:0,0:0:0:0:
315,181,99904,2,0,B|392:163|392:163|480:191,1,150,8|8,0:0|0:0,0:0:0:0:
490,269,100842,1,2,0:0:0:0:
436,341,101217,1,8,3:2:0:0:
371,277,101592,6,0,P|324:241|206:316,2,200,6|2|2,0:0|0:0|0:0,0:0:0:0:
296,328,103467,1,8,0:0:0:0:
211,296,103842,2,0,P|182:252|188:190,1,99.9999999999999,2|8,0:0|0:0,0:0:0:0:
222,125,104592,6,0,L|336:140,1,99.9999999999999,2|8,0:0|0:0,0:0:0:0:
365,145,105154,2,0,P|385:91|365:41,2,99.9999999999999,0|2|0,0:0|0:0|0:0,0:0:0:0:
332,176,106092,1,2,0:0:0:0:
389,245,106467,1,8,0:0:0:0:
346,323,106842,2,0,P|286:331|246:311,1,99.9999999999999,2|8,0:0|3:2,0:0:0:0:
181,258,107592,6,0,P|138:238|32:330,1,200,6|2,0:0|0:0,0:0:0:0:
122,326,108717,1,8,0:0:0:0:
181,258,109092,2,0,B|165:204|165:204|173:125|173:125|146:47,1,200,2|2,0:0|0:0,0:0:0:0:
63,50,110217,1,8,0:0:0:0:
85,137,110592,6,0,P|171:162|248:90,1,200,2|2,0:0|0:0,0:0:0:0:
334,74,111717,1,8,0:0:0:0:
408,124,112092,2,0,P|422:179|408:224,1,99.9999999999999,2|10,0:0|0:0,0:0:0:0:
334,267,112842,2,0,P|320:212|334:167,1,99.9999999999999,2|10,0:0|0:0,0:0:0:0:
411,219,113592,6,0,P|423:277|314:354,1,200,6|12,0:0|0:0,0:0:0:0:
239,326,114717,2,0,B|189:313|189:313|130:333,1,99.9999999999999,2|2,0:0|0:0,0:0:0:0:
60,292,115467,1,2,0:0:0:0:
48,202,115842,2,0,P|95:157|146:151,1,99.9999999999999,6|2,0:0|0:0,0:0:0:0:
201,203,116592,6,0,P|283:218|353:117,1,200,2|8,0:0|0:0,0:0:0:0:
390,54,117717,2,0,L|504:72,1,99.9999999999999,2|2,0:0|0:0,0:0:0:0:
448,149,118467,1,10,0:0:0:0:
470,236,118842,2,0,P|465:294|435:324,1,99.9999999999999,6|6,0:0|0:0,0:0:0:0:
350,298,119592,6,0,P|281:272|214:306,1,150,6|0,0:0|0:0,0:0:0:0:
184,335,120342,2,0,L|163:232,1,99.9999999999999,2|8,0:0|0:0,0:0:0:0:
212,160,121092,2,0,B|242:133|277:128|277:128|313:142|338:189,1,150,2|0,0:0|0:0,0:0:0:0:
361,213,121842,2,0,P|405:238|459:230,1,99.9999999999999,2|8,0:0|0:0,0:0:0:0:
505,160,122592,6,0,P|523:86|470:21,1,150,4|0,0:0|0:0,0:0:0:0:
442,46,123342,2,0,P|376:59|335:33,1,99.9999999999999,2|8,0:0|0:0,0:0:0:0:
259,56,124092,2,0,P|212:40|161:52,1,99.9999999999999,2|8,0:0|0:0,0:0:0:0:
187,137,124842,2,0,P|233:152|289:135,1,99.9999999999999,2|8,0:0|0:0,0:0:0:0:
370,151,125592,6,0,L|360:261,1,99.9999999999999,8|8,0:0|0:0,0:0:0:0:
274,225,126342,2,0,L|284:335,1,99.9999999999999,8|8,0:0|0:0,0:0:0:0:
369,349,127092,1,8,0:0:0:0:
436,289,127467,2,0,P|463:211|380:116,1,200,2|8,0:0|0:0,0:0:0:0:
317,160,128592,6,0,P|247:176|178:132,1,150,6|0,0:0|0:0,0:0:0:0:
157,100,129342,2,0,P|100:61|12:93,1,150,2|0,0:0|0:0,0:0:0:0:
0,116,130092,2,0,B|-8:166|-8:166|16:215,2,99.9999999999999,2|10|2,0:0|0:0|0:0,0:0:0:0:
82,152,131217,1,10,0:0:0:0:
156,201,131592,6,0,P|170:138|154:100,2,99.9999999999999,2|10|2,0:0|0:0|0:0,0:0:0:0:
118,282,132717,1,10,0:0:0:0:
206,268,133092,2,0,P|263:276|299:309,2,99.9999999999999,2|10|2,0:0|0:0|0:0,0:0:0:0:
195,311,134029,2,0,L|201:374,1,50,8|10,0:0|0:0,0:0:0:0:
287,381,134592,6,0,P|341:369|372:318,2,99.9999999999999,6|10|2,0:0|0:0|0:0,0:0:0:0:
258,346,135529,2,0,P|210:321|116:356,1,150,0|2,0:0|0:0,0:0:0:0:
60,282,136467,1,10,0:0:0:0:
98,200,136842,2,0,P|77:156|31:127,1,99.9999999999999,2|10,0:0|0:0,0:0:0:0:
95,62,137592,6,0,P|177:30|246:70,1,150,2|0,0:0|0:0,0:0:0:0:
267,78,138342,2,0,P|330:94|372:77,1,99.9999999999999,2|10,0:0|0:0,0:0:0:0:
444,49,139092,2,0,L|470:158,1,99.9999999999999,2|8,0:0|0:0,0:0:0:0:
379,164,139842,2,0,L|353:273,1,99.9999999999999,10|10,0:0|0:0,0:0:0:0:
312,340,140592,6,0,P|241:366|170:317,1,150,6|0,0:0|0:0,0:0:0:0:
148,300,141342,2,0,B|165:240|165:240|144:187|96:172,1,150,2|0,0:0|0:0,0:0:0:0:
63,170,142092,2,0,L|41:71,2,99.9999999999999,2|10|2,0:0|0:0|0:0,0:0:0:0:
85,257,143217,1,10,0:0:0:0:
146,322,143592,6,0,P|189:330|247:318,1,99.9999999999999,2|10,0:0|0:0,0:0:0:0:
241,229,144342,2,0,P|289:218|338:226,1,99.9999999999999,2|10,0:0|0:0,0:0:0:0:
412,277,145092,2,0,L|397:375,2,99.9999999999999,2|10|2,0:0|0:0|0:0,0:0:0:0:
417,232,146029,2,0,P|452:213|480:206,1,50,8|8,0:0|0:0,0:0:0:0:
447,120,146592,6,0,P|395:138|350:168,1,99.9999999999999,8|8,0:0|0:0,0:0:0:0:
267,158,147342,2,0,P|224:131|177:116,1,99.9999999999999,8|8,0:0|0:0,0:0:0:0:
89,136,148092,2,0,P|80:186|115:301,2,150,8|2|8,0:0|0:0|0:0,0:0:0:0:
167,92,149592,6,0,B|209:80|241:102|241:102|274:87|320:103,2,150,8|0|8,0:0|0:0|0:0,0:0:0:0:
195,177,151092,2,0,P|188:214|214:278,1,99.9999999999999,8|8,0:0|0:0,0:0:0:0:
278,214,151842,2,0,P|285:177|259:113,1,99.9999999999999,8|10,0:0|0:0,0:0:0:0:
343,75,152592,5,10,0:0:0:0:
73,89,153717,6,0,P|100:136|89:194,1,99.9999999999999,4|6,3:0|0:0,0:0:0:0:
78,267,154467,1,8,0:0:0:0:
137,334,154842,2,0,P|188:351|244:329,1,99.9999999999999,8|8,0:0|0:0,0:0:0:0:
313,301,155592,2,0,P|229:248|173:268,2,150,8|2|8,0:0|0:0|0:0,0:0:0:0:
401,317,157092,6,0,B|427:281|415:239|415:239|437:211|433:164,2,150,8|0|8,0:0|0:0|0:0,0:0:0:0:
329,261,158592,2,0,B|285:241|285:241|234:243,1,99.9999999999999,8|8,0:0|0:0,0:0:0:0:
143,248,159342,2,0,B|97:224|97:224|69:184,1,99.9999999999999,8|8,0:0|0:0,0:0:0:0:
112,104,160092,6,0,P|158:89|213:103,1,99.9999999999999,12|8,0:0|0:0,0:0:0:0:
222,188,160842,2,0,P|270:198|317:183,1,99.9999999999999,8|8,0:0|0:0,0:0:0:0:
398,144,161592,2,0,B|419:218|419:218|403:305,2,150,8|2|8,0:0|0:0|0:0,0:0:0:0:
320,97,163092,5,8,0:0:0:0:
239,138,163467,1,8,0:0:0:0:
157,98,163842,2,0,P|112:79|56:97,1,99.9999999999999,8|8,0:0|0:0,0:0:0:0:
20,170,164592,2,0,B|26:221|26:221|11:279,1,99.9999999999999,8|8,0:0|0:0,0:0:0:0:
100,293,165342,2,0,B|111:243|111:243|145:193,1,99.9999999999999,8|8,0:0|0:0,0:0:0:0:
229,197,166092,5,12,0:0:0:0:
290,262,166467,1,2,0:0:0:0:
379,250,166842,2,0,P|434:233|488:257,1,99.9999999999999,8|8,0:0|0:0,0:0:0:0:
430,324,167592,2,0,P|375:341|321:317,2,99.9999999999999,8|8|8,0:0|0:0|0:0,0:0:0:0:
379,250,168717,1,8,0:0:0:0:
285,242,169092,6,0,L|268:142,1,99.9999999999999,8|8,0:0|0:0,0:0:0:0:
178,131,169842,2,0,L|195:31,1,99.9999999999999,8|8,0:0|0:0,0:0:0:0:
279,62,170592,1,8,0:0:0:0:
366,40,170967,1,8,0:0:0:0:
433,100,171342,2,0,P|424:167|438:198,1,99.9999999999999,8|8,0:0|0:0,0:0:0:0:
493,264,172092,6,0,P|505:311|490:358,1,99.9999999999999,12|8,0:0|0:0,0:0:0:0:
444,354,172654,2,0,P|383:340|339:361,1,99.9999999999999,0|2,0:0|0:0,0:0:0:0:
284,291,173404,2,0,P|303:239|396:218,1,150,2|8,0:0|0:0,0:0:0:0:
474,239,174342,2,0,L|455:131,1,99.9999999999999,8|8,0:0|0:0,0:0:0:0:
395,74,175092,6,0,P|351:48|234:134,2,200,8|8|8,0:0|0:0|0:0,0:0:0:0:
328,134,176967,1,8,0:0:0:0:
404,181,177342,2,0,P|420:226|402:284,1,99.9999999999999,8|8,0:0|0:0,0:0:0:0:
343,338,178092,5,12,0:0:0:0:
273,280,178467,1,2,0:0:0:0:
197,230,178842,2,0,P|144:228|90:256,1,99.9999999999999,8|8,0:0|0:0,0:0:0:0:
30,301,179592,2,0,L|15:198,2,99.9999999999999,8|8|8,0:0|0:0|0:0,0:0:0:0:
112,337,180717,1,12,0:0:0:0:
192,297,181092,6,0,P|250:283|299:304,1,99.9999999999999,8|8,0:0|0:0,0:0:0:0:
370,262,181842,2,0,P|417:274|464:260,1,99.9999999999999,8|8,0:0|0:0,0:0:0:0:
461,169,182592,2,0,P|414:157|367:171,1,99.9999999999999,8|8,0:0|0:0,0:0:0:0:
297,230,183342,2,0,P|242:260|150:220,1,150,2|8,0:0|0:0,0:0:0:0:
144,193,184092,6,0,P|81:170|4:219,1,150,6|0,0:0|0:0,0:0:0:0:
7,251,184842,2,0,B|20:304|20:304|6:355,1,99.9999999999999,2|8,0:0|0:0,0:0:0:0:
97,338,185592,2,0,P|153:319|244:355,1,150,2|0,0:0|0:0,0:0:0:0:
280,337,186342,2,0,L|301:229,1,99.9999999999999,2|8,0:0|0:0,0:0:0:0:
248,164,187092,6,0,P|321:150|385:210,1,150,6|0,0:0|0:0,0:0:0:0:
405,229,187842,2,0,P|456:250|513:234,1,99.9999999999999,2|8,0:0|0:0,0:0:0:0:
463,159,188592,1,2,0:0:0:0:
427,76,188967,1,8,0:0:0:0:
337,77,189342,2,0,P|279:73|236:29,1,99.9999999999999,2|8,0:0|0:0,0:0:0:0:
157,40,190092,6,0,L|165:144,1,99.9999999999999,4|8,0:0|0:0,0:0:0:0:
74,145,190842,2,0,L|66:249,1,99.9999999999999,8|8,0:0|0:0,0:0:0:0:
113,321,191592,2,0,P|178:336|225:316,1,99.9999999999999,8|8,0:0|0:0,0:0:0:0:
225,238,192342,2,0,P|273:228|320:243,1,99.9999999999999,8|8,0:0|0:0,0:0:0:0:
403,208,193092,6,0,L|388:90,1,99.9999999999999,12|8,0:0|0:0,0:0:0:0:
314,60,193842,2,0,L|301:159,1,99.9999999999999,8|8,0:0|0:0,0:0:0:0:
218,124,194592,1,8,0:0:0:0:
132,250,202095,6,0,P|123:195|153:139,1,99.9999999999999,6|2,0:0|0:0,0:0:0:0:
219,113,202845,2,0,P|228:168|198:224,1,99.9999999999999,2|2,0:0|0:0,0:0:0:0:
215,298,203595,2,0,P|271:326|322:314,1,99.9999999999999,10|10,0:0|0:0,0:0:0:0:
354,245,204345,2,0,P|403:242|445:268,1,99.9999999999999,10|10,0:0|0:0,0:0:0:0:
453,178,205095,6,0,P|431:126|337:98,1,150,12|0,0:0|0:0,0:0:0:0:
309,119,205845,2,0,P|243:178|235:103,1,200,2|6,0:0|0:0,0:0:0:0:
174,36,206970,1,8,0:0:0:0:
99,89,207345,2,0,P|81:150|95:189,1,99.9999999999999,2|10,3:2|0:0,0:0:0:0:
180,197,208095,6,0,P|196:253|145:338,1,150,6|0,0:0|0:0,0:0:0:0:
110,325,208845,2,0,B|85:305|46:301|46:301|33:249|61:209,1,150,2|0,0:0|0:0,0:0:0:0:
69,180,209595,2,0,P|81:131|53:69,2,99.9999999999999,2|10|2,0:0|0:0|0:0,0:0:0:0:
145,227,210720,1,10,0:0:0:0:
231,202,211095,6,0,B|281:196|281:196|344:213,1,99.9999999999999,2|10,0:0|0:0,0:0:0:0:
321,298,211845,2,0,B|271:304|271:304|208:287,1,99.9999999999999,2|10,0:0|0:0,0:0:0:0:
147,241,212595,2,0,P|140:182|165:136,2,99.9999999999999,2|10|2,0:0|0:0|0:0,0:0:0:0:
135,284,213532,2,0,L|82:297,1,50,8|8,0:0|0:0,0:0:0:0:
140,368,214095,6,0,L|246:342,1,99.9999999999999,6|8,0:0|0:0,0:0:0:0:
274,261,214845,2,0,L|371:284,1,99.9999999999999,8|8,0:0|0:0,0:0:0:0:
457,259,215595,2,0,P|476:190|425:119,2,150,8|2|8,0:0|0:0|0:0,0:0:0:0:
387,202,217095,6,0,P|340:179|277:181,1,99.9999999999999,12|8,0:0|0:0,0:0:0:0:
204,196,217845,1,8,0:0:0:0:
130,143,218220,1,8,0:0:0:0:
45,174,218595,2,0,L|34:278,1,99.9999999999999,12|10,0:0|0:0,0:0:0:0:
124,272,219345,2,0,L|134:371,1,99.9999999999999,10|10,0:0|0:0,0:0:0:0:
44,375,220095,5,10,0:0:0:0:
397,305,221595,6,0,P|427:257|414:195,1,99.9999999999999,6|2,0:0|0:0,0:0:0:0:
382,135,222345,2,0,P|334:163|283:152,1,99.9999999999999,2|2,0:0|0:0,0:0:0:0:
224,96,223095,2,0,P|173:82|116:110,1,99.9999999999999,2|2,0:0|0:0,0:0:0:0:
84,174,223845,2,0,P|135:188|192:160,1,99.9999999999999,2|2,0:0|0:0,0:0:0:0:
268,177,224595,6,0,P|283:227|268:285,1,99.9999999999999,2|2,0:0|0:0,0:0:0:0:
193,313,225345,2,0,B|139:298|139:298|81:309,1,99.9999999999999,2|2,0:0|0:0,0:0:0:0:
36,237,226095,1,2,0:0:0:0:
110,182,226470,2,0,P|129:136|114:73,2,99.9999999999999,2|2|2,0:0|0:0|0:0,0:0:0:0:
117,272,227595,6,0,P|160:296|223:282,1,99.9999999999999,6|2,0:0|0:0,0:0:0:0:
263,218,228345,2,0,P|311:212|354:236,1,99.9999999999999,2|2,0:0|0:0,0:0:0:0:
442,253,229095,2,0,P|449:196|423:144,1,99.9999999999999,2|2,0:0|0:0,0:0:0:0:
345,140,229845,2,0,P|338:83|364:31,1,99.9999999999999,2|2,0:0|0:0,0:0:0:0:
264,30,230595,6,0,B|212:24|212:24|160:41,1,99.9999999999999,2|2,0:0|0:0,0:0:0:0:
123,117,231345,2,0,B|174:122|174:122|220:107,1,99.9999999999999,2|2,0:0|0:0,0:0:0:0:
306,136,232095,1,2,0:0:0:0:
312,225,232470,2,0,P|304:289|328:331,1,99.9999999999999,2|2,0:0|0:0,0:0:0:0:
390,266,233220,1,10,0:0:0:0:
389,179,233595,6,0,P|354:145|305:135,1,99.9999999999999,6|8,0:0|0:0,0:0:0:0:
233,195,234345,2,0,P|166:225|89:181,2,150,2|8|8,0:0|0:0|0:0,0:0:0:0:
166,134,235845,2,0,P|215:106|266:111,1,99.9999999999999,2|8,0:0|0:0,0:0:0:0:
333,155,236595,6,0,P|343:223|321:261,1,99.9999999999999,2|8,0:0|0:0,0:0:0:0:
339,338,237345,2,0,B|377:356|415:336|415:336|450:360|494:339,2,150,2|8|8,0:0|0:0|0:0,0:0:0:0:
372,254,238845,1,2,0:0:0:0:
330,174,239220,1,8,0:0:0:0:
248,210,239595,6,0,P|174:220|145:203,1,99.9999999999999,6|8,0:0|0:0,0:0:0:0:
136,121,240345,2,0,P|85:151|68:240,2,150,2|8|8,0:0|0:0|0:0,0:0:0:0:
222,97,241845,2,0,B|271:83|271:83|325:100,1,99.9999999999999,2|8,0:0|0:0,0:0:0:0:
387,154,242595,6,0,P|395:214|367:259,1,99.9999999999999,2|8,0:0|0:0,0:0:0:0:
288,240,243345,2,0,P|251:275|268:381,2,150,2|8|8,0:0|0:0|0:0,0:0:0:0:
329,320,244845,1,2,0:0:0:0:
407,275,245220,2,0,L|394:204,1,50,8|8,3:2|3:2,0:0:0:0:
