osu file format v14

[General]
AudioFilename: Grimoire of Crimson.mp3
AudioLeadIn: 0
PreviewTime: 211735
Countdown: 0
SampleSet: Soft
StackLeniency: 0.7
Mode: 3
LetterboxInBreaks: 0
SpecialStyle: 0
WidescreenStoryboard: 0

[Editor]
Bookmarks: 42921,43599,151396,152074,200210,200887,297837,298515,341226,341904
DistanceSpacing: 1.3
BeatDivisor: 4
GridSize: 4
TimelineZoom: 4.099999

[Metadata]
Title:Grimoire of Crimson
TitleUnicode:Grimoire of Crimson
Artist:Team Grimoire
ArtistUnicode:Team Grimoire
Creator:[Shana Lesus]
Version:Unknown Crypt
Source:
Tags:alfakiller [shi-ra] akaix3 akary or1g1n bemani hardcore gothic japanese techno
BeatmapID:708015
BeatmapSetID:317861

[Difficulty]
HPDrainRate:8.5
CircleSize:4
OverallDifficulty:8.5
ApproachRate:5
SliderMultiplier:1.4
SliderTickRate:1

[Events]
//Background and Video events
0,0,"Crypt.jpg",0,0
//Break Periods
//Storyboard Layer 0 (Background)
//Storyboard Layer 1 (Fail)
//Storyboard Layer 2 (Pass)
//Storyboard Layer 3 (Foreground)
//Storyboard Sound Samples

[TimingPoints]
210,338.983050847458,4,2,1,40,1,0
43599,-100,4,2,1,40,0,1
106989,-100,4,2,1,20,0,1
108006,-100,4,2,1,40,0,1
108684,-100,4,2,1,40,0,0
175125,338.983050847458,3,2,1,40,1,0
178176,338.983050847458,5,2,1,40,1,0
179871,338.983050847458,3,2,1,40,1,0
180887,338.983050847458,5,2,1,40,1,0
182582,338.983050847458,3,2,1,40,1,0
184616,338.983050847458,4,2,1,40,1,0
185972,338.983050847458,3,2,1,40,1,0
189023,338.983050847458,5,2,1,40,1,0
190718,338.983050847458,3,2,1,40,1,0
191735,338.983050847458,5,2,1,40,1,0
193430,338.983050847458,3,2,1,40,1,0
195465,338.983050847458,4,2,1,40,1,0
206989,-100,4,2,1,20,0,0
211736,-100,4,2,1,40,0,1
255126,-100,4,2,1,40,0,0
274616,-100,4,2,1,20,0,0
275803,-100,4,2,1,40,0,0
298515,-100,4,2,1,40,0,1
341905,-100,4,2,1,40,0,0

[HitObjects]
64,192,210,128,0,3091:0:0:0:0:
448,192,3091,128,0,5803:0:0:0:0:
192,192,5803,128,0,8515:0:0:0:0:
320,192,8515,128,0,11057:0:0:0:0:
448,192,11057,1,0,0:0:0:0:
64,192,11057,128,0,13769:0:0:0:0:
192,192,11057,1,0,0:0:0:0:
320,192,11396,1,0,0:0:0:0:
448,192,11396,1,0,0:0:0:0:
192,192,11735,1,0,0:0:0:0:
320,192,11735,1,0,0:0:0:0:
192,192,12074,1,0,0:0:0:0:
448,192,12074,1,0,0:0:0:0:
320,192,12413,1,0,0:0:0:0:
448,192,12413,1,0,0:0:0:0:
320,192,12752,1,0,0:0:0:0:
192,192,12752,1,0,0:0:0:0:
192,192,13091,1,0,0:0:0:0:
448,192,13091,1,0,0:0:0:0:
320,192,13430,1,0,0:0:0:0:
448,192,13430,1,0,0:0:0:0:
448,192,13769,128,0,16481:0:0:0:0:
320,192,13769,1,0,0:0:0:0:
192,192,13769,1,0,0:0:0:0:
64,192,14108,1,0,0:0:0:0:
192,192,14108,1,0,0:0:0:0:
64,192,14447,1,0,0:0:0:0:
320,192,14447,1,0,0:0:0:0:
192,192,14786,1,0,0:0:0:0:
64,192,14786,1,0,0:0:0:0:
192,192,15125,1,0,0:0:0:0:
320,192,15125,1,0,0:0:0:0:
64,192,15464,1,0,0:0:0:0:
320,192,15464,1,0,0:0:0:0:
320,192,15803,1,0,0:0:0:0:
192,192,15803,1,0,0:0:0:0:
64,192,16142,1,0,0:0:0:0:
192,192,16142,1,0,0:0:0:0:
64,192,16311,1,0,0:0:0:0:
192,192,16311,1,0,0:0:0:0:
64,192,16481,1,0,0:0:0:0:
192,192,16481,1,0,0:0:0:0:
320,192,16481,128,0,19193:0:0:0:0:
448,192,16820,1,0,0:0:0:0:
64,192,16820,1,0,0:0:0:0:
192,192,17159,1,0,0:0:0:0:
448,192,17159,1,0,0:0:0:0:
192,192,17498,1,0,0:0:0:0:
64,192,17498,1,0,0:0:0:0:
448,192,17837,1,0,0:0:0:0:
192,192,17837,1,0,0:0:0:0:
64,192,18176,1,0,0:0:0:0:
448,192,18176,1,0,0:0:0:0:
64,192,18515,1,0,0:0:0:0:
192,192,18515,1,0,0:0:0:0:
192,192,18854,1,0,0:0:0:0:
448,192,18854,1,0,0:0:0:0:
448,192,19193,1,0,0:0:0:0:
64,192,19193,1,0,0:0:0:0:
192,192,19193,128,0,21904:0:0:0:0:
320,192,19532,1,0,0:0:0:0:
64,192,19532,1,0,0:0:0:0:
448,192,19871,1,0,0:0:0:0:
64,192,19871,1,0,0:0:0:0:
320,192,20210,1,0,0:0:0:0:
448,192,20210,1,0,0:0:0:0:
320,192,20548,1,0,0:0:0:0:
64,192,20548,1,0,0:0:0:0:
448,192,20887,1,0,0:0:0:0:
64,192,20887,1,0,0:0:0:0:
320,192,21226,1,0,0:0:0:0:
64,192,21226,1,0,0:0:0:0:
320,192,21565,1,0,0:0:0:0:
448,192,21565,1,0,0:0:0:0:
320,192,21735,1,0,0:0:0:0:
448,192,21735,1,0,0:0:0:0:
320,192,21904,1,0,0:0:0:0:
448,192,21904,1,0,0:0:0:0:
64,192,21904,128,0,24616:0:0:0:0:
192,192,22074,1,0,0:0:0:0:
320,192,22243,1,0,0:0:0:0:
448,192,22243,1,0,0:0:0:0:
448,192,22582,1,0,0:0:0:0:
192,192,22582,1,0,0:0:0:0:
320,192,22921,1,0,0:0:0:0:
192,192,22921,1,0,0:0:0:0:
192,192,23260,1,0,0:0:0:0:
448,192,23260,1,0,0:0:0:0:
320,192,23599,1,0,0:0:0:0:
448,192,23599,1,0,0:0:0:0:
192,192,23938,1,0,0:0:0:0:
448,192,23938,1,0,0:0:0:0:
320,192,24277,1,0,0:0:0:0:
192,192,24277,1,0,0:0:0:0:
320,192,24616,128,0,27328:0:0:0:0:
448,192,24616,1,0,0:0:0:0:
192,192,24616,1,0,0:0:0:0:
64,192,24955,1,0,0:0:0:0:
448,192,24955,1,0,0:0:0:0:
192,192,25294,1,0,0:0:0:0:
64,192,25294,1,0,0:0:0:0:
192,192,25633,1,0,0:0:0:0:
448,192,25633,1,0,0:0:0:0:
192,192,25972,1,0,0:0:0:0:
64,192,25972,1,0,0:0:0:0:
64,192,26311,1,0,0:0:0:0:
448,192,26311,1,0,0:0:0:0:
64,192,26650,1,0,0:0:0:0:
192,192,26650,1,0,0:0:0:0:
192,192,26989,1,0,0:0:0:0:
448,192,26989,1,0,0:0:0:0:
192,192,27159,1,0,0:0:0:0:
448,192,27159,1,0,0:0:0:0:
448,192,27328,128,0,30040:0:0:0:0:
192,192,27328,1,0,0:0:0:0:
64,192,27328,1,0,0:0:0:0:
320,192,27667,1,0,0:0:0:0:
64,192,27667,1,0,0:0:0:0:
192,192,28006,1,0,0:0:0:0:
320,192,28006,1,0,0:0:0:0:
320,192,28345,1,0,0:0:0:0:
64,192,28345,1,0,0:0:0:0:
192,192,28684,1,0,0:0:0:0:
64,192,28684,1,0,0:0:0:0:
64,192,29023,1,0,0:0:0:0:
320,192,29023,1,0,0:0:0:0:
192,192,29362,1,0,0:0:0:0:
320,192,29362,1,0,0:0:0:0:
320,192,29701,1,0,0:0:0:0:
64,192,29701,1,0,0:0:0:0:
192,192,30040,128,0,32752:0:0:0:0:
320,192,30040,1,0,0:0:0:0:
64,192,30040,1,0,0:0:0:0:
448,192,30379,1,0,0:0:0:0:
64,192,30379,1,0,0:0:0:0:
320,192,30718,1,0,0:0:0:0:
448,192,30718,1,0,0:0:0:0:
320,192,31057,1,0,0:0:0:0:
64,192,31057,1,0,0:0:0:0:
64,192,32752,128,0,35464:0:0:0:0:
320,192,32752,1,0,0:0:0:0:
448,192,32752,1,0,0:0:0:0:
192,192,33091,1,0,0:0:0:0:
448,192,33091,1,0,0:0:0:0:
320,192,33430,1,0,0:0:0:0:
192,192,33430,1,0,0:0:0:0:
192,192,33769,1,0,0:0:0:0:
448,192,33769,1,0,0:0:0:0:
320,192,34108,1,0,0:0:0:0:
448,192,34108,1,0,0:0:0:0:
448,192,34447,1,0,0:0:0:0:
192,192,34447,1,0,0:0:0:0:
320,192,34786,1,0,0:0:0:0:
192,192,34786,1,0,0:0:0:0:
192,192,35125,1,0,0:0:0:0:
448,192,35125,1,0,0:0:0:0:
320,192,35464,128,0,38176:0:0:0:0:
448,192,35464,1,0,0:0:0:0:
192,192,35464,1,0,0:0:0:0:
64,192,35803,1,0,0:0:0:0:
448,192,35803,1,0,0:0:0:0:
192,192,36142,1,0,0:0:0:0:
64,192,36142,1,0,0:0:0:0:
192,192,36481,1,0,0:0:0:0:
448,192,36481,1,0,0:0:0:0:
192,192,36820,1,0,0:0:0:0:
64,192,36820,1,0,0:0:0:0:
64,192,37159,1,0,0:0:0:0:
448,192,37159,1,0,0:0:0:0:
64,192,37498,1,0,0:0:0:0:
192,192,37498,1,0,0:0:0:0:
192,192,37837,1,0,0:0:0:0:
448,192,37837,1,0,0:0:0:0:
448,192,38006,1,0,0:0:0:0:
192,192,38006,1,0,0:0:0:0:
448,192,38176,128,0,40887:0:0:0:0:
192,192,38176,1,0,0:0:0:0:
64,192,38176,1,0,0:0:0:0:
320,192,38345,1,0,0:0:0:0:
192,192,38515,1,0,0:0:0:0:
64,192,38515,1,0,0:0:0:0:
320,192,38684,1,0,0:0:0:0:
192,192,38854,1,0,0:0:0:0:
64,192,38854,1,0,0:0:0:0:
64,192,39193,1,0,0:0:0:0:
320,192,39193,1,0,0:0:0:0:
192,192,39532,1,0,0:0:0:0:
320,192,39532,1,0,0:0:0:0:
320,192,39871,1,0,0:0:0:0:
64,192,39871,1,0,0:0:0:0:
192,192,40210,1,0,0:0:0:0:
64,192,40210,1,0,0:0:0:0:
64,192,40548,1,0,0:0:0:0:
320,192,40548,1,0,0:0:0:0:
192,192,40887,128,0,42243:0:0:0:0:
320,192,40887,1,0,0:0:0:0:
64,192,40887,1,0,0:0:0:0:
64,192,41226,1,0,0:0:0:0:
448,192,41226,128,0,42243:0:0:0:0:
320,192,41565,128,0,42243:0:0:0:0:
64,192,41904,128,0,42243:0:0:0:0:
64,192,43599,5,0,0:0:0:0:
320,192,43599,1,2,0:0:0:0:
448,192,43599,1,4,0:0:0:0:
192,192,43769,1,0,0:0:0:0:
64,192,43938,1,2,0:0:0:0:
448,192,43938,1,0,0:0:0:0:
320,192,44108,1,0,0:0:0:0:
192,192,44277,1,2,0:0:0:0:
448,192,44277,1,0,0:0:0:0:
320,192,44447,1,0,0:0:0:0:
192,192,44616,1,2,0:0:0:0:
64,192,44616,1,0,0:0:0:0:
320,192,44786,1,0,0:0:0:0:
192,192,44955,1,2,0:0:0:0:
448,192,44955,1,0,0:0:0:0:
64,192,45125,1,0,0:0:0:0:
192,192,45294,1,0,0:0:0:0:
320,192,45294,1,2,0:0:0:0:
448,192,45464,1,0,0:0:0:0:
320,192,45633,1,2,0:0:0:0:
64,192,45633,1,0,0:0:0:0:
192,192,45803,1,0,0:0:0:0:
320,192,45972,1,2,0:0:0:0:
448,192,45972,1,0,0:0:0:0:
192,192,46142,1,0,0:0:0:0:
64,192,46311,1,0,0:0:0:0:
448,192,46311,1,2,0:0:0:0:
320,192,46481,1,0,0:0:0:0:
192,192,46650,1,2,0:0:0:0:
64,192,46650,1,0,0:0:0:0:
448,192,46820,1,0,0:0:0:0:
320,192,46989,1,2,0:0:0:0:
64,192,46989,1,0,0:0:0:0:
192,192,47159,1,0,0:0:0:0:
448,192,47328,1,2,0:0:0:0:
64,192,47328,1,0,0:0:0:0:
320,192,47498,1,0,0:0:0:0:
192,192,47667,1,2,0:0:0:0:
64,192,47667,1,0,0:0:0:0:
320,192,47837,1,0,0:0:0:0:
192,192,48006,1,2,0:0:0:0:
448,192,48006,1,0,0:0:0:0:
64,192,48176,1,0,0:0:0:0:
192,192,48345,1,2,0:0:0:0:
320,192,48345,1,0,0:0:0:0:
448,192,48515,128,0,48684:0:0:0:0:
64,192,48684,1,0,0:0:0:0:
192,192,48684,1,2,0:0:0:0:
320,192,48854,1,2,0:0:0:0:
448,192,48854,1,0,0:0:0:0:
192,192,49023,1,2,0:0:0:0:
64,192,49023,1,0,0:0:0:0:
448,192,49023,1,0,0:0:0:0:
320,192,49193,1,0,0:0:0:0:
64,192,49362,1,0,0:0:0:0:
448,192,49362,1,2,0:0:0:0:
192,192,49532,1,0,0:0:0:0:
320,192,49701,1,0,0:0:0:0:
448,192,49701,1,2,0:0:0:0:
192,192,49871,1,0,0:0:0:0:
448,192,50040,1,2,0:0:0:0:
64,192,50040,1,0,0:0:0:0:
320,192,50210,1,0,0:0:0:0:
192,192,50379,1,2,0:0:0:0:
448,192,50379,1,0,0:0:0:0:
64,192,50548,1,0,0:0:0:0:
192,192,50718,1,2,0:0:0:0:
320,192,50718,1,0,0:0:0:0:
448,192,50887,1,0,0:0:0:0:
192,192,51057,1,2,0:0:0:0:
64,192,51057,1,0,0:0:0:0:
320,192,51226,1,0,0:0:0:0:
448,192,51396,1,2,0:0:0:0:
192,192,51396,1,0,0:0:0:0:
64,192,51565,128,0,51735:0:0:0:0:
320,192,51735,1,2,0:0:0:0:
192,192,51735,1,0,0:0:0:0:
448,192,51904,1,0,0:0:0:0:
320,192,52074,1,2,0:0:0:0:
64,192,52074,1,0,0:0:0:0:
192,192,52243,1,0,0:0:0:0:
448,192,52413,1,0,0:0:0:0:
320,192,52413,1,2,0:0:0:0:
192,192,52582,1,0,0:0:0:0:
448,192,52752,1,2,0:0:0:0:
64,192,52752,1,0,0:0:0:0:
320,192,52921,1,0,0:0:0:0:
448,192,53091,1,2,0:0:0:0:
192,192,53091,1,0,0:0:0:0:
320,192,53260,1,0,0:0:0:0:
64,192,53430,1,2,0:0:0:0:
448,192,53430,1,0,0:0:0:0:
192,192,53599,1,0,0:0:0:0:
320,192,53769,1,0,0:0:0:0:
64,192,53769,1,2,0:0:0:0:
448,192,53938,128,0,54108:0:0:0:0:
64,192,54108,1,0,0:0:0:0:
192,192,54150,1,0,0:0:0:0:
320,192,54193,1,0,0:0:0:0:
448,192,54235,1,0,0:0:0:0:
64,192,54277,1,0,0:0:0:0:
192,192,54320,1,0,0:0:0:0:
320,192,54362,1,0,0:0:0:0:
448,192,54404,1,0,0:0:0:0:
192,192,54447,1,2,0:0:0:0:
64,192,54447,1,0,0:0:0:0:
320,192,54616,1,0,0:0:0:0:
448,192,54786,1,2,0:0:0:0:
64,192,54786,1,0,0:0:0:0:
192,192,54955,1,0,0:0:0:0:
320,192,55125,1,0,0:0:0:0:
448,192,55125,1,2,0:0:0:0:
192,192,55294,1,0,0:0:0:0:
320,192,55464,1,2,0:0:0:0:
64,192,55464,1,0,0:0:0:0:
448,192,55633,1,0,0:0:0:0:
192,192,55803,1,0,0:0:0:0:
320,192,55803,1,2,0:0:0:0:
64,192,55972,1,0,0:0:0:0:
192,192,56142,1,0,0:0:0:0:
448,192,56142,1,2,0:0:0:0:
320,192,56311,1,0,0:0:0:0:
64,192,56481,1,0,0:0:0:0:
448,192,56481,1,2,0:0:0:0:
192,192,56650,1,0,0:0:0:0:
320,192,56820,1,0,0:0:0:0:
448,192,56820,1,2,0:0:0:0:
192,192,56989,1,0,0:0:0:0:
448,192,57159,1,2,0:0:0:0:
64,192,57159,1,0,0:0:0:0:
320,192,57328,1,0,0:0:0:0:
192,192,57498,1,0,0:0:0:0:
64,192,57498,1,2,0:0:0:0:
448,192,57667,1,0,0:0:0:0:
320,192,57837,1,0,0:0:0:0:
64,192,57837,1,2,0:0:0:0:
192,192,58006,1,0,0:0:0:0:
320,192,58176,1,2,0:0:0:0:
448,192,58176,1,0,0:0:0:0:
64,192,58345,1,0,0:0:0:0:
448,192,58515,1,0,0:0:0:0:
192,192,58515,1,2,0:0:0:0:
320,192,58684,1,0,0:0:0:0:
192,192,58854,1,2,0:0:0:0:
64,192,58854,1,0,0:0:0:0:
448,192,59023,1,0,0:0:0:0:
320,192,59193,1,2,0:0:0:0:
64,192,59193,1,0,0:0:0:0:
192,192,59362,128,0,59532:0:0:0:0:
448,192,59532,1,2,0:0:0:0:
320,192,59532,1,0,0:0:0:0:
64,192,59701,1,0,0:0:0:0:
192,192,59701,1,2,0:0:0:0:
64,192,59871,1,0,0:0:0:0:
448,192,59871,1,2,0:0:0:0:
320,192,59871,1,0,0:0:0:0:
192,192,60040,1,0,0:0:0:0:
448,192,60210,1,0,0:0:0:0:
64,192,60210,1,2,0:0:0:0:
320,192,60379,1,0,0:0:0:0:
192,192,60548,1,0,0:0:0:0:
64,192,60548,1,2,0:0:0:0:
320,192,60718,1,0,0:0:0:0:
448,192,60887,1,0,0:0:0:0:
192,192,60887,1,2,0:0:0:0:
64,192,61057,1,0,0:0:0:0:
192,192,61226,1,2,0:0:0:0:
320,192,61226,1,0,0:0:0:0:
448,192,61396,1,0,0:0:0:0:
64,192,61565,1,0,0:0:0:0:
320,192,61565,1,2,0:0:0:0:
192,192,61735,1,0,0:0:0:0:
320,192,61904,1,2,0:0:0:0:
448,192,61904,1,0,0:0:0:0:
192,192,62074,1,0,0:0:0:0:
64,192,62243,1,0,0:0:0:0:
448,192,62243,1,2,0:0:0:0:
192,192,62413,128,0,62582:0:0:0:0:
64,192,62582,1,0,0:0:0:0:
320,192,62582,1,2,0:0:0:0:
448,192,62752,1,0,0:0:0:0:
192,192,62921,1,0,0:0:0:0:
320,192,62921,1,2,0:0:0:0:
64,192,63091,1,0,0:0:0:0:
192,192,63260,1,2,0:0:0:0:
448,192,63260,1,0,0:0:0:0:
320,192,63430,1,0,0:0:0:0:
192,192,63599,1,2,0:0:0:0:
64,192,63599,1,0,0:0:0:0:
448,192,63769,1,0,0:0:0:0:
320,192,63938,1,0,0:0:0:0:
64,192,63938,1,2,0:0:0:0:
192,192,64108,1,0,0:0:0:0:
320,192,64277,1,2,0:0:0:0:
448,192,64277,1,0,0:0:0:0:
192,192,64447,1,0,0:0:0:0:
64,192,64616,128,0,64786:0:0:0:0:
448,192,64786,128,0,64955:0:0:0:0:
64,192,64955,1,0,0:0:0:0:
192,192,64998,1,0,0:0:0:0:
320,192,65040,1,0,0:0:0:0:
448,192,65082,1,0,0:0:0:0:
64,192,65125,128,0,65294:0:0:0:0:
320,192,65294,1,2,0:0:0:0:
448,192,65294,128,4,65464:0:0:0:0:
64,192,65464,1,0,0:0:0:0:
320,192,65633,1,2,0:0:0:0:
192,192,65633,128,0,65803:0:0:0:0:
448,192,65803,1,0,0:0:0:0:
320,192,65972,1,2,0:0:0:0:
64,192,65972,128,0,66142:0:0:0:0:
192,192,66142,1,0,0:0:0:0:
320,192,66311,1,2,0:0:0:0:
448,192,66311,128,0,66481:0:0:0:0:
64,192,66481,1,0,0:0:0:0:
320,192,66650,1,2,0:0:0:0:
192,192,66650,128,0,66820:0:0:0:0:
448,192,66820,1,0,0:0:0:0:
64,192,66989,1,2,0:0:0:0:
320,192,66989,128,0,67159:0:0:0:0:
192,192,67159,1,0,0:0:0:0:
448,192,67328,1,2,0:0:0:0:
64,192,67328,128,0,67498:0:0:0:0:
192,192,67498,1,0,0:0:0:0:
448,192,67667,1,2,0:0:0:0:
320,192,67667,128,0,67837:0:0:0:0:
64,192,67837,1,0,0:0:0:0:
192,192,68006,1,2,0:0:0:0:
448,192,68006,128,0,68176:0:0:0:0:
320,192,68176,1,0,0:0:0:0:
192,192,68345,1,2,0:0:0:0:
64,192,68345,128,0,68515:0:0:0:0:
320,192,68515,1,0,0:0:0:0:
448,192,68684,1,2,0:0:0:0:
192,192,68684,128,0,68854:0:0:0:0:
64,192,68854,1,0,0:0:0:0:
320,192,69023,1,2,0:0:0:0:
448,192,69023,128,0,69193:0:0:0:0:
64,192,69193,1,0,0:0:0:0:
320,192,69362,1,2,0:0:0:0:
192,192,69362,128,0,69532:0:0:0:0:
448,192,69532,1,0,0:0:0:0:
64,192,69701,1,2,0:0:0:0:
448,192,69701,128,0,69871:0:0:0:0:
320,192,69871,1,0,0:0:0:0:
64,192,70040,1,0,0:0:0:0:
192,192,70082,1,0,0:0:0:0:
448,192,70125,1,0,0:0:0:0:
320,192,70167,1,0,0:0:0:0:
64,192,70210,1,0,0:0:0:0:
192,192,70252,1,0,0:0:0:0:
320,192,70294,1,0,0:0:0:0:
448,192,70337,1,0,0:0:0:0:
64,192,70379,128,0,70548:0:0:0:0:
192,192,70548,1,0,0:0:0:0:
448,192,70548,1,2,0:0:0:0:
320,192,70718,1,0,0:0:0:0:
64,192,70718,1,2,0:0:0:0:
448,192,70718,128,0,70887:0:0:0:0:
192,192,70887,1,0,0:0:0:0:
448,192,71057,1,2,0:0:0:0:
320,192,71057,128,0,71226:0:0:0:0:
64,192,71226,1,0,0:0:0:0:
192,192,71396,1,2,0:0:0:0:
64,192,71396,128,0,71565:0:0:0:0:
448,192,71565,1,0,0:0:0:0:
192,192,71735,1,2,0:0:0:0:
320,192,71735,128,0,71904:0:0:0:0:
64,192,71904,1,0,0:0:0:0:
192,192,72074,1,2,0:0:0:0:
448,192,72074,128,0,72243:0:0:0:0:
320,192,72243,1,0,0:0:0:0:
64,192,72413,1,2,0:0:0:0:
192,192,72413,128,0,72582:0:0:0:0:
448,192,72582,1,0,0:0:0:0:
320,192,72752,1,2,0:0:0:0:
64,192,72752,128,0,72921:0:0:0:0:
192,192,72921,1,0,0:0:0:0:
320,192,73091,1,2,0:0:0:0:
448,192,73091,128,0,73260:0:0:0:0:
64,192,73260,1,0,0:0:0:0:
320,192,73430,1,2,0:0:0:0:
192,192,73430,128,0,73599:0:0:0:0:
448,192,73599,1,0,0:0:0:0:
192,192,73769,1,2,0:0:0:0:
64,192,73769,128,0,73938:0:0:0:0:
448,192,73938,1,0,0:0:0:0:
64,192,74108,1,2,0:0:0:0:
320,192,74108,128,0,74277:0:0:0:0:
192,192,74277,1,0,0:0:0:0:
320,192,74447,1,2,0:0:0:0:
448,192,74447,128,0,74616:0:0:0:0:
192,192,74616,1,0,0:0:0:0:
448,192,74786,1,2,0:0:0:0:
64,192,74786,128,0,74955:0:0:0:0:
320,192,74955,1,0,0:0:0:0:
448,192,75125,1,2,0:0:0:0:
64,192,75125,128,0,75294:0:0:0:0:
192,192,75294,1,0,0:0:0:0:
320,192,75464,1,2,0:0:0:0:
448,192,75464,128,0,75633:0:0:0:0:
192,192,75633,1,0,0:0:0:0:
64,192,75803,1,0,0:0:0:0:
448,192,75803,1,0,0:0:0:0:
192,192,75845,1,0,0:0:0:0:
320,192,75887,1,0,0:0:0:0:
64,192,75972,1,0,0:0:0:0:
448,192,75972,1,0,0:0:0:0:
320,192,76015,1,0,0:0:0:0:
192,192,76057,1,0,0:0:0:0:
64,192,76142,1,0,0:0:0:0:
448,192,76142,1,4,0:0:0:0:
64,192,76311,5,0,0:0:0:0:
320,192,76311,1,2,0:0:0:0:
448,192,76311,1,0,0:0:0:0:
320,192,76481,1,2,0:0:0:0:
448,192,76481,1,0,0:0:0:0:
64,192,76481,128,0,76650:0:0:0:0:
192,192,76650,1,0,0:0:0:0:
320,192,76820,1,2,0:0:0:0:
64,192,76820,128,0,76989:0:0:0:0:
192,192,76820,1,0,0:0:0:0:
448,192,76989,1,0,0:0:0:0:
192,192,77159,1,0,0:0:0:0:
320,192,77159,128,2,77328:0:0:0:0:
448,192,77159,1,0,0:0:0:0:
64,192,77328,1,0,0:0:0:0:
192,192,77498,1,2,0:0:0:0:
448,192,77498,128,0,77667:0:0:0:0:
64,192,77498,1,0,0:0:0:0:
320,192,77667,1,0,0:0:0:0:
64,192,77837,1,0,0:0:0:0:
192,192,77837,128,2,78006:0:0:0:0:
320,192,77837,1,0,0:0:0:0:
448,192,78006,1,0,0:0:0:0:
192,192,78176,1,0,0:0:0:0:
320,192,78176,128,2,78345:0:0:0:0:
448,192,78176,1,0,0:0:0:0:
64,192,78345,1,0,0:0:0:0:
192,192,78515,1,0,0:0:0:0:
448,192,78515,128,2,78684:0:0:0:0:
64,192,78515,1,0,0:0:0:0:
320,192,78684,1,0,0:0:0:0:
192,192,78854,1,0,0:0:0:0:
64,192,78854,128,2,79023:0:0:0:0:
320,192,78854,1,0,0:0:0:0:
448,192,79023,1,0,0:0:0:0:
64,192,79193,1,2,0:0:0:0:
320,192,79193,128,0,79362:0:0:0:0:
448,192,79193,1,0,0:0:0:0:
192,192,79362,1,0,0:0:0:0:
320,192,79532,1,0,0:0:0:0:
448,192,79532,128,2,79701:0:0:0:0:
192,192,79532,1,0,0:0:0:0:
64,192,79701,1,0,0:0:0:0:
320,192,79871,1,0,0:0:0:0:
192,192,79871,128,2,80040:0:0:0:0:
64,192,79871,1,0,0:0:0:0:
448,192,80040,1,0,0:0:0:0:
192,192,80210,1,0,0:0:0:0:
64,192,80210,128,2,80379:0:0:0:0:
448,192,80210,1,0,0:0:0:0:
320,192,80379,1,0,0:0:0:0:
64,192,80548,1,0,0:0:0:0:
448,192,80548,128,2,80718:0:0:0:0:
320,192,80548,1,0,0:0:0:0:
192,192,80718,1,0,0:0:0:0:
448,192,80887,1,0,0:0:0:0:
320,192,80887,128,2,81057:0:0:0:0:
192,192,80887,1,0,0:0:0:0:
64,192,81057,1,0,0:0:0:0:
192,192,81226,1,2,0:0:0:0:
320,192,81226,1,0,0:0:0:0:
448,192,81226,1,0,0:0:0:0:
64,192,81396,1,0,0:0:0:0:
320,192,81396,1,2,0:0:0:0:
448,192,81396,1,0,0:0:0:0:
64,192,81565,1,0,0:0:0:0:
448,192,81565,1,0,0:0:0:0:
192,192,81565,128,2,81735:0:0:0:0:
320,192,81735,1,0,0:0:0:0:
448,192,81904,1,0,0:0:0:0:
64,192,81904,128,2,82074:0:0:0:0:
320,192,81904,1,0,0:0:0:0:
192,192,82074,1,0,0:0:0:0:
320,192,82243,1,0,0:0:0:0:
448,192,82243,128,2,82413:0:0:0:0:
192,192,82243,1,0,0:0:0:0:
64,192,82413,1,0,0:0:0:0:
320,192,82582,1,0,0:0:0:0:
192,192,82582,128,2,82752:0:0:0:0:
64,192,82582,1,0,0:0:0:0:
448,192,82752,1,0,0:0:0:0:
320,192,82921,1,0,0:0:0:0:
64,192,82921,128,2,83091:0:0:0:0:
448,192,82921,1,0,0:0:0:0:
192,192,83091,1,0,0:0:0:0:
320,192,83260,1,0,0:0:0:0:
448,192,83260,128,2,83430:0:0:0:0:
64,192,83260,1,0,0:0:0:0:
192,192,83430,1,0,0:0:0:0:
448,192,83599,1,0,0:0:0:0:
64,192,83599,128,2,83769:0:0:0:0:
320,192,83599,1,0,0:0:0:0:
448,192,83769,1,0,0:0:0:0:
64,192,83938,1,0,0:0:0:0:
192,192,83938,128,2,84108:0:0:0:0:
320,192,83938,1,0,0:0:0:0:
448,192,84108,1,0,0:0:0:0:
64,192,84277,1,0,0:0:0:0:
320,192,84277,128,2,84447:0:0:0:0:
448,192,84277,1,0,0:0:0:0:
192,192,84447,1,0,0:0:0:0:
320,192,84616,1,0,0:0:0:0:
448,192,84616,128,2,84786:0:0:0:0:
192,192,84616,1,0,0:0:0:0:
64,192,84786,1,0,0:0:0:0:
448,192,84955,1,0,0:0:0:0:
192,192,84955,128,2,85125:0:0:0:0:
64,192,84955,1,0,0:0:0:0:
320,192,85125,1,0,0:0:0:0:
192,192,85294,1,0,0:0:0:0:
64,192,85294,128,2,85464:0:0:0:0:
320,192,85294,1,0,0:0:0:0:
448,192,85464,1,0,0:0:0:0:
64,192,85633,1,0,0:0:0:0:
320,192,85633,128,4,85803:0:0:0:0:
192,192,85803,1,0,0:0:0:0:
320,192,85972,128,0,86142:0:0:0:0:
64,192,85972,1,0,0:0:0:0:
192,192,86142,1,0,0:0:0:0:
64,192,86311,128,0,86481:0:0:0:0:
448,192,86311,1,0,0:0:0:0:
320,192,86481,1,0,0:0:0:0:
448,192,86650,1,0,0:0:0:0:
64,192,86650,128,0,86820:0:0:0:0:
192,192,86650,1,0,0:0:0:0:
320,192,86820,1,0,0:0:0:0:
64,192,86989,1,0,0:0:0:0:
448,192,86989,1,4,0:0:0:0:
192,192,86989,128,0,87159:0:0:0:0:
320,192,87159,1,0,0:0:0:0:
448,192,87328,128,0,87498:0:0:0:0:
64,192,87328,1,2,0:0:0:0:
320,192,87328,1,0,0:0:0:0:
192,192,87498,1,0,0:0:0:0:
64,192,87667,128,0,87837:0:0:0:0:
448,192,87667,1,2,0:0:0:0:
192,192,87667,1,0,0:0:0:0:
320,192,87837,1,0,0:0:0:0:
64,192,88006,1,2,0:0:0:0:
192,192,88006,128,0,88176:0:0:0:0:
320,192,88006,1,0,0:0:0:0:
448,192,88176,1,0,0:0:0:0:
64,192,88345,1,2,0:0:0:0:
320,192,88345,128,0,88515:0:0:0:0:
448,192,88345,1,0,0:0:0:0:
192,192,88515,1,0,0:0:0:0:
64,192,88684,128,0,88854:0:0:0:0:
192,192,88684,1,2,0:0:0:0:
448,192,88684,1,0,0:0:0:0:
320,192,88854,1,0,0:0:0:0:
448,192,89023,128,0,89193:0:0:0:0:
192,192,89023,1,2,0:0:0:0:
320,192,89023,1,0,0:0:0:0:
64,192,89193,1,0,0:0:0:0:
320,192,89362,128,0,89532:0:0:0:0:
192,192,89362,1,2,0:0:0:0:
64,192,89362,1,0,0:0:0:0:
448,192,89532,1,0,0:0:0:0:
192,192,89701,128,2,89871:0:0:0:0:
64,192,89701,1,0,0:0:0:0:
448,192,89701,1,0,0:0:0:0:
320,192,89871,1,0,0:0:0:0:
192,192,90040,1,2,0:0:0:0:
64,192,90040,128,0,90210:0:0:0:0:
320,192,90040,1,0,0:0:0:0:
448,192,90210,1,0,0:0:0:0:
192,192,90379,1,0,0:0:0:0:
320,192,90379,128,2,90548:0:0:0:0:
448,192,90379,1,0,0:0:0:0:
64,192,90548,1,0,0:0:0:0:
192,192,90718,1,2,0:0:0:0:
448,192,90718,128,0,90887:0:0:0:0:
64,192,90718,1,0,0:0:0:0:
320,192,90887,1,0,0:0:0:0:
64,192,91057,1,2,0:0:0:0:
192,192,91057,128,0,91226:0:0:0:0:
320,192,91057,1,0,0:0:0:0:
448,192,91226,1,0,0:0:0:0:
320,192,91396,1,2,0:0:0:0:
64,192,91396,128,0,91565:0:0:0:0:
448,192,91396,1,0,0:0:0:0:
192,192,91565,1,0,0:0:0:0:
320,192,91735,1,2,0:0:0:0:
448,192,91735,128,0,91904:0:0:0:0:
192,192,91735,1,0,0:0:0:0:
64,192,91904,1,0,0:0:0:0:
448,192,92074,1,0,0:0:0:0:
320,192,92116,1,0,0:0:0:0:
192,192,92159,1,0,0:0:0:0:
64,192,92201,1,0,0:0:0:0:
320,192,92243,1,0,0:0:0:0:
448,192,92286,1,0,0:0:0:0:
192,192,92328,1,0,0:0:0:0:
64,192,92371,1,0,0:0:0:0:
448,192,92413,1,4,0:0:0:0:
320,192,92413,128,2,92582:0:0:0:0:
192,192,92582,1,0,0:0:0:0:
64,192,92752,1,2,0:0:0:0:
448,192,92752,128,0,92921:0:0:0:0:
192,192,92752,1,0,0:0:0:0:
320,192,92921,1,0,0:0:0:0:
192,192,93091,1,0,0:0:0:0:
64,192,93091,128,2,93260:0:0:0:0:
320,192,93091,1,0,0:0:0:0:
448,192,93260,1,0,0:0:0:0:
192,192,93430,1,0,0:0:0:0:
320,192,93430,128,2,93599:0:0:0:0:
448,192,93430,1,0,0:0:0:0:
64,192,93599,1,0,0:0:0:0:
192,192,93769,1,0,0:0:0:0:
448,192,93769,128,2,93938:0:0:0:0:
64,192,93769,1,0,0:0:0:0:
320,192,93938,1,0,0:0:0:0:
64,192,94108,1,0,0:0:0:0:
192,192,94108,128,2,94277:0:0:0:0:
320,192,94108,1,0,0:0:0:0:
448,192,94277,1,0,0:0:0:0:
64,192,94447,1,0,0:0:0:0:
320,192,94447,128,2,94616:0:0:0:0:
448,192,94447,1,0,0:0:0:0:
192,192,94616,1,0,0:0:0:0:
448,192,94786,1,0,0:0:0:0:
64,192,94786,128,2,94955:0:0:0:0:
192,192,94786,1,0,0:0:0:0:
320,192,94955,1,0,0:0:0:0:
64,192,95125,1,0,0:0:0:0:
192,192,95125,128,2,95294:0:0:0:0:
320,192,95125,1,0,0:0:0:0:
448,192,95294,1,0,0:0:0:0:
192,192,95464,1,0,0:0:0:0:
448,192,95464,128,2,95633:0:0:0:0:
320,192,95464,1,0,0:0:0:0:
64,192,95633,1,0,0:0:0:0:
192,192,95803,1,0,0:0:0:0:
320,192,95803,128,2,95972:0:0:0:0:
64,192,95803,1,0,0:0:0:0:
448,192,95972,1,0,0:0:0:0:
320,192,96142,1,0,0:0:0:0:
64,192,96142,128,2,96311:0:0:0:0:
448,192,96142,1,0,0:0:0:0:
192,192,96311,1,0,0:0:0:0:
320,192,96481,1,0,0:0:0:0:
448,192,96481,128,2,96650:0:0:0:0:
64,192,96481,1,0,0:0:0:0:
192,192,96650,1,0,0:0:0:0:
320,192,96820,1,0,0:0:0:0:
192,192,96820,128,2,96989:0:0:0:0:
448,192,96989,1,0,0:0:0:0:
64,192,97159,1,0,0:0:0:0:
192,192,97201,1,0,0:0:0:0:
320,192,97243,1,0,0:0:0:0:
448,192,97286,1,0,0:0:0:0:
64,192,97328,1,0,0:0:0:0:
192,192,97371,1,0,0:0:0:0:
320,192,97413,1,0,0:0:0:0:
448,192,97455,1,0,0:0:0:0:
64,192,97498,1,0,0:0:0:0:
192,192,97540,1,0,0:0:0:0:
448,192,97582,1,0,0:0:0:0:
320,192,97625,1,0,0:0:0:0:
64,192,97667,1,0,0:0:0:0:
192,192,97710,1,0,0:0:0:0:
448,192,97752,1,0,0:0:0:0:
320,192,97794,1,0,0:0:0:0:
192,192,97837,1,2,0:0:0:0:
64,192,97837,1,4,0:0:0:0:
64,192,98006,1,0,0:0:0:0:
192,192,98006,1,2,0:0:0:0:
448,192,98006,1,0,0:0:0:0:
64,192,98176,1,0,0:0:0:0:
320,192,98176,1,2,0:0:0:0:
448,192,98176,128,0,98345:0:0:0:0:
192,192,98345,1,0,0:0:0:0:
448,192,98515,1,0,0:0:0:0:
64,192,98515,128,2,98684:0:0:0:0:
192,192,98515,1,0,0:0:0:0:
320,192,98684,1,0,0:0:0:0:
64,192,98854,1,0,0:0:0:0:
192,192,98854,128,2,99023:0:0:0:0:
320,192,98854,1,0,0:0:0:0:
448,192,99023,1,0,0:0:0:0:
64,192,99193,1,0,0:0:0:0:
320,192,99193,128,2,99362:0:0:0:0:
448,192,99193,1,0,0:0:0:0:
192,192,99362,1,0,0:0:0:0:
320,192,99532,1,0,0:0:0:0:
448,192,99532,128,2,99701:0:0:0:0:
192,192,99532,1,0,0:0:0:0:
64,192,99701,1,0,0:0:0:0:
320,192,99871,1,0,0:0:0:0:
192,192,99871,128,2,100040:0:0:0:0:
64,192,99871,1,0,0:0:0:0:
448,192,100040,1,0,0:0:0:0:
64,192,100210,1,0,0:0:0:0:
192,192,100252,1,0,0:0:0:0:
320,192,100294,1,0,0:0:0:0:
448,192,100337,1,0,0:0:0:0:
64,192,100379,1,0,0:0:0:0:
192,192,100421,1,0,0:0:0:0:
320,192,100464,1,0,0:0:0:0:
448,192,100506,1,0,0:0:0:0:
192,192,100548,1,2,0:0:0:0:
64,192,100548,128,0,100718:0:0:0:0:
320,192,100718,1,0,0:0:0:0:
64,192,100887,1,0,0:0:0:0:
448,192,100887,128,2,101057:0:0:0:0:
320,192,100887,1,0,0:0:0:0:
192,192,101057,1,0,0:0:0:0:
448,192,101226,1,0,0:0:0:0:
320,192,101226,128,2,101396:0:0:0:0:
192,192,101226,1,0,0:0:0:0:
64,192,101396,1,0,0:0:0:0:
448,192,101565,1,0,0:0:0:0:
320,192,101608,1,0,0:0:0:0:
192,192,101650,1,0,0:0:0:0:
64,192,101693,1,0,0:0:0:0:
448,192,101735,128,0,101904:0:0:0:0:
192,192,101904,1,0,0:0:0:0:
320,192,101904,128,2,102074:0:0:0:0:
64,192,102074,1,0,0:0:0:0:
192,192,102243,1,0,0:0:0:0:
448,192,102243,128,2,102413:0:0:0:0:
320,192,102413,1,0,0:0:0:0:
64,192,102413,1,0,0:0:0:0:
192,192,102582,1,0,0:0:0:0:
64,192,102582,128,2,102752:0:0:0:0:
448,192,102582,1,0,0:0:0:0:
320,192,102752,1,0,0:0:0:0:
64,192,102921,1,0,0:0:0:0:
192,192,102964,1,0,0:0:0:0:
320,192,103006,1,0,0:0:0:0:
448,192,103048,1,0,0:0:0:0:
64,192,103091,1,0,0:0:0:0:
192,192,103133,1,0,0:0:0:0:
320,192,103176,1,0,0:0:0:0:
448,192,103218,1,0,0:0:0:0:
192,192,103260,1,2,0:0:0:0:
64,192,103260,128,4,103430:0:0:0:0:
320,192,103430,1,0,0:0:0:0:
64,192,103599,1,0,0:0:0:0:
448,192,103599,128,2,103769:0:0:0:0:
320,192,103599,1,0,0:0:0:0:
192,192,103599,1,0,0:0:0:0:
192,192,103769,1,0,0:0:0:0:
448,192,103938,1,0,0:0:0:0:
320,192,103938,128,2,104108:0:0:0:0:
192,192,103938,1,0,0:0:0:0:
64,192,103938,1,0,0:0:0:0:
64,192,104108,1,0,0:0:0:0:
448,192,104277,1,0,0:0:0:0:
192,192,104277,128,2,104447:0:0:0:0:
64,192,104277,1,0,0:0:0:0:
320,192,104277,1,0,0:0:0:0:
320,192,104447,1,0,0:0:0:0:
192,192,104616,1,0,0:0:0:0:
64,192,104616,128,2,104786:0:0:0:0:
320,192,104616,1,0,0:0:0:0:
448,192,104616,1,0,0:0:0:0:
448,192,104786,1,0,0:0:0:0:
192,192,104955,1,0,0:0:0:0:
320,192,104955,128,2,105125:0:0:0:0:
448,192,104955,1,0,0:0:0:0:
64,192,104955,1,0,0:0:0:0:
64,192,105125,1,0,0:0:0:0:
192,192,105294,1,0,0:0:0:0:
448,192,105294,128,2,105464:0:0:0:0:
64,192,105294,1,0,0:0:0:0:
320,192,105294,1,0,0:0:0:0:
320,192,105464,1,0,0:0:0:0:
64,192,105633,1,0,0:0:0:0:
448,192,105633,1,2,0:0:0:0:
192,192,105633,1,0,0:0:0:0:
192,192,105803,1,0,0:0:0:0:
320,192,105803,1,2,0:0:0:0:
192,192,105972,1,0,0:0:0:0:
448,192,105972,1,0,0:0:0:0:
448,192,106142,1,0,0:0:0:0:
64,192,106142,1,0,0:0:0:0:
320,192,106311,1,0,0:0:0:0:
64,192,106311,1,0,0:0:0:0:
448,192,106481,1,0,0:0:0:0:
192,192,106481,1,0,0:0:0:0:
64,192,106650,1,0,0:0:0:0:
320,192,106650,1,0,0:0:0:0:
448,192,106820,1,0,0:0:0:0:
64,192,106820,1,0,0:0:0:0:
320,192,106989,1,2,0:0:0:0:
448,192,106989,1,0,0:0:0:0:
64,192,107159,1,0,0:0:0:0:
192,192,107159,1,2,0:0:0:0:
448,192,107328,1,4,0:0:0:0:
320,192,107328,1,2,0:0:0:0:
64,192,107498,5,0,0:0:0:0:
448,192,107498,1,0,0:0:0:0:
192,192,107498,1,2,0:0:0:0:
448,192,107667,1,0,0:0:0:0:
320,192,107667,1,2,0:0:0:0:
64,192,107667,1,4,0:0:0:0:
64,192,107837,1,0,0:0:0:0:
192,192,107837,1,2,0:0:0:0:
320,192,107837,1,0,0:0:0:0:
192,192,108006,1,2,0:0:0:0:
320,192,108006,1,4,0:0:0:0:
448,192,108006,1,0,0:0:0:0:
192,192,108176,1,2,0:0:0:0:
448,192,108176,1,0,0:0:0:0:
64,192,108176,1,0,0:0:0:0:
320,192,108345,1,2,0:0:0:0:
64,192,108345,1,0,0:0:0:0:
448,192,108345,1,4,0:0:0:0:
192,192,108515,1,0,0:0:0:0:
64,192,108515,1,0,0:0:0:0:
320,192,108515,1,2,0:0:0:0:
64,192,108684,5,4,0:0:0:0:
448,192,108684,1,0,0:0:0:0:
320,192,108684,1,2,0:0:0:0:
192,192,108684,1,0,0:0:0:0:
192,192,108854,1,0,0:0:0:0:
320,192,109023,1,2,0:0:0:0:
448,192,109023,1,0,0:0:0:0:
192,192,109193,1,0,0:0:0:0:
64,192,109362,1,0,0:0:0:0:
448,192,109362,1,2,0:0:0:0:
320,192,109532,1,0,0:0:0:0:
192,192,109532,1,0,0:0:0:0:
448,192,109701,1,2,0:0:0:0:
192,192,109701,1,0,0:0:0:0:
64,192,109871,1,0,0:0:0:0:
320,192,109871,1,0,0:0:0:0:
448,192,110040,1,2,0:0:0:0:
192,192,110040,1,0,0:0:0:0:
320,192,110210,1,0,0:0:0:0:
448,192,110379,1,2,0:0:0:0:
192,192,110379,1,0,0:0:0:0:
64,192,110548,1,0,0:0:0:0:
320,192,110718,1,2,0:0:0:0:
192,192,110718,1,0,0:0:0:0:
448,192,110887,1,0,0:0:0:0:
64,192,110887,1,0,0:0:0:0:
192,192,111057,1,0,0:0:0:0:
320,192,111057,1,2,0:0:0:0:
64,192,111226,1,0,0:0:0:0:
192,192,111226,1,0,0:0:0:0:
320,192,111396,1,2,0:0:0:0:
448,192,111396,1,0,0:0:0:0:
192,192,111565,1,0,0:0:0:0:
64,192,111735,1,2,0:0:0:0:
448,192,111735,1,0,0:0:0:0:
320,192,111904,1,0,0:0:0:0:
192,192,112074,1,0,0:0:0:0:
64,192,112074,1,2,0:0:0:0:
320,192,112243,1,0,0:0:0:0:
192,192,112243,1,0,0:0:0:0:
64,192,112413,1,2,0:0:0:0:
448,192,112413,1,0,0:0:0:0:
192,192,112582,1,0,0:0:0:0:
448,192,112582,1,0,0:0:0:0:
320,192,112752,1,0,0:0:0:0:
64,192,112752,1,2,0:0:0:0:
448,192,112921,1,0,0:0:0:0:
320,192,113091,1,2,0:0:0:0:
192,192,113091,1,0,0:0:0:0:
64,192,113260,1,0,0:0:0:0:
192,192,113430,1,2,0:0:0:0:
448,192,113430,1,0,0:0:0:0:
320,192,113599,1,0,0:0:0:0:
64,192,113599,1,0,0:0:0:0:
448,192,113769,1,0,0:0:0:0:
64,192,113769,1,2,0:0:0:0:
320,192,113938,5,0,0:0:0:0:
192,192,113938,1,2,0:0:0:0:
448,192,114108,1,0,0:0:0:0:
192,192,114108,1,2,0:0:0:0:
64,192,114277,1,0,0:0:0:0:
192,192,114447,1,2,0:0:0:0:
448,192,114447,1,0,0:0:0:0:
320,192,114616,1,0,0:0:0:0:
64,192,114616,1,0,0:0:0:0:
64,192,114786,1,0,0:0:0:0:
192,192,114786,1,2,0:0:0:0:
448,192,114955,1,0,0:0:0:0:
320,192,114955,1,0,0:0:0:0:
192,192,115125,1,2,0:0:0:0:
320,192,115125,1,0,0:0:0:0:
64,192,115294,1,0,0:0:0:0:
448,192,115294,1,0,0:0:0:0:
448,192,115464,1,0,0:0:0:0:
320,192,115464,1,2,0:0:0:0:
192,192,115633,1,0,0:0:0:0:
64,192,115803,1,0,0:0:0:0:
320,192,115803,1,2,0:0:0:0:
448,192,115972,1,0,0:0:0:0:
192,192,115972,1,0,0:0:0:0:
192,192,116142,1,0,0:0:0:0:
320,192,116142,1,2,0:0:0:0:
64,192,116311,1,0,0:0:0:0:
448,192,116311,1,0,0:0:0:0:
448,192,116481,1,0,0:0:0:0:
320,192,116481,1,2,0:0:0:0:
64,192,116650,1,0,0:0:0:0:
192,192,116650,1,0,0:0:0:0:
192,192,116820,1,4,0:0:0:0:
448,192,116820,128,0,116989:0:0:0:0:
320,192,116989,1,2,0:0:0:0:
64,192,116989,1,0,0:0:0:0:
192,192,117159,1,0,0:0:0:0:
320,192,117159,1,2,0:0:0:0:
448,192,117328,1,0,0:0:0:0:
64,192,117328,1,0,0:0:0:0:
192,192,117498,1,2,0:0:0:0:
64,192,117498,1,0,0:0:0:0:
320,192,117667,1,0,0:0:0:0:
448,192,117667,1,0,0:0:0:0:
448,192,117837,1,0,0:0:0:0:
192,192,117837,1,2,0:0:0:0:
64,192,118006,1,0,0:0:0:0:
320,192,118006,1,0,0:0:0:0:
192,192,118176,1,0,0:0:0:0:
320,192,118176,1,2,0:0:0:0:
448,192,118345,1,0,0:0:0:0:
64,192,118515,1,0,0:0:0:0:
320,192,118515,1,2,0:0:0:0:
192,192,118684,1,0,0:0:0:0:
64,192,118854,1,0,0:0:0:0:
448,192,118854,1,2,0:0:0:0:
192,192,119023,1,0,0:0:0:0:
448,192,119193,1,0,0:0:0:0:
320,192,119235,1,0,0:0:0:0:
192,192,119277,1,0,0:0:0:0:
64,192,119320,1,0,0:0:0:0:
320,192,119362,1,0,0:0:0:0:
448,192,119404,1,0,0:0:0:0:
192,192,119447,1,0,0:0:0:0:
64,192,119489,1,0,0:0:0:0:
448,192,119532,1,4,0:0:0:0:
320,192,119532,128,2,119871:0:0:0:0:
192,192,119701,1,0,0:0:0:0:
448,192,119871,1,2,0:0:0:0:
64,192,119871,1,0,0:0:0:0:
64,192,120040,128,0,120210:0:0:0:0:
192,192,120040,1,0,0:0:0:0:
448,192,120210,1,0,0:0:0:0:
320,192,120210,1,2,0:0:0:0:
448,192,120379,128,0,120548:0:0:0:0:
192,192,120379,1,0,0:0:0:0:
320,192,120548,1,0,0:0:0:0:
64,192,120548,128,2,120887:0:0:0:0:
192,192,120718,1,0,0:0:0:0:
448,192,120887,1,0,0:0:0:0:
320,192,120887,1,2,0:0:0:0:
64,192,121057,128,0,121226:0:0:0:0:
448,192,121057,1,0,0:0:0:0:
192,192,121226,1,2,0:0:0:0:
448,192,121226,1,0,0:0:0:0:
320,192,121396,128,0,121565:0:0:0:0:
64,192,121396,1,0,0:0:0:0:
448,192,121565,1,0,0:0:0:0:
192,192,121565,1,2,0:0:0:0:
64,192,121735,1,0,0:0:0:0:
448,192,121735,128,0,121904:0:0:0:0:
64,192,121904,1,0,0:0:0:0:
192,192,121947,1,0,0:0:0:0:
320,192,121989,1,0,0:0:0:0:
448,192,122032,1,0,0:0:0:0:
64,192,122074,128,0,122243:0:0:0:0:
192,192,122243,1,0,0:0:0:0:
320,192,122243,128,2,122582:0:0:0:0:
448,192,122413,1,0,0:0:0:0:
192,192,122582,1,2,0:0:0:0:
64,192,122582,1,0,0:0:0:0:
448,192,122752,128,0,122921:0:0:0:0:
192,192,122752,1,0,0:0:0:0:
320,192,122921,1,2,0:0:0:0:
64,192,122921,1,0,0:0:0:0:
192,192,123091,1,0,0:0:0:0:
448,192,123091,128,0,123260:0:0:0:0:
64,192,123260,1,0,0:0:0:0:
192,192,123303,1,0,0:0:0:0:
320,192,123345,1,0,0:0:0:0:
448,192,123387,1,0,0:0:0:0:
64,192,123430,1,0,0:0:0:0:
192,192,123472,1,0,0:0:0:0:
320,192,123515,1,0,0:0:0:0:
448,192,123557,1,0,0:0:0:0:
64,192,123599,1,0,0:0:0:0:
192,192,123599,1,2,0:0:0:0:
320,192,123769,128,0,123938:0:0:0:0:
64,192,123938,1,0,0:0:0:0:
448,192,123938,1,2,0:0:0:0:
192,192,124108,128,0,124277:0:0:0:0:
320,192,124108,1,0,0:0:0:0:
448,192,124277,1,2,0:0:0:0:
64,192,124277,1,0,0:0:0:0:
64,192,124447,128,0,124616:0:0:0:0:
448,192,124616,1,0,0:0:0:0:
320,192,124659,1,0,0:0:0:0:
192,192,124701,1,0,0:0:0:0:
64,192,124743,1,0,0:0:0:0:
448,192,124786,1,0,0:0:0:0:
320,192,124828,1,0,0:0:0:0:
192,192,124871,1,0,0:0:0:0:
64,192,124913,1,0,0:0:0:0:
448,192,124955,1,0,0:0:0:0:
320,192,124955,128,2,125294:0:0:0:0:
192,192,125125,1,0,0:0:0:0:
448,192,125294,1,0,0:0:0:0:
64,192,125294,1,2,0:0:0:0:
192,192,125464,128,0,125633:0:0:0:0:
320,192,125464,1,0,0:0:0:0:
448,192,125633,1,2,0:0:0:0:
64,192,125633,1,0,0:0:0:0:
320,192,125803,128,0,125972:0:0:0:0:
192,192,125803,1,0,0:0:0:0:
64,192,125972,1,0,0:0:0:0:
448,192,125972,128,2,126311:0:0:0:0:
320,192,126142,1,0,0:0:0:0:
192,192,126311,1,0,0:0:0:0:
64,192,126311,1,2,0:0:0:0:
448,192,126481,128,0,126650:0:0:0:0:
320,192,126481,1,0,0:0:0:0:
64,192,126650,1,2,0:0:0:0:
320,192,126650,1,0,0:0:0:0:
448,192,126820,128,0,126989:0:0:0:0:
192,192,126820,1,0,0:0:0:0:
192,192,126989,1,0,0:0:0:0:
64,192,126989,1,2,0:0:0:0:
448,192,127159,1,0,0:0:0:0:
320,192,127159,128,0,127328:0:0:0:0:
192,192,127328,1,2,0:0:0:0:
64,192,127328,128,0,127667:0:0:0:0:
448,192,127498,1,2,0:0:0:0:
320,192,127498,1,0,0:0:0:0:
448,192,127667,1,0,0:0:0:0:
192,192,127667,128,2,128006:0:0:0:0:
320,192,127837,1,0,0:0:0:0:
64,192,128006,1,2,0:0:0:0:
448,192,128006,1,0,0:0:0:0:
320,192,128176,128,0,128345:0:0:0:0:
192,192,128345,1,2,0:0:0:0:
64,192,128345,1,0,0:0:0:0:
448,192,128515,128,0,128684:0:0:0:0:
192,192,128515,1,0,0:0:0:0:
64,192,128684,1,2,0:0:0:0:
320,192,128684,1,0,0:0:0:0:
192,192,128854,1,2,0:0:0:0:
448,192,128854,1,0,0:0:0:0:
64,192,129023,1,0,0:0:0:0:
192,192,129023,1,2,0:0:0:0:
448,192,129023,1,4,0:0:0:0:
320,192,129193,1,2,0:0:0:0:
448,192,129193,1,0,0:0:0:0:
192,192,129362,1,2,0:0:0:0:
320,192,129362,1,4,0:0:0:0:
64,192,129362,1,0,0:0:0:0:
64,192,129532,1,0,0:0:0:0:
448,192,129532,1,2,0:0:0:0:
320,192,129701,1,4,0:0:0:0:
448,192,129701,1,0,0:0:0:0:
192,192,129701,1,2,0:0:0:0:
64,192,129871,1,2,0:0:0:0:
192,192,129871,1,0,0:0:0:0:
64,192,130040,1,0,0:0:0:0:
448,192,130040,1,0,0:0:0:0:
320,192,130210,1,0,0:0:0:0:
448,192,130379,1,4,0:0:0:0:
192,192,130379,1,2,0:0:0:0:
64,192,130379,128,0,130718:0:0:0:0:
448,192,130548,1,0,0:0:0:0:
320,192,130718,1,0,0:0:0:0:
192,192,130718,1,2,0:0:0:0:
448,192,130887,128,0,131057:0:0:0:0:
64,192,131057,1,0,0:0:0:0:
192,192,131057,1,2,0:0:0:0:
320,192,131226,128,0,131396:0:0:0:0:
64,192,131396,1,2,0:0:0:0:
448,192,131396,128,0,131735:0:0:0:0:
192,192,131565,1,0,0:0:0:0:
320,192,131735,1,0,0:0:0:0:
64,192,131735,1,2,0:0:0:0:
192,192,131904,128,0,132074:0:0:0:0:
448,192,132074,1,2,0:0:0:0:
320,192,132074,1,0,0:0:0:0:
192,192,132243,128,0,132413:0:0:0:0:
64,192,132413,1,0,0:0:0:0:
448,192,132413,1,2,0:0:0:0:
320,192,132582,128,0,132752:0:0:0:0:
448,192,132752,1,2,0:0:0:0:
192,192,132752,128,0,133091:0:0:0:0:
320,192,132921,1,0,0:0:0:0:
64,192,133091,1,2,0:0:0:0:
448,192,133091,128,0,133430:0:0:0:0:
192,192,133260,1,0,0:0:0:0:
320,192,133430,1,0,0:0:0:0:
64,192,133430,1,2,0:0:0:0:
192,192,133599,128,0,133769:0:0:0:0:
64,192,133769,1,2,0:0:0:0:
320,192,133769,1,0,0:0:0:0:
192,192,133938,128,0,134108:0:0:0:0:
64,192,134108,1,2,0:0:0:0:
448,192,134108,128,0,134447:0:0:0:0:
320,192,134277,1,0,0:0:0:0:
192,192,134447,1,0,0:0:0:0:
64,192,134447,1,2,0:0:0:0:
320,192,134616,128,0,134786:0:0:0:0:
64,192,134786,1,2,0:0:0:0:
448,192,134786,1,0,0:0:0:0:
320,192,134955,128,0,135125:0:0:0:0:
192,192,135125,1,0,0:0:0:0:
448,192,135125,1,2,0:0:0:0:
64,192,135294,128,0,135464:0:0:0:0:
320,192,135464,1,0,0:0:0:0:
448,192,135464,128,2,135633:0:0:0:0:
320,192,135633,1,0,0:0:0:0:
192,192,135633,1,2,0:0:0:0:
64,192,135803,1,2,0:0:0:0:
192,192,135803,128,0,136142:0:0:0:0:
320,192,135972,1,0,0:0:0:0:
64,192,136142,1,2,0:0:0:0:
448,192,136142,1,0,0:0:0:0:
320,192,136311,128,0,136481:0:0:0:0:
192,192,136481,1,0,0:0:0:0:
64,192,136481,1,2,0:0:0:0:
448,192,136650,128,0,136820:0:0:0:0:
64,192,136820,1,2,0:0:0:0:
192,192,136820,128,0,137159:0:0:0:0:
320,192,136989,1,0,0:0:0:0:
448,192,137159,1,2,0:0:0:0:
64,192,137159,1,0,0:0:0:0:
320,192,137328,128,0,137498:0:0:0:0:
64,192,137498,1,2,0:0:0:0:
192,192,137498,1,0,0:0:0:0:
320,192,137667,128,0,137837:0:0:0:0:
448,192,137837,1,0,0:0:0:0:
192,192,137837,1,2,0:0:0:0:
64,192,138006,128,0,138176:0:0:0:0:
448,192,138176,1,0,0:0:0:0:
320,192,138218,1,0,0:0:0:0:
192,192,138260,1,0,0:0:0:0:
64,192,138303,1,0,0:0:0:0:
448,192,138345,1,0,0:0:0:0:
320,192,138387,1,0,0:0:0:0:
192,192,138430,1,0,0:0:0:0:
64,192,138472,1,0,0:0:0:0:
320,192,138515,1,0,0:0:0:0:
448,192,138515,128,2,138854:0:0:0:0:
192,192,138684,1,0,0:0:0:0:
64,192,138854,1,2,0:0:0:0:
320,192,138854,1,0,0:0:0:0:
192,192,139023,128,0,139193:0:0:0:0:
448,192,139193,1,2,0:0:0:0:
64,192,139193,1,0,0:0:0:0:
320,192,139362,128,0,139532:0:0:0:0:
448,192,139532,1,2,0:0:0:0:
64,192,139532,128,0,139871:0:0:0:0:
192,192,139701,1,0,0:0:0:0:
320,192,139871,1,2,0:0:0:0:
448,192,139871,1,0,0:0:0:0:
64,192,140040,128,0,140210:0:0:0:0:
448,192,140210,1,0,0:0:0:0:
320,192,140252,1,0,0:0:0:0:
192,192,140294,1,0,0:0:0:0:
64,192,140337,1,0,0:0:0:0:
320,192,140379,1,0,0:0:0:0:
448,192,140421,1,0,0:0:0:0:
192,192,140464,1,0,0:0:0:0:
64,192,140506,1,0,0:0:0:0:
448,192,140548,1,0,0:0:0:0:
320,192,140591,1,0,0:0:0:0:
192,192,140633,1,0,0:0:0:0:
64,192,140676,1,0,0:0:0:0:
448,192,140718,1,0,0:0:0:0:
320,192,140760,1,0,0:0:0:0:
192,192,140803,1,0,0:0:0:0:
64,192,140845,1,0,0:0:0:0:
448,192,140887,1,0,0:0:0:0:
320,192,140887,1,2,0:0:0:0:
320,192,141057,1,2,0:0:0:0:
192,192,141057,1,0,0:0:0:0:
448,192,141226,1,4,0:0:0:0:
320,192,141226,1,2,0:0:0:0:
64,192,141226,128,0,141565:0:0:0:0:
192,192,141396,1,0,0:0:0:0:
448,192,141565,1,0,0:0:0:0:
320,192,141565,1,2,0:0:0:0:
64,192,141735,128,0,141904:0:0:0:0:
192,192,141904,1,2,0:0:0:0:
448,192,141904,1,0,0:0:0:0:
320,192,142074,128,0,142243:0:0:0:0:
64,192,142243,1,2,0:0:0:0:
448,192,142243,128,0,142582:0:0:0:0:
192,192,142413,1,0,0:0:0:0:
320,192,142582,1,2,0:0:0:0:
64,192,142582,1,0,0:0:0:0:
192,192,142752,128,0,142921:0:0:0:0:
64,192,142921,1,0,0:0:0:0:
448,192,142921,1,2,0:0:0:0:
448,192,143091,128,0,143260:0:0:0:0:
64,192,143260,1,0,0:0:0:0:
192,192,143303,1,0,0:0:0:0:
320,192,143345,1,0,0:0:0:0:
448,192,143387,1,0,0:0:0:0:
192,192,143430,1,0,0:0:0:0:
64,192,143472,1,0,0:0:0:0:
320,192,143515,1,0,0:0:0:0:
448,192,143557,1,0,0:0:0:0:
64,192,143599,1,0,0:0:0:0:
192,192,143642,1,0,0:0:0:0:
320,192,143684,1,0,0:0:0:0:
448,192,143726,1,0,0:0:0:0:
192,192,143769,1,0,0:0:0:0:
64,192,143811,1,0,0:0:0:0:
320,192,143854,1,0,0:0:0:0:
448,192,143896,1,0,0:0:0:0:
192,192,143938,1,2,0:0:0:0:
64,192,143938,128,0,144277:0:0:0:0:
320,192,144108,1,0,0:0:0:0:
192,192,144277,1,2,0:0:0:0:
448,192,144277,1,0,0:0:0:0:
320,192,144447,128,0,144616:0:0:0:0:
64,192,144616,1,0,0:0:0:0:
192,192,144616,1,2,0:0:0:0:
320,192,144786,128,0,144955:0:0:0:0:
448,192,144955,1,2,0:0:0:0:
64,192,144955,128,0,145294:0:0:0:0:
320,192,145125,1,0,0:0:0:0:
448,192,145294,1,2,0:0:0:0:
192,192,145294,1,0,0:0:0:0:
320,192,145464,128,0,145633:0:0:0:0:
448,192,145633,1,2,0:0:0:0:
64,192,145633,1,0,0:0:0:0:
192,192,145803,128,0,145972:0:0:0:0:
320,192,145972,1,0,0:0:0:0:
448,192,145972,1,2,0:0:0:0:
64,192,146142,128,0,146311:0:0:0:0:
448,192,146311,1,0,0:0:0:0:
320,192,146354,1,0,0:0:0:0:
64,192,146396,1,0,0:0:0:0:
192,192,146438,1,0,0:0:0:0:
448,192,146481,1,0,0:0:0:0:
320,192,146523,1,0,0:0:0:0:
64,192,146565,1,0,0:0:0:0:
192,192,146608,1,0,0:0:0:0:
320,192,146650,1,0,0:0:0:0:
448,192,146650,1,4,0:0:0:0:
64,192,146820,1,2,0:0:0:0:
448,192,146820,1,0,0:0:0:0:
192,192,146820,1,0,0:0:0:0:
64,192,146989,1,2,0:0:0:0:
448,192,146989,1,0,0:0:0:0:
320,192,146989,1,0,0:0:0:0:
320,192,147159,128,0,147328:0:0:0:0:
64,192,147328,1,2,0:0:0:0:
192,192,147328,1,0,0:0:0:0:
448,192,147498,128,0,147667:0:0:0:0:
320,192,147667,1,2,0:0:0:0:
192,192,147667,128,0,148006:0:0:0:0:
64,192,147837,1,0,0:0:0:0:
320,192,148006,1,0,0:0:0:0:
448,192,148006,1,2,0:0:0:0:
64,192,148176,128,0,148345:0:0:0:0:
448,192,148345,1,0,0:0:0:0:
192,192,148345,1,2,0:0:0:0:
64,192,148515,128,0,148684:0:0:0:0:
320,192,148684,1,0,0:0:0:0:
192,192,148684,1,2,0:0:0:0:
448,192,148854,128,0,149023:0:0:0:0:
320,192,149023,1,2,0:0:0:0:
64,192,149023,128,0,149362:0:0:0:0:
192,192,149193,1,0,0:0:0:0:
320,192,149362,1,2,0:0:0:0:
448,192,149362,128,0,149701:0:0:0:0:
192,192,149532,1,0,0:0:0:0:
320,192,149701,1,0,0:0:0:0:
64,192,149701,1,2,0:0:0:0:
192,192,149871,128,0,150040:0:0:0:0:
64,192,150040,1,0,0:0:0:0:
320,192,150040,1,2,0:0:0:0:
448,192,150210,128,0,150379:0:0:0:0:
320,192,150379,1,0,0:0:0:0:
192,192,150379,1,2,0:0:0:0:
64,192,150379,128,0,150718:0:0:0:0:
320,192,150548,1,0,0:0:0:0:
448,192,150718,1,0,0:0:0:0:
192,192,150718,1,0,0:0:0:0:
320,192,150887,128,0,151057:0:0:0:0:
64,192,151057,1,0,0:0:0:0:
448,192,151226,128,0,151396:0:0:0:0:
192,192,151396,1,0,0:0:0:0:
64,192,151565,128,0,151735:0:0:0:0:
320,192,151735,128,0,152074:0:0:0:0:
448,192,151735,1,0,0:0:0:0:
192,192,151904,128,0,152074:0:0:0:0:
448,192,152074,128,4,153811:0:0:0:0:
64,192,152074,128,2,154786:0:0:0:0:
320,192,153811,128,0,155167:0:0:0:0:
192,192,155167,128,0,156523:0:0:0:0:
64,192,156523,128,0,157794:0:0:0:0:
320,192,157794,128,0,159150:0:0:0:0:
448,192,159150,128,0,160506:0:0:0:0:
192,192,160506,128,0,161862:0:0:0:0:
64,192,161862,128,0,162921:0:0:0:0:
192,192,162921,1,0,0:0:0:0:
448,192,162921,128,0,164743:0:0:0:0:
192,192,163260,1,0,0:0:0:0:
320,192,163599,1,0,0:0:0:0:
320,192,163938,1,0,0:0:0:0:
64,192,164277,1,0,0:0:0:0:
64,192,164616,1,0,0:0:0:0:
192,192,164743,128,0,165930:0:0:0:0:
448,192,164955,1,0,0:0:0:0:
448,192,165294,1,0,0:0:0:0:
320,192,165633,1,0,0:0:0:0:
64,192,165930,128,0,167286:0:0:0:0:
320,192,167286,128,0,168642:0:0:0:0:
192,192,168642,128,0,169998:0:0:0:0:
448,192,169998,128,0,171354:0:0:0:0:
320,192,171354,128,0,172032:0:0:0:0:
192,192,172032,128,0,172794:0:0:0:0:
64,192,172794,128,0,173769:0:0:0:0:
448,192,172794,128,0,173218:0:0:0:0:
320,192,173218,128,0,173515:0:0:0:0:
192,192,173515,128,0,173769:0:0:0:0:
320,192,173769,1,0,0:0:0:0:
448,192,173769,1,0,0:0:0:0:
192,192,174108,1,0,0:0:0:0:
64,192,174108,1,0,0:0:0:0:
64,192,174447,1,0,0:0:0:0:
320,192,174447,1,0,0:0:0:0:
320,192,174786,1,0,0:0:0:0:
192,192,174786,1,0,0:0:0:0:
64,192,175125,1,0,0:0:0:0:
320,192,175125,1,0,0:0:0:0:
320,192,175463,1,0,0:0:0:0:
192,192,175463,1,0,0:0:0:0:
448,192,175802,1,0,0:0:0:0:
64,192,175802,1,0,0:0:0:0:
320,192,176141,1,0,0:0:0:0:
64,192,176141,1,0,0:0:0:0:
320,192,176480,1,0,0:0:0:0:
448,192,176480,1,0,0:0:0:0:
448,192,176819,1,0,0:0:0:0:
64,192,176819,1,0,0:0:0:0:
192,192,177158,1,0,0:0:0:0:
320,192,177158,1,0,0:0:0:0:
448,192,177497,1,0,0:0:0:0:
192,192,177497,1,0,0:0:0:0:
320,192,177836,1,0,0:0:0:0:
448,192,177836,1,0,0:0:0:0:
192,192,178175,1,0,0:0:0:0:
448,192,178175,1,0,0:0:0:0:
320,192,178514,1,0,0:0:0:0:
64,192,178514,1,0,0:0:0:0:
192,192,178853,1,0,0:0:0:0:
320,192,178853,1,0,0:0:0:0:
320,192,179023,1,0,0:0:0:0:
448,192,179023,1,0,0:0:0:0:
64,192,179192,1,0,0:0:0:0:
192,192,179192,1,0,0:0:0:0:
320,192,179531,1,0,0:0:0:0:
448,192,179531,1,0,0:0:0:0:
320,192,179870,1,0,0:0:0:0:
192,192,179870,1,0,0:0:0:0:
64,192,180209,1,0,0:0:0:0:
192,192,180209,1,0,0:0:0:0:
448,192,180548,1,0,0:0:0:0:
192,192,180548,1,0,0:0:0:0:
64,192,180887,1,0,0:0:0:0:
448,192,180887,1,0,0:0:0:0:
320,192,181225,1,0,0:0:0:0:
64,192,181225,1,0,0:0:0:0:
192,192,181564,1,0,0:0:0:0:
448,192,181564,1,0,0:0:0:0:
448,192,181903,1,0,0:0:0:0:
64,192,181903,1,0,0:0:0:0:
320,192,182073,1,0,0:0:0:0:
192,192,182073,1,0,0:0:0:0:
64,192,182242,1,0,0:0:0:0:
192,192,182242,1,0,0:0:0:0:
448,192,182581,1,0,0:0:0:0:
320,192,182581,1,0,0:0:0:0:
320,192,182920,1,0,0:0:0:0:
192,192,182920,1,0,0:0:0:0:
64,192,183259,1,0,0:0:0:0:
320,192,183259,1,0,0:0:0:0:
192,192,183429,1,0,0:0:0:0:
448,192,183429,1,0,0:0:0:0:
320,192,183598,1,0,0:0:0:0:
448,192,183598,1,0,0:0:0:0:
192,192,183937,1,0,0:0:0:0:
320,192,183937,1,0,0:0:0:0:
192,192,184276,1,0,0:0:0:0:
448,192,184276,1,0,0:0:0:0:
448,192,184446,1,0,0:0:0:0:
64,192,184446,1,0,0:0:0:0:
320,192,184615,1,0,0:0:0:0:
192,192,184615,1,0,0:0:0:0:
448,192,184954,1,0,0:0:0:0:
64,192,184954,1,0,0:0:0:0:
320,192,185293,1,0,0:0:0:0:
448,192,185293,1,0,0:0:0:0:
320,192,185632,1,0,0:0:0:0:
64,192,185632,1,0,0:0:0:0:
448,192,185971,1,0,0:0:0:0:
64,192,185971,1,0,0:0:0:0:
320,192,186310,1,0,0:0:0:0:
448,192,186310,1,0,0:0:0:0:
64,192,186649,1,0,0:0:0:0:
192,192,186649,1,0,0:0:0:0:
64,192,186988,1,0,0:0:0:0:
320,192,186988,1,0,0:0:0:0:
64,192,187327,1,0,0:0:0:0:
192,192,187327,1,0,0:0:0:0:
320,192,187497,1,0,0:0:0:0:
448,192,187497,1,0,0:0:0:0:
448,192,187666,1,0,0:0:0:0:
64,192,187666,1,0,0:0:0:0:
448,192,188005,1,0,0:0:0:0:
320,192,188005,1,0,0:0:0:0:
192,192,188344,1,0,0:0:0:0:
320,192,188344,1,0,0:0:0:0:
192,192,188683,1,0,0:0:0:0:
448,192,188683,1,0,0:0:0:0:
64,192,189022,1,0,0:0:0:0:
320,192,189022,1,0,0:0:0:0:
192,192,189192,1,0,0:0:0:0:
320,192,189192,1,0,0:0:0:0:
64,192,189361,1,0,0:0:0:0:
448,192,189361,1,0,0:0:0:0:
192,192,189700,1,0,0:0:0:0:
64,192,189700,1,0,0:0:0:0:
448,192,189870,1,0,0:0:0:0:
192,192,189870,1,0,0:0:0:0:
320,192,190039,1,0,0:0:0:0:
448,192,190039,1,0,0:0:0:0:
64,192,190378,1,0,0:0:0:0:
448,192,190378,1,0,0:0:0:0:
320,192,190717,1,0,0:0:0:0:
192,192,190717,1,0,0:0:0:0:
64,192,191056,1,0,0:0:0:0:
320,192,191056,1,0,0:0:0:0:
192,192,191395,1,0,0:0:0:0:
64,192,191395,1,0,0:0:0:0:
320,192,191734,1,0,0:0:0:0:
64,192,191734,1,0,0:0:0:0:
192,192,192073,1,0,0:0:0:0:
448,192,192073,1,0,0:0:0:0:
320,192,192412,1,0,0:0:0:0:
192,192,192412,1,0,0:0:0:0:
448,192,192751,1,0,0:0:0:0:
320,192,192751,1,0,0:0:0:0:
320,192,192921,1,0,0:0:0:0:
192,192,192921,1,0,0:0:0:0:
448,192,193090,1,0,0:0:0:0:
64,192,193090,1,0,0:0:0:0:
64,192,193429,1,0,0:0:0:0:
320,192,193429,1,0,0:0:0:0:
448,192,193599,1,0,0:0:0:0:
320,192,193599,1,0,0:0:0:0:
64,192,193768,1,0,0:0:0:0:
192,192,193768,1,0,0:0:0:0:
320,192,194107,1,0,0:0:0:0:
192,192,194107,1,0,0:0:0:0:
448,192,194277,1,0,0:0:0:0:
64,192,194277,1,0,0:0:0:0:
64,192,194446,1,0,0:0:0:0:
320,192,194446,1,0,0:0:0:0:
448,192,194785,1,0,0:0:0:0:
192,192,194785,1,0,0:0:0:0:
320,192,195124,1,0,0:0:0:0:
192,192,195124,1,0,0:0:0:0:
320,192,195294,1,0,0:0:0:0:
448,192,195294,1,0,0:0:0:0:
320,192,195463,5,0,0:0:0:0:
448,192,195463,1,0,0:0:0:0:
192,192,195463,128,0,198600:0:0:0:0:
64,192,195463,1,0,0:0:0:0:
64,192,198600,128,0,200888:0:0:0:0:
192,192,200888,1,0,0:0:0:0:
320,192,200888,1,2,0:0:0:0:
448,192,200888,1,0,0:0:0:0:
192,192,201142,1,0,0:0:0:0:
320,192,201142,1,2,0:0:0:0:
448,192,201142,1,0,0:0:0:0:
64,192,201397,1,2,0:0:0:0:
320,192,201397,1,0,0:0:0:0:
448,192,201397,1,0,0:0:0:0:
192,192,201566,1,0,0:0:0:0:
64,192,201566,1,2,0:0:0:0:
448,192,201566,1,0,0:0:0:0:
192,192,201820,1,2,0:0:0:0:
320,192,201820,1,0,0:0:0:0:
64,192,201820,1,0,0:0:0:0:
448,192,202075,1,0,0:0:0:0:
64,192,202075,1,0,0:0:0:0:
192,192,202075,1,2,0:0:0:0:
64,192,202244,1,0,0:0:0:0:
320,192,202244,1,2,0:0:0:0:
448,192,202244,1,0,0:0:0:0:
64,192,202498,1,0,0:0:0:0:
192,192,202498,1,0,0:0:0:0:
320,192,202498,1,2,0:0:0:0:
192,192,202753,1,0,0:0:0:0:
320,192,202753,1,0,0:0:0:0:
448,192,202753,1,2,0:0:0:0:
64,192,202922,1,0,0:0:0:0:
320,192,202922,1,0,0:0:0:0:
448,192,202922,1,2,0:0:0:0:
320,192,203176,1,2,0:0:0:0:
192,192,203176,1,0,0:0:0:0:
64,192,203176,1,0,0:0:0:0:
448,192,203431,1,0,0:0:0:0:
320,192,203431,1,2,0:0:0:0:
192,192,203431,1,0,0:0:0:0:
64,192,203600,1,0,0:0:0:0:
320,192,203600,1,2,0:0:0:0:
448,192,203600,1,0,0:0:0:0:
192,192,203854,1,0,0:0:0:0:
320,192,203854,1,0,0:0:0:0:
64,192,203854,1,2,0:0:0:0:
448,192,204109,1,0,0:0:0:0:
192,192,204109,1,0,0:0:0:0:
64,192,204109,1,2,0:0:0:0:
64,192,204278,1,2,0:0:0:0:
320,192,204278,1,0,0:0:0:0:
448,192,204278,1,0,0:0:0:0:
192,192,204532,1,2,0:0:0:0:
320,192,204532,1,0,0:0:0:0:
448,192,204532,1,0,0:0:0:0:
64,192,204787,1,0,0:0:0:0:
192,192,204787,1,2,0:0:0:0:
448,192,204787,1,0,0:0:0:0:
320,192,204956,1,0,0:0:0:0:
192,192,204956,1,2,0:0:0:0:
64,192,204956,1,0,0:0:0:0:
448,192,205210,1,0,0:0:0:0:
320,192,205210,1,2,0:0:0:0:
64,192,205210,1,0,0:0:0:0:
64,192,205465,1,0,0:0:0:0:
320,192,205465,1,2,0:0:0:0:
192,192,205465,1,0,0:0:0:0:
448,192,205634,1,2,0:0:0:0:
192,192,205634,1,0,0:0:0:0:
64,192,205634,1,0,0:0:0:0:
64,192,205888,1,0,0:0:0:0:
320,192,205888,1,0,0:0:0:0:
448,192,205888,1,2,0:0:0:0:
192,192,206142,1,0,0:0:0:0:
320,192,206142,1,0,0:0:0:0:
448,192,206142,1,2,0:0:0:0:
64,192,206312,1,0,0:0:0:0:
320,192,206312,1,0,0:0:0:0:
448,192,206312,1,2,0:0:0:0:
192,192,206481,1,0,0:0:0:0:
64,192,206481,1,0,0:0:0:0:
448,192,206481,1,2,0:0:0:0:
64,192,206651,1,2,0:0:0:0:
192,192,206651,1,0,0:0:0:0:
320,192,206651,1,0,0:0:0:0:
448,192,206820,1,0,0:0:0:0:
192,192,206820,1,0,0:0:0:0:
64,192,206820,1,2,0:0:0:0:
320,192,206990,1,0,0:0:0:0:
448,192,206990,1,0,0:0:0:0:
64,192,206990,1,2,0:0:0:0:
320,192,207159,1,0,0:0:0:0:
192,192,207159,1,2,0:0:0:0:
192,192,207329,1,2,0:0:0:0:
64,192,207329,1,0,0:0:0:0:
192,192,207498,1,2,0:0:0:0:
320,192,207498,1,0,0:0:0:0:
448,192,207668,1,0,0:0:0:0:
320,192,207668,1,2,0:0:0:0:
64,192,207837,1,0,0:0:0:0:
192,192,207837,1,2,0:0:0:0:
448,192,208007,1,0,0:0:0:0:
320,192,208007,1,2,0:0:0:0:
320,192,208176,1,0,0:0:0:0:
64,192,208176,1,0,0:0:0:0:
192,192,208346,1,0,0:0:0:0:
448,192,208346,1,0,0:0:0:0:
320,192,208515,1,0,0:0:0:0:
64,192,208515,1,0,0:0:0:0:
64,192,208685,1,0,0:0:0:0:
448,192,208685,1,0,0:0:0:0:
448,192,208854,1,0,0:0:0:0:
192,192,208854,1,0,0:0:0:0:
448,192,209024,1,0,0:0:0:0:
320,192,209066,1,0,0:0:0:0:
64,192,209109,1,0,0:0:0:0:
192,192,209151,1,0,0:0:0:0:
448,192,209193,1,0,0:0:0:0:
320,192,209236,1,0,0:0:0:0:
64,192,209278,1,0,0:0:0:0:
192,192,209320,1,0,0:0:0:0:
448,192,209363,1,0,0:0:0:0:
320,192,209405,1,0,0:0:0:0:
64,192,209448,1,0,0:0:0:0:
192,192,209490,1,0,0:0:0:0:
448,192,209532,1,0,0:0:0:0:
320,192,209575,1,0,0:0:0:0:
64,192,209617,1,0,0:0:0:0:
192,192,209659,1,0,0:0:0:0:
320,192,209702,1,0,0:0:0:0:
448,192,209744,1,0,0:0:0:0:
64,192,209787,1,0,0:0:0:0:
192,192,209829,1,0,0:0:0:0:
320,192,209871,1,0,0:0:0:0:
448,192,209914,1,0,0:0:0:0:
64,192,209956,1,0,0:0:0:0:
192,192,209998,1,0,0:0:0:0:
320,192,210041,1,0,0:0:0:0:
448,192,210083,1,0,0:0:0:0:
64,192,210126,1,0,0:0:0:0:
192,192,210168,1,0,0:0:0:0:
320,192,210210,1,0,0:0:0:0:
448,192,210253,1,0,0:0:0:0:
64,192,210295,1,0,0:0:0:0:
192,192,210337,1,0,0:0:0:0:
320,192,210380,1,0,0:0:0:0:
448,192,210380,1,0,0:0:0:0:
64,192,211736,1,0,0:0:0:0:
192,192,211736,1,2,0:0:0:0:
320,192,211736,1,0,0:0:0:0:
448,192,211905,1,0,0:0:0:0:
64,192,212075,1,0,0:0:0:0:
320,192,212075,1,2,0:0:0:0:
192,192,212244,1,0,0:0:0:0:
448,192,212414,1,2,0:0:0:0:
64,192,212414,1,0,0:0:0:0:
192,192,212583,1,0,0:0:0:0:
448,192,212753,1,2,0:0:0:0:
320,192,212753,1,0,0:0:0:0:
64,192,212922,1,0,0:0:0:0:
192,192,213092,1,0,0:0:0:0:
448,192,213092,1,2,0:0:0:0:
320,192,213261,1,0,0:0:0:0:
64,192,213431,1,0,0:0:0:0:
192,192,213431,1,2,0:0:0:0:
320,192,213600,1,0,0:0:0:0:
448,192,213600,1,0,0:0:0:0:
192,192,213770,1,2,0:0:0:0:
64,192,213770,1,0,0:0:0:0:
320,192,213939,1,0,0:0:0:0:
448,192,214109,1,0,0:0:0:0:
192,192,214109,1,2,0:0:0:0:
64,192,214278,1,0,0:0:0:0:
320,192,214448,1,0,0:0:0:0:
192,192,214448,1,2,0:0:0:0:
448,192,214617,1,0,0:0:0:0:
64,192,214787,1,0,0:0:0:0:
320,192,214787,1,2,0:0:0:0:
448,192,214956,1,0,0:0:0:0:
192,192,214956,1,0,0:0:0:0:
320,192,215126,1,2,0:0:0:0:
64,192,215126,1,0,0:0:0:0:
448,192,215295,1,0,0:0:0:0:
320,192,215465,1,2,0:0:0:0:
192,192,215465,1,0,0:0:0:0:
64,192,215634,1,0,0:0:0:0:
448,192,215803,1,0,0:0:0:0:
320,192,215803,1,2,0:0:0:0:
192,192,215973,1,0,0:0:0:0:
64,192,216142,1,2,0:0:0:0:
448,192,216142,1,0,0:0:0:0:
320,192,216312,1,0,0:0:0:0:
64,192,216481,1,2,0:0:0:0:
192,192,216481,1,0,0:0:0:0:
320,192,216651,1,0,0:0:0:0:
64,192,216820,1,2,0:0:0:0:
448,192,216820,1,0,0:0:0:0:
320,192,216990,1,0,0:0:0:0:
192,192,216990,1,2,0:0:0:0:
64,192,217159,1,0,0:0:0:0:
192,192,217159,1,2,0:0:0:0:
448,192,217159,1,0,0:0:0:0:
320,192,217329,1,0,0:0:0:0:
64,192,217498,1,0,0:0:0:0:
448,192,217498,1,2,0:0:0:0:
192,192,217668,1,0,0:0:0:0:
320,192,217837,1,2,0:0:0:0:
448,192,217837,1,0,0:0:0:0:
192,192,218007,1,0,0:0:0:0:
320,192,218176,1,2,0:0:0:0:
64,192,218176,1,0,0:0:0:0:
448,192,218346,1,0,0:0:0:0:
64,192,218515,1,0,0:0:0:0:
192,192,218515,1,2,0:0:0:0:
320,192,218685,1,0,0:0:0:0:
64,192,218854,1,0,0:0:0:0:
192,192,218854,1,2,0:0:0:0:
320,192,219024,1,0,0:0:0:0:
448,192,219024,1,0,0:0:0:0:
192,192,219193,1,2,0:0:0:0:
64,192,219193,1,0,0:0:0:0:
320,192,219363,1,0,0:0:0:0:
448,192,219532,1,0,0:0:0:0:
192,192,219532,1,2,0:0:0:0:
320,192,219702,1,0,0:0:0:0:
448,192,219871,1,0,0:0:0:0:
64,192,219871,1,2,0:0:0:0:
320,192,220041,1,0,0:0:0:0:
192,192,220210,1,2,0:0:0:0:
448,192,220210,1,0,0:0:0:0:
320,192,220380,1,0,0:0:0:0:
64,192,220380,1,0,0:0:0:0:
192,192,220549,1,2,0:0:0:0:
448,192,220549,1,0,0:0:0:0:
64,192,220719,1,0,0:0:0:0:
192,192,220888,1,0,0:0:0:0:
320,192,220888,1,2,0:0:0:0:
448,192,221058,1,0,0:0:0:0:
320,192,221227,1,2,0:0:0:0:
64,192,221227,1,0,0:0:0:0:
192,192,221397,1,0,0:0:0:0:
448,192,221566,1,0,0:0:0:0:
64,192,221566,1,2,0:0:0:0:
320,192,221736,1,0,0:0:0:0:
192,192,221905,1,0,0:0:0:0:
64,192,221905,1,2,0:0:0:0:
320,192,222075,1,0,0:0:0:0:
448,192,222244,1,0,0:0:0:0:
320,192,222287,1,0,0:0:0:0:
192,192,222329,1,0,0:0:0:0:
64,192,222371,1,0,0:0:0:0:
448,192,222414,1,0,0:0:0:0:
320,192,222456,1,0,0:0:0:0:
192,192,222498,1,0,0:0:0:0:
64,192,222541,1,0,0:0:0:0:
320,192,222583,1,2,0:0:0:0:
448,192,222583,1,4,0:0:0:0:
192,192,222753,1,0,0:0:0:0:
320,192,222922,1,2,0:0:0:0:
64,192,222922,1,0,0:0:0:0:
448,192,223092,1,0,0:0:0:0:
192,192,223261,1,2,0:0:0:0:
64,192,223261,1,0,0:0:0:0:
320,192,223431,1,0,0:0:0:0:
64,192,223600,1,0,0:0:0:0:
448,192,223600,1,2,0:0:0:0:
192,192,223770,1,0,0:0:0:0:
448,192,223939,1,2,0:0:0:0:
320,192,223939,1,0,0:0:0:0:
64,192,224109,1,0,0:0:0:0:
192,192,224278,1,2,0:0:0:0:
448,192,224278,1,0,0:0:0:0:
320,192,224448,1,0,0:0:0:0:
64,192,224448,1,0,0:0:0:0:
192,192,224617,1,2,0:0:0:0:
448,192,224617,1,0,0:0:0:0:
320,192,224787,1,0,0:0:0:0:
64,192,224956,1,0,0:0:0:0:
448,192,224956,1,2,0:0:0:0:
192,192,225126,1,0,0:0:0:0:
320,192,225295,1,0,0:0:0:0:
448,192,225295,1,2,0:0:0:0:
192,192,225465,1,0,0:0:0:0:
64,192,225634,1,2,0:0:0:0:
448,192,225634,1,0,0:0:0:0:
192,192,225803,1,0,0:0:0:0:
320,192,225803,1,0,0:0:0:0:
64,192,225973,1,2,0:0:0:0:
448,192,225973,1,0,0:0:0:0:
320,192,226142,1,0,0:0:0:0:
192,192,226312,1,0,0:0:0:0:
64,192,226312,1,2,0:0:0:0:
448,192,226481,1,0,0:0:0:0:
320,192,226651,1,0,0:0:0:0:
64,192,226651,1,2,0:0:0:0:
192,192,226820,1,0,0:0:0:0:
64,192,226990,1,2,0:0:0:0:
448,192,226990,1,0,0:0:0:0:
320,192,227159,1,0,0:0:0:0:
192,192,227329,1,0,0:0:0:0:
64,192,227329,1,2,0:0:0:0:
448,192,227498,1,0,0:0:0:0:
320,192,227668,1,2,0:0:0:0:
192,192,227668,1,0,0:0:0:0:
192,192,227837,1,0,0:0:0:0:
320,192,227837,1,2,0:0:0:0:
320,192,228007,1,2,0:0:0:0:
448,192,228007,1,0,0:0:0:0:
64,192,228007,1,0,0:0:0:0:
192,192,228176,1,0,0:0:0:0:
64,192,228346,1,2,0:0:0:0:
448,192,228346,1,0,0:0:0:0:
320,192,228515,1,0,0:0:0:0:
192,192,228685,1,0,0:0:0:0:
64,192,228685,1,2,0:0:0:0:
320,192,228854,1,0,0:0:0:0:
448,192,229024,1,2,0:0:0:0:
64,192,229024,1,0,0:0:0:0:
192,192,229193,1,0,0:0:0:0:
320,192,229363,1,0,0:0:0:0:
448,192,229363,1,2,0:0:0:0:
192,192,229532,1,0,0:0:0:0:
320,192,229702,1,2,0:0:0:0:
64,192,229702,1,0,0:0:0:0:
192,192,229871,1,0,0:0:0:0:
448,192,229871,1,0,0:0:0:0:
320,192,230041,1,2,0:0:0:0:
64,192,230041,1,0,0:0:0:0:
448,192,230210,1,0,0:0:0:0:
320,192,230380,1,2,0:0:0:0:
192,192,230380,1,0,0:0:0:0:
64,192,230549,1,0,0:0:0:0:
64,192,230719,1,0,0:0:0:0:
448,192,230719,1,0,0:0:0:0:
320,192,230719,1,2,0:0:0:0:
192,192,230888,1,0,0:0:0:0:
448,192,231058,1,2,0:0:0:0:
64,192,231058,1,0,0:0:0:0:
192,192,231227,1,0,0:0:0:0:
320,192,231397,1,0,0:0:0:0:
448,192,231397,1,2,0:0:0:0:
192,192,231566,1,0,0:0:0:0:
320,192,231566,1,0,0:0:0:0:
64,192,231736,1,0,0:0:0:0:
192,192,231736,1,2,0:0:0:0:
192,192,231905,1,0,0:0:0:0:
320,192,231905,1,0,0:0:0:0:
448,192,232075,1,2,0:0:0:0:
64,192,232075,1,0,0:0:0:0:
320,192,232244,1,0,0:0:0:0:
192,192,232244,1,0,0:0:0:0:
64,192,232414,1,0,0:0:0:0:
320,192,232414,1,2,0:0:0:0:
448,192,232414,1,0,0:0:0:0:
192,192,232583,1,0,0:0:0:0:
448,192,232753,1,0,0:0:0:0:
320,192,232795,1,0,0:0:0:0:
64,192,232837,1,0,0:0:0:0:
192,192,232880,1,0,0:0:0:0:
320,192,232922,1,0,0:0:0:0:
448,192,232965,1,0,0:0:0:0:
192,192,233007,1,0,0:0:0:0:
64,192,233049,1,0,0:0:0:0:
448,192,233092,1,0,0:0:0:0:
320,192,233134,1,0,0:0:0:0:
192,192,233176,1,0,0:0:0:0:
64,192,233219,1,0,0:0:0:0:
448,192,233261,1,0,0:0:0:0:
320,192,233303,1,0,0:0:0:0:
192,192,233346,1,0,0:0:0:0:
64,192,233388,1,0,0:0:0:0:
320,192,233431,1,2,0:0:0:0:
448,192,233431,1,4,0:0:0:0:
192,192,233600,1,0,0:0:0:0:
64,192,233770,1,0,0:0:0:0:
320,192,233770,1,2,0:0:0:0:
192,192,233939,1,0,0:0:0:0:
448,192,234109,1,0,0:0:0:0:
320,192,234109,1,2,0:0:0:0:
64,192,234278,1,0,0:0:0:0:
192,192,234448,1,2,0:0:0:0:
448,192,234448,1,0,0:0:0:0:
320,192,234617,1,0,0:0:0:0:
192,192,234787,1,2,0:0:0:0:
64,192,234787,1,0,0:0:0:0:
448,192,234956,1,0,0:0:0:0:
192,192,235126,1,0,0:0:0:0:
320,192,235126,1,2,0:0:0:0:
448,192,235295,1,0,0:0:0:0:
64,192,235295,1,0,0:0:0:0:
320,192,235465,1,2,0:0:0:0:
192,192,235465,1,0,0:0:0:0:
64,192,235634,1,0,0:0:0:0:
448,192,235803,1,2,0:0:0:0:
192,192,235803,1,0,0:0:0:0:
320,192,235973,1,0,0:0:0:0:
448,192,236142,1,2,0:0:0:0:
64,192,236142,1,0,0:0:0:0:
192,192,236312,1,0,0:0:0:0:
64,192,236481,1,0,0:0:0:0:
320,192,236481,1,2,0:0:0:0:
192,192,236651,1,0,0:0:0:0:
448,192,236651,1,0,0:0:0:0:
320,192,236820,1,2,0:0:0:0:
64,192,236820,1,0,0:0:0:0:
192,192,236990,1,0,0:0:0:0:
320,192,237159,1,2,0:0:0:0:
448,192,237159,1,0,0:0:0:0:
192,192,237329,1,0,0:0:0:0:
64,192,237498,1,0,0:0:0:0:
320,192,237498,1,2,0:0:0:0:
448,192,237668,1,0,0:0:0:0:
192,192,237837,1,0,0:0:0:0:
64,192,237837,1,2,0:0:0:0:
320,192,238007,1,0,0:0:0:0:
64,192,238176,1,0,0:0:0:0:
192,192,238219,1,0,0:0:0:0:
320,192,238261,1,0,0:0:0:0:
448,192,238303,1,0,0:0:0:0:
64,192,238346,1,0,0:0:0:0:
192,192,238388,1,0,0:0:0:0:
320,192,238431,1,0,0:0:0:0:
448,192,238473,1,0,0:0:0:0:
64,192,238515,1,2,0:0:0:0:
192,192,238515,1,0,0:0:0:0:
320,192,238685,1,0,0:0:0:0:
192,192,238685,1,2,0:0:0:0:
320,192,238854,1,0,0:0:0:0:
448,192,238854,1,0,0:0:0:0:
64,192,238854,1,2,0:0:0:0:
192,192,239024,1,0,0:0:0:0:
448,192,239193,1,2,0:0:0:0:
64,192,239193,1,0,0:0:0:0:
320,192,239363,1,0,0:0:0:0:
192,192,239532,1,0,0:0:0:0:
448,192,239532,1,2,0:0:0:0:
64,192,239702,1,0,0:0:0:0:
320,192,239871,1,0,0:0:0:0:
448,192,239871,1,2,0:0:0:0:
192,192,240041,1,0,0:0:0:0:
64,192,240210,1,0,0:0:0:0:
320,192,240210,1,2,0:0:0:0:
448,192,240380,1,0,0:0:0:0:
192,192,240549,1,0,0:0:0:0:
320,192,240549,1,2,0:0:0:0:
64,192,240719,1,0,0:0:0:0:
448,192,240719,1,0,0:0:0:0:
320,192,240888,1,2,0:0:0:0:
192,192,240888,1,0,0:0:0:0:
64,192,241058,1,0,0:0:0:0:
448,192,241227,1,2,0:0:0:0:
192,192,241227,1,0,0:0:0:0:
320,192,241397,1,0,0:0:0:0:
64,192,241566,1,2,0:0:0:0:
448,192,241566,1,0,0:0:0:0:
192,192,241736,1,0,0:0:0:0:
320,192,241905,1,2,0:0:0:0:
448,192,241905,1,0,0:0:0:0:
192,192,242075,1,0,0:0:0:0:
64,192,242075,1,0,0:0:0:0:
320,192,242244,1,2,0:0:0:0:
448,192,242244,1,0,0:0:0:0:
192,192,242414,1,0,0:0:0:0:
64,192,242583,1,2,0:0:0:0:
448,192,242583,1,0,0:0:0:0:
320,192,242753,1,0,0:0:0:0:
64,192,242922,1,2,0:0:0:0:
192,192,242922,1,0,0:0:0:0:
448,192,243092,1,0,0:0:0:0:
192,192,243261,1,0,0:0:0:0:
320,192,243261,1,2,0:0:0:0:
64,192,243431,1,0,0:0:0:0:
448,192,243600,1,2,0:0:0:0:
192,192,243600,1,0,0:0:0:0:
320,192,243770,1,0,0:0:0:0:
64,192,243939,1,0,0:0:0:0:
192,192,243981,1,0,0:0:0:0:
320,192,244024,1,0,0:0:0:0:
448,192,244066,1,0,0:0:0:0:
64,192,244109,128,0,244278:0:0:0:0:
448,192,244278,1,4,0:0:0:0:
192,192,244278,1,0,0:0:0:0:
192,192,244448,1,0,0:0:0:0:
320,192,244448,1,2,0:0:0:0:
448,192,244448,1,0,0:0:0:0:
320,192,244617,1,2,0:0:0:0:
192,192,244617,1,0,0:0:0:0:
64,192,244617,1,0,0:0:0:0:
448,192,244787,1,0,0:0:0:0:
320,192,244956,1,2,0:0:0:0:
64,192,244956,1,0,0:0:0:0:
192,192,245126,1,0,0:0:0:0:
448,192,245295,1,0,0:0:0:0:
320,192,245295,1,2,0:0:0:0:
64,192,245465,1,0,0:0:0:0:
448,192,245634,1,0,0:0:0:0:
192,192,245634,1,2,0:0:0:0:
320,192,245803,1,0,0:0:0:0:
192,192,245973,1,2,0:0:0:0:
64,192,245973,1,0,0:0:0:0:
320,192,246142,1,0,0:0:0:0:
448,192,246142,1,0,0:0:0:0:
64,192,246312,1,0,0:0:0:0:
192,192,246312,1,2,0:0:0:0:
448,192,246481,1,0,0:0:0:0:
192,192,246651,1,2,0:0:0:0:
320,192,246651,1,0,0:0:0:0:
64,192,246820,1,0,0:0:0:0:
448,192,246990,1,2,0:0:0:0:
320,192,246990,1,0,0:0:0:0:
64,192,247159,1,0,0:0:0:0:
192,192,247329,1,0,0:0:0:0:
448,192,247329,1,2,0:0:0:0:
320,192,247498,1,0,0:0:0:0:
64,192,247498,1,0,0:0:0:0:
192,192,247668,1,0,0:0:0:0:
448,192,247668,1,2,0:0:0:0:
320,192,247837,1,0,0:0:0:0:
64,192,248007,1,0,0:0:0:0:
448,192,248007,1,2,0:0:0:0:
192,192,248176,1,0,0:0:0:0:
448,192,248346,1,2,0:0:0:0:
320,192,248346,1,0,0:0:0:0:
192,192,248515,1,0,0:0:0:0:
64,192,248685,1,0,0:0:0:0:
448,192,248685,1,2,0:0:0:0:
320,192,248854,1,0,0:0:0:0:
192,192,249024,1,2,0:0:0:0:
64,192,249024,1,0,0:0:0:0:
320,192,249193,1,0,0:0:0:0:
448,192,249363,1,0,0:0:0:0:
192,192,249363,1,2,0:0:0:0:
192,192,249532,1,2,0:0:0:0:
448,192,249532,1,0,0:0:0:0:
320,192,249702,1,2,0:0:0:0:
64,192,249702,1,0,0:0:0:0:
192,192,249871,1,0,0:0:0:0:
448,192,250041,1,2,0:0:0:0:
64,192,250041,1,0,0:0:0:0:
320,192,250210,1,0,0:0:0:0:
64,192,250380,1,0,0:0:0:0:
192,192,250380,1,2,0:0:0:0:
448,192,250549,1,0,0:0:0:0:
320,192,250719,1,2,0:0:0:0:
64,192,250719,1,0,0:0:0:0:
192,192,250888,1,0,0:0:0:0:
448,192,251058,1,2,0:0:0:0:
320,192,251058,1,0,0:0:0:0:
64,192,251227,1,0,0:0:0:0:
192,192,251397,1,0,0:0:0:0:
320,192,251397,1,2,0:0:0:0:
320,192,251566,1,0,0:0:0:0:
448,192,251566,1,0,0:0:0:0:
192,192,251736,1,2,0:0:0:0:
64,192,251736,1,0,0:0:0:0:
320,192,251905,1,0,0:0:0:0:
448,192,252075,1,0,0:0:0:0:
64,192,252075,1,2,0:0:0:0:
320,192,252244,1,0,0:0:0:0:
64,192,252414,1,2,0:0:0:0:
448,192,252414,1,0,0:0:0:0:
192,192,252414,1,0,0:0:0:0:
320,192,252583,5,0,0:0:0:0:
192,192,252753,1,2,0:0:0:0:
64,192,252753,1,0,0:0:0:0:
320,192,252922,1,0,0:0:0:0:
448,192,253092,1,2,0:0:0:0:
64,192,253092,1,0,0:0:0:0:
320,192,253261,1,0,0:0:0:0:
64,192,253261,1,0,0:0:0:0:
192,192,253431,1,0,0:0:0:0:
448,192,253431,1,2,0:0:0:0:
192,192,253600,1,0,0:0:0:0:
320,192,253600,1,0,0:0:0:0:
448,192,253770,1,0,0:0:0:0:
64,192,253770,128,0,255126:0:0:0:0:
192,192,253939,1,0,0:0:0:0:
448,192,254109,1,0,0:0:0:0:
320,192,254448,1,0,0:0:0:0:
192,192,254617,1,0,0:0:0:0:
448,192,254787,1,0,0:0:0:0:
320,192,254956,1,0,0:0:0:0:
192,192,255126,1,2,0:0:0:0:
448,192,255126,1,4,0:0:0:0:
320,192,255295,128,0,255465:0:0:0:0:
64,192,255465,1,2,0:0:0:0:
192,192,255465,1,0,0:0:0:0:
448,192,255634,128,0,255803:0:0:0:0:
64,192,255803,1,2,0:0:0:0:
320,192,255803,1,0,0:0:0:0:
192,192,255973,128,0,256142:0:0:0:0:
320,192,256142,1,0,0:0:0:0:
448,192,256142,1,2,0:0:0:0:
64,192,256312,128,0,256481:0:0:0:0:
320,192,256481,1,0,0:0:0:0:
448,192,256481,1,2,0:0:0:0:
192,192,256651,128,0,256820:0:0:0:0:
64,192,256820,1,0,0:0:0:0:
448,192,256820,1,2,0:0:0:0:
320,192,256990,128,0,257159:0:0:0:0:
64,192,257159,1,0,0:0:0:0:
448,192,257159,1,2,0:0:0:0:
192,192,257329,128,0,257498:0:0:0:0:
64,192,257498,1,2,0:0:0:0:
448,192,257498,1,0,0:0:0:0:
320,192,257668,128,0,257837:0:0:0:0:
64,192,257837,1,2,0:0:0:0:
192,192,257837,1,0,0:0:0:0:
448,192,258007,128,0,258176:0:0:0:0:
320,192,258176,1,0,0:0:0:0:
64,192,258176,1,2,0:0:0:0:
192,192,258346,128,0,258515:0:0:0:0:
64,192,258515,1,2,0:0:0:0:
320,192,258515,1,0,0:0:0:0:
448,192,258685,128,0,258854:0:0:0:0:
192,192,258854,1,2,0:0:0:0:
320,192,258854,1,0,0:0:0:0:
64,192,259024,128,0,259193:0:0:0:0:
192,192,259193,1,2,0:0:0:0:
448,192,259193,1,0,0:0:0:0:
320,192,259363,128,0,259532:0:0:0:0:
64,192,259532,1,0,0:0:0:0:
448,192,259532,1,2,0:0:0:0:
192,192,259702,128,0,259871:0:0:0:0:
64,192,259871,1,0,0:0:0:0:
448,192,259871,1,2,0:0:0:0:
64,192,260041,128,0,260210:0:0:0:0:
448,192,260210,1,0,0:0:0:0:
320,192,260210,1,0,0:0:0:0:
192,192,260295,1,0,0:0:0:0:
64,192,260295,1,0,0:0:0:0:
448,192,260380,1,0,0:0:0:0:
320,192,260422,1,0,0:0:0:0:
192,192,260465,1,0,0:0:0:0:
64,192,260507,1,0,0:0:0:0:
448,192,260549,1,0,0:0:0:0:
320,192,260549,1,2,0:0:0:0:
192,192,260719,128,0,260888:0:0:0:0:
448,192,260888,1,2,0:0:0:0:
64,192,260888,1,0,0:0:0:0:
320,192,261058,128,0,261227:0:0:0:0:
64,192,261227,1,0,0:0:0:0:
448,192,261227,1,2,0:0:0:0:
192,192,261397,128,0,261566:0:0:0:0:
64,192,261566,1,0,0:0:0:0:
320,192,261566,1,2,0:0:0:0:
448,192,261736,128,0,261905:0:0:0:0:
320,192,261905,1,2,0:0:0:0:
192,192,261905,1,0,0:0:0:0:
64,192,262075,128,0,262244:0:0:0:0:
320,192,262244,1,2,0:0:0:0:
448,192,262244,1,0,0:0:0:0:
192,192,262414,128,0,262583:0:0:0:0:
320,192,262583,1,2,0:0:0:0:
64,192,262583,1,0,0:0:0:0:
448,192,262753,128,0,262922:0:0:0:0:
64,192,262922,1,2,0:0:0:0:
320,192,262922,1,0,0:0:0:0:
192,192,263092,128,0,263261:0:0:0:0:
320,192,263261,1,0,0:0:0:0:
64,192,263261,1,2,0:0:0:0:
448,192,263431,128,0,263600:0:0:0:0:
64,192,263600,1,2,0:0:0:0:
192,192,263600,1,0,0:0:0:0:
320,192,263770,128,0,263939:0:0:0:0:
64,192,263939,1,2,0:0:0:0:
192,192,263939,1,0,0:0:0:0:
448,192,264109,128,0,264278:0:0:0:0:
64,192,264278,1,2,0:0:0:0:
192,192,264278,1,0,0:0:0:0:
320,192,264448,128,0,264617:0:0:0:0:
64,192,264617,1,2,0:0:0:0:
448,192,264617,1,0,0:0:0:0:
192,192,264787,128,0,264956:0:0:0:0:
64,192,264956,1,0,0:0:0:0:
320,192,264956,1,2,0:0:0:0:
448,192,265126,128,0,265295:0:0:0:0:
64,192,265295,1,0,0:0:0:0:
192,192,265337,1,0,0:0:0:0:
320,192,265380,1,0,0:0:0:0:
448,192,265422,1,0,0:0:0:0:
64,192,265465,1,0,0:0:0:0:
192,192,265507,1,0,0:0:0:0:
320,192,265549,1,0,0:0:0:0:
448,192,265592,1,0,0:0:0:0:
192,192,265634,1,0,0:0:0:0:
64,192,265676,1,0,0:0:0:0:
320,192,265719,1,0,0:0:0:0:
448,192,265761,1,0,0:0:0:0:
192,192,265803,1,0,0:0:0:0:
64,192,265846,1,0,0:0:0:0:
320,192,265888,1,0,0:0:0:0:
448,192,265931,1,0,0:0:0:0:
64,192,265973,1,4,0:0:0:0:
192,192,265973,1,2,0:0:0:0:
192,192,266142,1,2,0:0:0:0:
320,192,266142,1,0,0:0:0:0:
64,192,266312,1,0,0:0:0:0:
448,192,266312,1,0,0:0:0:0:
192,192,266312,1,2,0:0:0:0:
320,192,266481,1,0,0:0:0:0:
448,192,266651,1,2,0:0:0:0:
64,192,266651,1,0,0:0:0:0:
192,192,266820,1,0,0:0:0:0:
448,192,266990,1,2,0:0:0:0:
320,192,266990,1,0,0:0:0:0:
192,192,267159,1,0,0:0:0:0:
64,192,267329,1,2,0:0:0:0:
448,192,267329,1,0,0:0:0:0:
320,192,267498,1,0,0:0:0:0:
64,192,267668,1,2,0:0:0:0:
192,192,267668,1,0,0:0:0:0:
320,192,267837,1,0,0:0:0:0:
448,192,268007,1,0,0:0:0:0:
192,192,268007,1,2,0:0:0:0:
320,192,268176,1,0,0:0:0:0:
64,192,268346,1,0,0:0:0:0:
192,192,268388,1,0,0:0:0:0:
320,192,268431,1,0,0:0:0:0:
448,192,268473,1,0,0:0:0:0:
64,192,268515,1,0,0:0:0:0:
192,192,268558,1,0,0:0:0:0:
320,192,268600,1,0,0:0:0:0:
448,192,268642,1,0,0:0:0:0:
64,192,268685,1,0,0:0:0:0:
192,192,268685,1,2,0:0:0:0:
448,192,268854,128,0,269024:0:0:0:0:
64,192,269024,1,0,0:0:0:0:
320,192,269024,1,2,0:0:0:0:
192,192,269193,128,0,269363:0:0:0:0:
64,192,269363,1,0,0:0:0:0:
320,192,269363,1,2,0:0:0:0:
448,192,269532,128,0,269702:0:0:0:0:
64,192,269702,1,0,0:0:0:0:
192,192,269744,1,0,0:0:0:0:
320,192,269787,1,0,0:0:0:0:
448,192,269829,1,0,0:0:0:0:
192,192,269871,1,0,0:0:0:0:
64,192,269914,1,0,0:0:0:0:
320,192,269956,1,0,0:0:0:0:
448,192,269998,1,0,0:0:0:0:
192,192,270041,1,2,0:0:0:0:
64,192,270041,1,0,0:0:0:0:
320,192,270210,128,0,270380:0:0:0:0:
64,192,270380,1,2,0:0:0:0:
448,192,270380,1,0,0:0:0:0:
192,192,270549,128,0,270719:0:0:0:0:
320,192,270719,1,0,0:0:0:0:
64,192,270719,1,2,0:0:0:0:
448,192,270888,128,0,271058:0:0:0:0:
64,192,271058,1,0,0:0:0:0:
192,192,271100,1,0,0:0:0:0:
448,192,271142,1,0,0:0:0:0:
320,192,271185,1,0,0:0:0:0:
64,192,271227,1,0,0:0:0:0:
192,192,271270,1,0,0:0:0:0:
448,192,271312,1,0,0:0:0:0:
320,192,271354,1,0,0:0:0:0:
64,192,271397,1,2,0:0:0:0:
192,192,271397,1,4,0:0:0:0:
320,192,271566,128,0,271736:0:0:0:0:
448,192,271736,1,2,0:0:0:0:
64,192,271736,1,0,0:0:0:0:
192,192,271736,1,4,0:0:0:0:
192,192,271905,128,0,272075:0:0:0:0:
320,192,272075,1,2,0:0:0:0:
448,192,272075,1,4,0:0:0:0:
64,192,272075,1,0,0:0:0:0:
448,192,272244,128,0,272414:0:0:0:0:
64,192,272414,1,0,0:0:0:0:
192,192,272414,1,4,0:0:0:0:
320,192,272414,1,2,0:0:0:0:
64,192,272583,128,0,272753:0:0:0:0:
448,192,272753,1,4,0:0:0:0:
320,192,272753,1,2,0:0:0:0:
192,192,272753,1,0,0:0:0:0:
320,192,272922,128,0,273092:0:0:0:0:
448,192,273092,1,0,0:0:0:0:
64,192,273092,1,4,0:0:0:0:
192,192,273092,1,2,0:0:0:0:
192,192,273261,128,0,273431:0:0:0:0:
448,192,273431,1,4,0:0:0:0:
64,192,273431,1,0,0:0:0:0:
320,192,273431,1,2,0:0:0:0:
448,192,273600,128,0,273770:0:0:0:0:
64,192,273770,1,4,0:0:0:0:
192,192,273770,1,2,0:0:0:0:
320,192,273770,1,0,0:0:0:0:
64,192,273939,1,0,0:0:0:0:
320,192,273939,1,2,0:0:0:0:
192,192,274109,1,0,0:0:0:0:
448,192,274109,1,0,0:0:0:0:
64,192,274278,1,0,0:0:0:0:
448,192,274278,1,0,0:0:0:0:
192,192,274448,1,2,0:0:0:0:
320,192,274448,1,0,0:0:0:0:
448,192,274617,1,0,0:0:0:0:
192,192,274617,1,2,0:0:0:0:
64,192,274787,1,2,0:0:0:0:
320,192,274787,1,0,0:0:0:0:
448,192,274956,1,0,0:0:0:0:
64,192,274956,1,2,0:0:0:0:
320,192,275126,1,0,0:0:0:0:
192,192,275126,1,2,0:0:0:0:
448,192,275295,1,0,0:0:0:0:
192,192,275295,1,2,0:0:0:0:
320,192,275465,1,0,0:0:0:0:
64,192,275465,1,2,0:0:0:0:
320,192,275634,1,2,0:0:0:0:
192,192,275634,1,0,0:0:0:0:
448,192,275803,1,2,0:0:0:0:
64,192,275803,1,0,0:0:0:0:
320,192,275973,1,0,0:0:0:0:
448,192,275973,1,2,0:0:0:0:
64,192,275973,1,0,0:0:0:0:
448,192,276142,1,2,0:0:0:0:
192,192,276142,1,0,0:0:0:0:
320,192,276142,1,0,0:0:0:0:
192,192,276312,1,0,0:0:0:0:
64,192,276312,1,0,0:0:0:0:
320,192,276312,1,2,0:0:0:0:
448,192,276481,1,0,0:0:0:0:
320,192,276481,1,2,0:0:0:0:
192,192,276481,1,0,0:0:0:0:
192,192,276651,1,0,0:0:0:0:
64,192,276651,1,0,0:0:0:0:
320,192,276651,1,2,0:0:0:0:
448,192,276820,1,0,0:0:0:0:
320,192,276820,1,2,0:0:0:0:
192,192,276820,1,0,0:0:0:0:
64,192,276820,1,4,0:0:0:0:
320,192,276990,1,0,0:0:0:0:
64,192,277159,1,0,0:0:0:0:
448,192,277159,1,2,0:0:0:0:
192,192,277329,1,0,0:0:0:0:
64,192,277498,1,0,0:0:0:0:
320,192,277498,1,2,0:0:0:0:
448,192,277668,1,0,0:0:0:0:
192,192,277668,1,0,0:0:0:0:
320,192,277837,1,2,0:0:0:0:
64,192,277837,1,0,0:0:0:0:
192,192,278007,1,0,0:0:0:0:
448,192,278007,1,0,0:0:0:0:
64,192,278176,1,0,0:0:0:0:
192,192,278176,1,2,0:0:0:0:
320,192,278346,1,0,0:0:0:0:
448,192,278515,1,0,0:0:0:0:
64,192,278515,1,2,0:0:0:0:
192,192,278685,1,0,0:0:0:0:
448,192,278685,1,0,0:0:0:0:
64,192,278854,1,0,0:0:0:0:
320,192,278854,1,2,0:0:0:0:
448,192,279024,1,0,0:0:0:0:
192,192,279024,1,0,0:0:0:0:
320,192,279193,1,2,0:0:0:0:
192,192,279193,1,0,0:0:0:0:
64,192,279363,1,0,0:0:0:0:
320,192,279363,1,0,0:0:0:0:
192,192,279532,1,2,0:0:0:0:
448,192,279532,1,0,0:0:0:0:
320,192,279702,1,0,0:0:0:0:
64,192,279871,1,0,0:0:0:0:
192,192,279871,1,2,0:0:0:0:
448,192,280041,1,0,0:0:0:0:
320,192,280041,1,0,0:0:0:0:
64,192,280210,1,0,0:0:0:0:
320,192,280210,1,2,0:0:0:0:
192,192,280380,1,0,0:0:0:0:
448,192,280380,1,0,0:0:0:0:
448,192,280549,1,0,0:0:0:0:
320,192,280549,1,2,0:0:0:0:
192,192,280719,1,0,0:0:0:0:
64,192,280719,1,0,0:0:0:0:
448,192,280888,1,0,0:0:0:0:
64,192,280888,1,2,0:0:0:0:
320,192,281058,1,0,0:0:0:0:
192,192,281227,1,0,0:0:0:0:
64,192,281227,1,2,0:0:0:0:
320,192,281397,1,0,0:0:0:0:
448,192,281397,1,0,0:0:0:0:
64,192,281566,1,0,0:0:0:0:
448,192,281566,1,2,0:0:0:0:
192,192,281736,1,0,0:0:0:0:
320,192,281736,1,0,0:0:0:0:
448,192,281905,1,2,0:0:0:0:
64,192,281905,1,0,0:0:0:0:
320,192,281905,1,0,0:0:0:0:
320,192,282075,1,0,0:0:0:0:
64,192,282075,1,0,0:0:0:0:
448,192,282075,1,2,0:0:0:0:
192,192,282244,1,0,0:0:0:0:
448,192,282244,1,2,0:0:0:0:
64,192,282244,1,0,0:0:0:0:
320,192,282414,1,0,0:0:0:0:
192,192,282583,1,0,0:0:0:0:
64,192,282583,1,2,0:0:0:0:
320,192,282753,1,0,0:0:0:0:
192,192,282753,1,0,0:0:0:0:
64,192,282922,1,2,0:0:0:0:
448,192,282922,1,0,0:0:0:0:
192,192,283092,1,0,0:0:0:0:
448,192,283092,1,0,0:0:0:0:
64,192,283261,1,0,0:0:0:0:
320,192,283261,1,2,0:0:0:0:
448,192,283431,1,0,0:0:0:0:
192,192,283431,1,0,0:0:0:0:
192,192,283600,1,0,0:0:0:0:
320,192,283600,1,2,0:0:0:0:
64,192,283770,1,0,0:0:0:0:
192,192,283939,1,0,0:0:0:0:
448,192,283939,1,2,0:0:0:0:
320,192,284109,1,0,0:0:0:0:
448,192,284109,1,0,0:0:0:0:
64,192,284278,1,0,0:0:0:0:
192,192,284278,1,2,0:0:0:0:
448,192,284448,1,0,0:0:0:0:
320,192,284448,1,0,0:0:0:0:
192,192,284617,1,0,0:0:0:0:
64,192,284659,1,0,0:0:0:0:
320,192,284702,1,0,0:0:0:0:
448,192,284744,1,0,0:0:0:0:
192,192,284787,1,0,0:0:0:0:
64,192,284829,1,0,0:0:0:0:
320,192,284871,1,0,0:0:0:0:
448,192,284914,1,0,0:0:0:0:
64,192,284956,1,0,0:0:0:0:
192,192,284956,1,2,0:0:0:0:
448,192,285126,1,0,0:0:0:0:
320,192,285295,1,2,0:0:0:0:
64,192,285295,1,0,0:0:0:0:
192,192,285465,1,0,0:0:0:0:
448,192,285465,1,0,0:0:0:0:
448,192,285634,1,0,0:0:0:0:
320,192,285634,1,2,0:0:0:0:
64,192,285803,1,0,0:0:0:0:
192,192,285803,1,0,0:0:0:0:
192,192,285973,1,0,0:0:0:0:
320,192,285973,1,2,0:0:0:0:
448,192,286142,1,0,0:0:0:0:
64,192,286142,1,0,0:0:0:0:
64,192,286312,1,0,0:0:0:0:
192,192,286312,1,2,0:0:0:0:
320,192,286481,1,0,0:0:0:0:
64,192,286651,1,0,0:0:0:0:
192,192,286693,1,0,0:0:0:0:
448,192,286736,1,0,0:0:0:0:
320,192,286778,1,0,0:0:0:0:
192,192,286820,1,0,0:0:0:0:
64,192,286863,1,0,0:0:0:0:
320,192,286905,1,0,0:0:0:0:
448,192,286948,1,0,0:0:0:0:
64,192,286990,1,0,0:0:0:0:
192,192,287032,1,0,0:0:0:0:
320,192,287075,1,0,0:0:0:0:
448,192,287117,1,0,0:0:0:0:
64,192,287159,1,0,0:0:0:0:
192,192,287202,1,0,0:0:0:0:
320,192,287244,1,0,0:0:0:0:
448,192,287287,1,0,0:0:0:0:
64,192,287329,1,2,0:0:0:0:
192,192,287329,1,0,0:0:0:0:
448,192,287498,1,0,0:0:0:0:
64,192,287498,1,2,0:0:0:0:
320,192,287498,1,0,0:0:0:0:
192,192,287668,1,0,0:0:0:0:
64,192,287668,1,2,0:0:0:0:
448,192,287668,1,0,0:0:0:0:
320,192,287837,1,0,0:0:0:0:
64,192,288007,1,2,0:0:0:0:
448,192,288007,1,0,0:0:0:0:
192,192,288176,1,0,0:0:0:0:
320,192,288176,1,0,0:0:0:0:
320,192,288346,1,0,0:0:0:0:
64,192,288346,1,2,0:0:0:0:
448,192,288515,1,0,0:0:0:0:
192,192,288515,1,0,0:0:0:0:
192,192,288685,1,0,0:0:0:0:
64,192,288685,1,2,0:0:0:0:
320,192,288854,1,0,0:0:0:0:
448,192,288854,1,0,0:0:0:0:
448,192,289024,1,0,0:0:0:0:
192,192,289024,1,2,0:0:0:0:
64,192,289193,1,0,0:0:0:0:
192,192,289363,1,0,0:0:0:0:
320,192,289363,1,2,0:0:0:0:
448,192,289532,1,0,0:0:0:0:
64,192,289702,1,0,0:0:0:0:
192,192,289744,1,0,0:0:0:0:
448,192,289787,1,0,0:0:0:0:
320,192,289829,1,0,0:0:0:0:
192,192,289871,1,0,0:0:0:0:
64,192,289914,1,0,0:0:0:0:
320,192,289956,1,0,0:0:0:0:
448,192,289998,1,0,0:0:0:0:
64,192,290041,1,0,0:0:0:0:
192,192,290083,1,0,0:0:0:0:
320,192,290126,1,0,0:0:0:0:
448,192,290168,1,0,0:0:0:0:
64,192,290210,1,0,0:0:0:0:
192,192,290253,1,0,0:0:0:0:
320,192,290295,1,0,0:0:0:0:
448,192,290337,1,0,0:0:0:0:
192,192,290380,1,0,0:0:0:0:
64,192,290380,1,2,0:0:0:0:
320,192,290549,1,0,0:0:0:0:
448,192,290719,1,2,0:0:0:0:
64,192,290719,1,0,0:0:0:0:
192,192,290888,1,0,0:0:0:0:
320,192,290888,1,0,0:0:0:0:
320,192,291058,1,0,0:0:0:0:
448,192,291058,1,2,0:0:0:0:
64,192,291227,1,0,0:0:0:0:
192,192,291227,1,0,0:0:0:0:
320,192,291397,1,0,0:0:0:0:
192,192,291397,1,2,0:0:0:0:
448,192,291566,1,0,0:0:0:0:
320,192,291566,1,0,0:0:0:0:
64,192,291736,1,0,0:0:0:0:
192,192,291736,1,2,0:0:0:0:
320,192,291905,1,0,0:0:0:0:
448,192,291905,1,0,0:0:0:0:
448,192,292075,1,0,0:0:0:0:
192,192,292075,1,2,0:0:0:0:
64,192,292244,1,0,0:0:0:0:
320,192,292244,1,0,0:0:0:0:
320,192,292414,1,0,0:0:0:0:
192,192,292414,1,2,0:0:0:0:
448,192,292583,1,0,0:0:0:0:
320,192,292626,1,0,0:0:0:0:
64,192,292668,1,0,0:0:0:0:
192,192,292710,1,0,0:0:0:0:
448,192,292753,1,0,0:0:0:0:
320,192,292795,1,0,0:0:0:0:
64,192,292837,1,0,0:0:0:0:
192,192,292880,1,0,0:0:0:0:
448,192,292922,1,0,0:0:0:0:
320,192,292965,1,0,0:0:0:0:
64,192,293007,1,0,0:0:0:0:
192,192,293049,1,0,0:0:0:0:
320,192,293092,1,4,0:0:0:0:
448,192,293092,1,0,0:0:0:0:
192,192,293261,1,2,0:0:0:0:
64,192,293261,1,0,0:0:0:0:
64,192,293431,1,0,0:0:0:0:
192,192,293431,1,2,0:0:0:0:
320,192,293600,1,0,0:0:0:0:
448,192,293600,1,0,0:0:0:0:
192,192,293770,1,2,0:0:0:0:
448,192,293770,1,0,0:0:0:0:
64,192,293939,1,0,0:0:0:0:
320,192,293939,1,0,0:0:0:0:
192,192,294109,1,2,0:0:0:0:
320,192,294109,1,0,0:0:0:0:
448,192,294278,1,0,0:0:0:0:
192,192,294278,1,0,0:0:0:0:
64,192,294448,1,2,0:0:0:0:
320,192,294448,1,0,0:0:0:0:
192,192,294617,1,0,0:0:0:0:
448,192,294617,1,0,0:0:0:0:
448,192,294787,1,0,0:0:0:0:
64,192,294787,1,2,0:0:0:0:
320,192,294956,1,0,0:0:0:0:
192,192,294956,1,0,0:0:0:0:
192,192,295126,1,2,0:0:0:0:
64,192,295126,1,0,0:0:0:0:
448,192,295295,1,0,0:0:0:0:
320,192,295295,1,0,0:0:0:0:
64,192,295465,1,0,0:0:0:0:
320,192,295465,1,2,0:0:0:0:
192,192,295634,1,0,0:0:0:0:
448,192,295634,1,0,0:0:0:0:
320,192,295803,1,0,0:0:0:0:
448,192,295803,1,2,0:0:0:0:
192,192,295973,1,0,0:0:0:0:
64,192,295973,1,0,0:0:0:0:
448,192,296142,1,2,0:0:0:0:
64,192,296142,1,0,0:0:0:0:
320,192,296312,1,0,0:0:0:0:
192,192,296312,1,0,0:0:0:0:
64,192,296481,1,0,0:0:0:0:
192,192,296481,1,2,0:0:0:0:
448,192,296651,1,0,0:0:0:0:
320,192,296651,1,0,0:0:0:0:
320,192,296820,1,2,0:0:0:0:
64,192,296820,1,0,0:0:0:0:
192,192,296990,1,0,0:0:0:0:
448,192,296990,1,0,0:0:0:0:
448,192,297159,1,0,0:0:0:0:
64,192,297159,1,4,0:0:0:0:
320,192,297329,1,0,0:0:0:0:
448,192,297498,5,0,0:0:0:0:
192,192,297498,1,4,0:0:0:0:
64,192,297668,1,0,0:0:0:0:
448,192,297837,1,0,0:0:0:0:
320,192,297837,1,4,0:0:0:0:
192,192,298007,1,0,0:0:0:0:
320,192,298092,1,0,0:0:0:0:
448,192,298176,1,4,0:0:0:0:
64,192,298176,1,0,0:0:0:0:
320,192,298346,1,0,0:0:0:0:
192,192,298431,1,0,0:0:0:0:
448,192,298515,1,4,0:0:0:0:
320,192,298515,1,0,0:0:0:0:
64,192,298515,128,2,298685:0:0:0:0:
192,192,298685,1,0,0:0:0:0:
64,192,298854,1,2,0:0:0:0:
448,192,298854,128,0,299024:0:0:0:0:
320,192,299024,1,0,0:0:0:0:
64,192,299193,1,2,0:0:0:0:
192,192,299193,128,0,299363:0:0:0:0:
448,192,299363,1,0,0:0:0:0:
320,192,299532,1,2,0:0:0:0:
64,192,299532,128,0,299702:0:0:0:0:
448,192,299702,1,0,0:0:0:0:
320,192,299871,1,2,0:0:0:0:
192,192,299871,128,0,300041:0:0:0:0:
64,192,300041,1,0,0:0:0:0:
448,192,300210,1,2,0:0:0:0:
320,192,300210,128,0,300380:0:0:0:0:
192,192,300380,1,0,0:0:0:0:
64,192,300549,1,2,0:0:0:0:
448,192,300549,128,0,300719:0:0:0:0:
320,192,300719,1,0,0:0:0:0:
64,192,300888,1,2,0:0:0:0:
192,192,300888,128,0,301058:0:0:0:0:
448,192,301058,1,0,0:0:0:0:
64,192,301227,1,2,0:0:0:0:
320,192,301227,128,0,301397:0:0:0:0:
448,192,301397,1,0,0:0:0:0:
64,192,301566,128,0,301736:0:0:0:0:
192,192,301566,1,2,0:0:0:0:
320,192,301736,1,0,0:0:0:0:
448,192,301905,128,0,302075:0:0:0:0:
192,192,301905,1,2,0:0:0:0:
64,192,302075,1,0,0:0:0:0:
192,192,302244,1,2,0:0:0:0:
320,192,302244,128,0,302414:0:0:0:0:
448,192,302414,1,0,0:0:0:0:
192,192,302583,1,2,0:0:0:0:
64,192,302583,128,0,302753:0:0:0:0:
320,192,302753,1,0,0:0:0:0:
64,192,302922,1,2,0:0:0:0:
448,192,302922,128,0,303092:0:0:0:0:
192,192,303092,1,0,0:0:0:0:
64,192,303261,1,2,0:0:0:0:
320,192,303261,128,0,303431:0:0:0:0:
448,192,303431,1,0,0:0:0:0:
320,192,303600,1,0,0:0:0:0:
64,192,303600,1,2,0:0:0:0:
192,192,303600,1,0,0:0:0:0:
448,192,303770,1,0,0:0:0:0:
192,192,303770,1,0,0:0:0:0:
64,192,303770,1,2,0:0:0:0:
320,192,303939,1,0,0:0:0:0:
192,192,303939,1,2,0:0:0:0:
448,192,303939,128,0,304109:0:0:0:0:
64,192,304109,1,0,0:0:0:0:
448,192,304278,1,2,0:0:0:0:
320,192,304278,128,0,304448:0:0:0:0:
192,192,304448,1,0,0:0:0:0:
448,192,304617,1,2,0:0:0:0:
64,192,304617,128,0,304787:0:0:0:0:
320,192,304787,1,0,0:0:0:0:
448,192,304956,1,2,0:0:0:0:
192,192,304956,128,0,305126:0:0:0:0:
64,192,305126,1,0,0:0:0:0:
448,192,305295,1,2,0:0:0:0:
320,192,305295,128,0,305465:0:0:0:0:
64,192,305465,1,0,0:0:0:0:
448,192,305634,1,2,0:0:0:0:
192,192,305634,128,0,305803:0:0:0:0:
320,192,305803,1,0,0:0:0:0:
192,192,305973,1,2,0:0:0:0:
64,192,305973,128,0,306142:0:0:0:0:
448,192,306142,1,0,0:0:0:0:
64,192,306312,1,2,0:0:0:0:
320,192,306312,128,0,306481:0:0:0:0:
192,192,306481,1,0,0:0:0:0:
448,192,306651,128,0,306820:0:0:0:0:
192,192,306820,1,2,0:0:0:0:
320,192,306820,1,0,0:0:0:0:
64,192,306990,1,2,0:0:0:0:
448,192,306990,1,0,0:0:0:0:
320,192,306990,128,0,307159:0:0:0:0:
192,192,307159,1,0,0:0:0:0:
448,192,307329,1,2,0:0:0:0:
64,192,307329,128,0,307498:0:0:0:0:
320,192,307498,1,0,0:0:0:0:
448,192,307668,1,2,0:0:0:0:
192,192,307668,128,0,307837:0:0:0:0:
320,192,307837,1,0,0:0:0:0:
448,192,308007,1,2,0:0:0:0:
64,192,308007,128,0,308176:0:0:0:0:
192,192,308176,1,0,0:0:0:0:
320,192,308346,1,2,0:0:0:0:
64,192,308346,128,0,308515:0:0:0:0:
448,192,308515,1,0,0:0:0:0:
64,192,308685,1,2,0:0:0:0:
192,192,308685,128,0,308854:0:0:0:0:
320,192,308854,1,0,0:0:0:0:
448,192,309024,1,0,0:0:0:0:
320,192,309066,1,0,0:0:0:0:
192,192,309109,1,0,0:0:0:0:
64,192,309151,1,0,0:0:0:0:
448,192,309193,1,0,0:0:0:0:
320,192,309236,1,0,0:0:0:0:
192,192,309278,1,0,0:0:0:0:
64,192,309320,1,0,0:0:0:0:
320,192,309363,1,2,0:0:0:0:
448,192,309363,1,4,0:0:0:0:
320,192,309532,1,0,0:0:0:0:
192,192,309702,1,2,0:0:0:0:
448,192,309702,1,0,0:0:0:0:
64,192,309871,1,0,0:0:0:0:
320,192,310041,1,2,0:0:0:0:
192,192,310041,1,0,0:0:0:0:
448,192,310210,1,0,0:0:0:0:
320,192,310380,1,0,0:0:0:0:
64,192,310380,1,2,0:0:0:0:
192,192,310549,1,0,0:0:0:0:
320,192,310719,1,2,0:0:0:0:
448,192,310719,1,0,0:0:0:0:
192,192,310888,1,0,0:0:0:0:
64,192,311058,1,2,0:0:0:0:
448,192,311058,1,0,0:0:0:0:
320,192,311227,1,0,0:0:0:0:
64,192,311397,1,0,0:0:0:0:
192,192,311397,1,2,0:0:0:0:
448,192,311566,1,0,0:0:0:0:
64,192,311736,1,0,0:0:0:0:
192,192,311778,1,0,0:0:0:0:
448,192,311820,1,0,0:0:0:0:
320,192,311863,1,0,0:0:0:0:
64,192,311905,1,0,0:0:0:0:
192,192,311948,1,0,0:0:0:0:
320,192,311990,1,0,0:0:0:0:
448,192,312032,1,0,0:0:0:0:
192,192,312075,1,0,0:0:0:0:
64,192,312075,1,2,0:0:0:0:
448,192,312244,1,0,0:0:0:0:
64,192,312414,1,0,0:0:0:0:
320,192,312414,1,2,0:0:0:0:
192,192,312583,1,0,0:0:0:0:
320,192,312753,1,2,0:0:0:0:
448,192,312753,1,0,0:0:0:0:
192,192,312922,1,0,0:0:0:0:
64,192,313092,1,0,0:0:0:0:
192,192,313134,1,0,0:0:0:0:
320,192,313176,1,0,0:0:0:0:
448,192,313219,1,0,0:0:0:0:
64,192,313261,1,0,0:0:0:0:
192,192,313303,1,0,0:0:0:0:
320,192,313346,1,0,0:0:0:0:
448,192,313388,1,0,0:0:0:0:
192,192,313431,1,0,0:0:0:0:
64,192,313431,1,2,0:0:0:0:
320,192,313600,1,0,0:0:0:0:
192,192,313770,1,2,0:0:0:0:
448,192,313770,1,0,0:0:0:0:
64,192,313939,1,0,0:0:0:0:
320,192,314109,1,2,0:0:0:0:
448,192,314109,1,0,0:0:0:0:
192,192,314278,1,0,0:0:0:0:
448,192,314448,1,0,0:0:0:0:
320,192,314490,1,0,0:0:0:0:
64,192,314532,1,0,0:0:0:0:
192,192,314575,1,0,0:0:0:0:
448,192,314617,1,0,0:0:0:0:
320,192,314659,1,0,0:0:0:0:
192,192,314702,1,0,0:0:0:0:
64,192,314744,1,0,0:0:0:0:
448,192,314787,1,2,0:0:0:0:
320,192,314787,1,0,0:0:0:0:
448,192,314956,1,2,0:0:0:0:
64,192,314956,1,0,0:0:0:0:
192,192,314956,1,0,0:0:0:0:
64,192,315126,1,0,0:0:0:0:
448,192,315126,1,2,0:0:0:0:
320,192,315126,1,0,0:0:0:0:
192,192,315295,1,0,0:0:0:0:
64,192,315465,1,2,0:0:0:0:
448,192,315465,1,0,0:0:0:0:
320,192,315634,1,0,0:0:0:0:
192,192,315803,1,0,0:0:0:0:
64,192,315803,1,2,0:0:0:0:
448,192,315973,1,0,0:0:0:0:
64,192,316142,1,0,0:0:0:0:
320,192,316142,1,2,0:0:0:0:
192,192,316312,1,0,0:0:0:0:
320,192,316481,1,2,0:0:0:0:
448,192,316481,1,0,0:0:0:0:
64,192,316651,1,0,0:0:0:0:
192,192,316820,1,2,0:0:0:0:
320,192,316820,1,0,0:0:0:0:
448,192,316990,1,0,0:0:0:0:
64,192,317159,1,2,0:0:0:0:
320,192,317159,1,0,0:0:0:0:
192,192,317329,1,0,0:0:0:0:
448,192,317498,1,2,0:0:0:0:
320,192,317498,1,0,0:0:0:0:
192,192,317668,1,0,0:0:0:0:
64,192,317837,1,0,0:0:0:0:
448,192,317837,1,2,0:0:0:0:
320,192,318007,1,0,0:0:0:0:
192,192,318176,1,0,0:0:0:0:
64,192,318176,1,2,0:0:0:0:
448,192,318346,1,0,0:0:0:0:
64,192,318515,1,2,0:0:0:0:
320,192,318515,1,0,0:0:0:0:
64,192,318685,1,0,0:0:0:0:
448,192,318685,1,0,0:0:0:0:
192,192,318685,1,2,0:0:0:0:
64,192,318854,1,0,0:0:0:0:
192,192,318854,1,2,0:0:0:0:
320,192,318854,1,0,0:0:0:0:
64,192,319024,1,0,0:0:0:0:
448,192,319024,1,0,0:0:0:0:
192,192,319024,1,2,0:0:0:0:
448,192,319193,1,0,0:0:0:0:
64,192,319193,1,0,0:0:0:0:
320,192,319193,1,2,0:0:0:0:
448,192,319363,1,0,0:0:0:0:
320,192,319363,1,2,0:0:0:0:
192,192,319363,1,0,0:0:0:0:
64,192,319532,1,0,0:0:0:0:
448,192,319532,1,0,0:0:0:0:
320,192,319532,1,2,0:0:0:0:
64,192,319702,1,0,0:0:0:0:
448,192,319702,1,2,0:0:0:0:
192,192,319702,1,0,0:0:0:0:
320,192,319871,128,0,320210:0:0:0:0:
192,192,319871,1,0,0:0:0:0:
64,192,320210,1,2,0:0:0:0:
192,192,320210,1,0,0:0:0:0:
320,192,320380,1,0,0:0:0:0:
448,192,320549,1,0,0:0:0:0:
64,192,320549,1,2,0:0:0:0:
192,192,320719,1,0,0:0:0:0:
64,192,320888,1,0,0:0:0:0:
320,192,320888,1,2,0:0:0:0:
448,192,321058,1,0,0:0:0:0:
192,192,321227,1,2,0:0:0:0:
64,192,321227,1,0,0:0:0:0:
320,192,321397,1,0,0:0:0:0:
192,192,321566,1,2,0:0:0:0:
448,192,321566,1,0,0:0:0:0:
64,192,321736,1,0,0:0:0:0:
320,192,321905,1,2,0:0:0:0:
448,192,321905,1,0,0:0:0:0:
192,192,322075,1,0,0:0:0:0:
64,192,322244,1,0,0:0:0:0:
320,192,322244,1,2,0:0:0:0:
448,192,322414,1,0,0:0:0:0:
320,192,322583,1,2,0:0:0:0:
192,192,322583,1,0,0:0:0:0:
64,192,322583,1,0,0:0:0:0:
64,192,322753,1,0,0:0:0:0:
192,192,322753,1,0,0:0:0:0:
320,192,322753,1,2,0:0:0:0:
192,192,322922,1,0,0:0:0:0:
320,192,322922,1,2,0:0:0:0:
448,192,322922,1,0,0:0:0:0:
64,192,323092,1,0,0:0:0:0:
320,192,323261,1,2,0:0:0:0:
448,192,323261,1,0,0:0:0:0:
192,192,323431,1,0,0:0:0:0:
64,192,323600,1,0,0:0:0:0:
320,192,323600,1,2,0:0:0:0:
448,192,323770,1,0,0:0:0:0:
64,192,323939,1,0,0:0:0:0:
192,192,323939,1,2,0:0:0:0:
320,192,324109,1,0,0:0:0:0:
192,192,324278,1,2,0:0:0:0:
448,192,324278,1,0,0:0:0:0:
64,192,324448,1,0,0:0:0:0:
192,192,324617,1,2,0:0:0:0:
320,192,324617,1,0,0:0:0:0:
448,192,324787,1,0,0:0:0:0:
64,192,324956,1,0,0:0:0:0:
192,192,324956,1,2,0:0:0:0:
320,192,325126,1,0,0:0:0:0:
448,192,325295,1,0,0:0:0:0:
320,192,325337,1,0,0:0:0:0:
192,192,325380,1,0,0:0:0:0:
64,192,325422,1,0,0:0:0:0:
448,192,325465,1,0,0:0:0:0:
320,192,325507,1,0,0:0:0:0:
192,192,325549,1,0,0:0:0:0:
64,192,325592,1,0,0:0:0:0:
320,192,325634,1,2,0:0:0:0:
448,192,325634,1,0,0:0:0:0:
192,192,325803,1,0,0:0:0:0:
64,192,325973,1,0,0:0:0:0:
448,192,325973,1,2,0:0:0:0:
320,192,326142,1,0,0:0:0:0:
64,192,326312,1,2,0:0:0:0:
448,192,326312,1,0,0:0:0:0:
192,192,326481,1,0,0:0:0:0:
320,192,326651,1,2,0:0:0:0:
448,192,326651,1,0,0:0:0:0:
64,192,326820,1,0,0:0:0:0:
192,192,326990,1,2,0:0:0:0:
448,192,326990,1,0,0:0:0:0:
320,192,327159,1,0,0:0:0:0:
64,192,327329,1,2,0:0:0:0:
192,192,327329,1,0,0:0:0:0:
320,192,327498,1,0,0:0:0:0:
64,192,327668,1,2,0:0:0:0:
448,192,327668,1,0,0:0:0:0:
192,192,327837,1,0,0:0:0:0:
64,192,328007,1,0,0:0:0:0:
192,192,328007,1,2,0:0:0:0:
448,192,328007,1,0,0:0:0:0:
64,192,328176,1,0,0:0:0:0:
320,192,328176,1,2,0:0:0:0:
448,192,328176,1,0,0:0:0:0:
64,192,328346,1,0,0:0:0:0:
192,192,328346,1,2,0:0:0:0:
448,192,328346,1,0,0:0:0:0:
320,192,328515,1,0,0:0:0:0:
64,192,328685,1,0,0:0:0:0:
448,192,328685,1,2,0:0:0:0:
320,192,328685,1,0,0:0:0:0:
192,192,328854,1,0,0:0:0:0:
448,192,329024,1,0,0:0:0:0:
320,192,329066,1,0,0:0:0:0:
192,192,329109,1,0,0:0:0:0:
64,192,329151,1,0,0:0:0:0:
448,192,329193,1,0,0:0:0:0:
320,192,329236,1,0,0:0:0:0:
64,192,329278,1,0,0:0:0:0:
192,192,329320,1,0,0:0:0:0:
448,192,329363,1,0,0:0:0:0:
320,192,329405,1,0,0:0:0:0:
64,192,329448,1,0,0:0:0:0:
192,192,329490,1,0,0:0:0:0:
448,192,329532,1,0,0:0:0:0:
320,192,329575,1,0,0:0:0:0:
192,192,329617,1,0,0:0:0:0:
64,192,329659,1,0,0:0:0:0:
448,192,329702,1,0,0:0:0:0:
320,192,329702,1,2,0:0:0:0:
192,192,329871,1,0,0:0:0:0:
64,192,330041,1,2,0:0:0:0:
448,192,330041,1,0,0:0:0:0:
320,192,330210,1,0,0:0:0:0:
64,192,330380,1,0,0:0:0:0:
192,192,330422,1,0,0:0:0:0:
320,192,330465,1,0,0:0:0:0:
448,192,330507,1,0,0:0:0:0:
64,192,330549,1,0,0:0:0:0:
192,192,330592,1,0,0:0:0:0:
320,192,330634,1,0,0:0:0:0:
448,192,330676,1,0,0:0:0:0:
192,192,330719,1,0,0:0:0:0:
64,192,330761,1,0,0:0:0:0:
320,192,330803,1,0,0:0:0:0:
448,192,330846,1,0,0:0:0:0:
192,192,330888,1,0,0:0:0:0:
64,192,330931,1,0,0:0:0:0:
320,192,330973,1,0,0:0:0:0:
448,192,331015,1,0,0:0:0:0:
192,192,331058,1,2,0:0:0:0:
64,192,331058,1,0,0:0:0:0:
320,192,331227,1,0,0:0:0:0:
64,192,331397,1,0,0:0:0:0:
448,192,331397,1,2,0:0:0:0:
320,192,331566,1,0,0:0:0:0:
192,192,331736,1,0,0:0:0:0:
448,192,331736,1,2,0:0:0:0:
64,192,331905,1,0,0:0:0:0:
448,192,332075,1,0,0:0:0:0:
320,192,332075,1,2,0:0:0:0:
192,192,332244,1,0,0:0:0:0:
64,192,332414,1,0,0:0:0:0:
320,192,332414,1,2,0:0:0:0:
448,192,332583,1,0,0:0:0:0:
192,192,332753,1,2,0:0:0:0:
320,192,332753,1,0,0:0:0:0:
64,192,332922,1,0,0:0:0:0:
192,192,333092,1,2,0:0:0:0:
448,192,333092,1,0,0:0:0:0:
320,192,333261,1,0,0:0:0:0:
64,192,333431,1,0,0:0:0:0:
192,192,333473,1,0,0:0:0:0:
320,192,333515,1,0,0:0:0:0:
448,192,333558,1,0,0:0:0:0:
64,192,333600,1,0,0:0:0:0:
192,192,333642,1,0,0:0:0:0:
320,192,333685,1,0,0:0:0:0:
448,192,333727,1,0,0:0:0:0:
64,192,333770,1,2,0:0:0:0:
192,192,333770,1,4,0:0:0:0:
320,192,333939,1,0,0:0:0:0:
192,192,334109,1,2,0:0:0:0:
448,192,334109,1,0,0:0:0:0:
64,192,334278,1,0,0:0:0:0:
320,192,334448,1,2,0:0:0:0:
448,192,334448,1,0,0:0:0:0:
192,192,334617,1,0,0:0:0:0:
64,192,334787,1,2,0:0:0:0:
448,192,334787,1,0,0:0:0:0:
320,192,334956,1,0,0:0:0:0:
448,192,335126,1,0,0:0:0:0:
192,192,335126,1,2,0:0:0:0:
320,192,335295,1,0,0:0:0:0:
192,192,335465,1,2,0:0:0:0:
64,192,335465,1,0,0:0:0:0:
448,192,335634,1,0,0:0:0:0:
64,192,335803,1,0,0:0:0:0:
320,192,335803,1,2,0:0:0:0:
192,192,335973,1,0,0:0:0:0:
64,192,336142,1,0,0:0:0:0:
192,192,336185,1,0,0:0:0:0:
320,192,336227,1,0,0:0:0:0:
448,192,336270,1,0,0:0:0:0:
64,192,336312,1,0,0:0:0:0:
192,192,336354,1,0,0:0:0:0:
320,192,336397,1,0,0:0:0:0:
448,192,336439,1,0,0:0:0:0:
192,192,336481,1,4,0:0:0:0:
64,192,336481,1,2,0:0:0:0:
320,192,336651,1,0,0:0:0:0:
64,192,336820,1,0,0:0:0:0:
448,192,336820,1,2,0:0:0:0:
192,192,336990,1,0,0:0:0:0:
64,192,337159,1,0,0:0:0:0:
320,192,337159,1,2,0:0:0:0:
448,192,337329,1,0,0:0:0:0:
64,192,337498,1,0,0:0:0:0:
192,192,337541,1,0,0:0:0:0:
448,192,337583,1,0,0:0:0:0:
320,192,337626,1,0,0:0:0:0:
64,192,337668,1,0,0:0:0:0:
192,192,337710,1,0,0:0:0:0:
448,192,337753,1,0,0:0:0:0:
320,192,337795,1,0,0:0:0:0:
192,192,337837,1,4,0:0:0:0:
64,192,337837,1,2,0:0:0:0:
448,192,338007,1,0,0:0:0:0:
64,192,338176,1,0,0:0:0:0:
320,192,338176,1,2,0:0:0:0:
192,192,338346,1,0,0:0:0:0:
320,192,338515,1,0,0:0:0:0:
448,192,338515,1,2,0:0:0:0:
64,192,338685,1,0,0:0:0:0:
192,192,338854,1,2,0:0:0:0:
320,192,338854,1,0,0:0:0:0:
448,192,339024,1,0,0:0:0:0:
64,192,339024,1,2,0:0:0:0:
64,192,339193,1,0,0:0:0:0:
192,192,339193,1,2,0:0:0:0:
320,192,339193,1,0,0:0:0:0:
448,192,339363,1,0,0:0:0:0:
64,192,339532,1,4,0:0:0:0:
192,192,339532,1,2,0:0:0:0:
448,192,339532,1,0,0:0:0:0:
320,192,339702,1,0,0:0:0:0:
320,192,339871,1,2,0:0:0:0:
448,192,339871,1,0,0:0:0:0:
192,192,339871,1,4,0:0:0:0:
64,192,340041,1,0,0:0:0:0:
192,192,340210,1,4,0:0:0:0:
64,192,340210,1,2,0:0:0:0:
448,192,340210,1,0,0:0:0:0:
320,192,340380,1,0,0:0:0:0:
320,192,340549,1,2,0:0:0:0:
64,192,340549,1,0,0:0:0:0:
448,192,340549,1,4,0:0:0:0:
192,192,340719,1,0,0:0:0:0:
64,192,340888,1,4,0:0:0:0:
192,192,340888,1,2,0:0:0:0:
448,192,340888,1,0,0:0:0:0:
320,192,341058,1,0,0:0:0:0:
192,192,341227,1,2,0:0:0:0:
320,192,341227,1,4,0:0:0:0:
448,192,341227,1,0,0:0:0:0:
64,192,341397,1,0,0:0:0:0:
64,192,341566,1,4,0:0:0:0:
192,192,341566,1,2,0:0:0:0:
448,192,341566,1,0,0:0:0:0:
64,192,341736,1,0,0:0:0:0:
320,192,341736,1,0,0:0:0:0:
448,192,341736,1,2,0:0:0:0:
192,192,341905,1,4,0:0:0:0:
320,192,341905,1,0,0:0:0:0:
448,192,341905,1,0,0:0:0:0:
448,192,342244,1,0,0:0:0:0:
64,192,342244,1,0,0:0:0:0:
320,192,342583,1,0,0:0:0:0:
64,192,342583,1,0,0:0:0:0:
448,192,342922,1,0,0:0:0:0:
192,192,342922,1,0,0:0:0:0:
448,192,343261,1,0,0:0:0:0:
320,192,343261,1,0,0:0:0:0:
192,192,343431,1,0,0:0:0:0:
448,192,343600,1,0,0:0:0:0:
64,192,343600,1,0,0:0:0:0:
192,192,343770,1,0,0:0:0:0:
448,192,343939,1,0,0:0:0:0:
64,192,343939,1,0,0:0:0:0:
320,192,344109,1,0,0:0:0:0:
448,192,344278,1,0,0:0:0:0:
192,192,344278,1,0,0:0:0:0:
64,192,344448,1,0,0:0:0:0:
448,192,344617,1,0,0:0:0:0:
320,192,344617,1,0,0:0:0:0:
192,192,344787,1,0,0:0:0:0:
448,192,344956,1,0,0:0:0:0:
64,192,344956,1,0,0:0:0:0:
320,192,345126,1,0,0:0:0:0:
448,192,345295,1,0,0:0:0:0:
64,192,345295,1,0,0:0:0:0:
192,192,345465,1,0,0:0:0:0:
448,192,345634,1,0,0:0:0:0:
320,192,345634,1,0,0:0:0:0:
192,192,345803,1,0,0:0:0:0:
448,192,345973,1,0,0:0:0:0:
64,192,345973,1,0,0:0:0:0:
320,192,346142,1,0,0:0:0:0:
448,192,346312,1,0,0:0:0:0:
192,192,346312,1,0,0:0:0:0:
64,192,346481,1,0,0:0:0:0:
448,192,346651,1,0,0:0:0:0:
192,192,346651,1,0,0:0:0:0:
64,192,346820,1,0,0:0:0:0:
448,192,346990,1,0,0:0:0:0:
320,192,346990,1,0,0:0:0:0:
192,192,347159,1,0,0:0:0:0:
448,192,347159,1,0,0:0:0:0:
64,192,347329,1,0,0:0:0:0:
448,192,347329,1,0,0:0:0:0:
320,192,347498,1,0,0:0:0:0:
64,192,347668,1,0,0:0:0:0:
448,192,347668,1,0,0:0:0:0:
320,192,347837,1,0,0:0:0:0:
64,192,348007,1,0,0:0:0:0:
192,192,348007,1,0,0:0:0:0:
320,192,348176,1,0,0:0:0:0:
64,192,348346,1,0,0:0:0:0:
192,192,348346,1,0,0:0:0:0:
320,192,348515,1,0,0:0:0:0:
64,192,348685,1,0,0:0:0:0:
448,192,348685,1,0,0:0:0:0:
320,192,348854,1,0,0:0:0:0:
64,192,349024,1,0,0:0:0:0:
192,192,349024,1,0,0:0:0:0:
448,192,349193,1,0,0:0:0:0:
64,192,349363,1,0,0:0:0:0:
192,192,349363,1,0,0:0:0:0:
320,192,349532,1,0,0:0:0:0:
64,192,349702,1,0,0:0:0:0:
448,192,349702,1,0,0:0:0:0:
192,192,349871,1,0,0:0:0:0:
64,192,350041,1,0,0:0:0:0:
320,192,350041,1,0,0:0:0:0:
448,192,350210,1,0,0:0:0:0:
64,192,350380,1,0,0:0:0:0:
192,192,350380,1,0,0:0:0:0:
320,192,350549,1,0,0:0:0:0:
64,192,350719,1,0,0:0:0:0:
448,192,350719,1,0,0:0:0:0:
320,192,350888,1,0,0:0:0:0:
64,192,351058,1,0,0:0:0:0:
192,192,351058,1,0,0:0:0:0:
448,192,351227,1,0,0:0:0:0:
64,192,351397,1,0,0:0:0:0:
320,192,351397,1,0,0:0:0:0:
192,192,351566,1,0,0:0:0:0:
448,192,351736,1,0,0:0:0:0:
64,192,351736,1,0,0:0:0:0:
320,192,351905,1,0,0:0:0:0:
64,192,352075,1,0,0:0:0:0:
192,192,352075,1,0,0:0:0:0:
320,192,352244,1,0,0:0:0:0:
64,192,352414,1,0,0:0:0:0:
448,192,352414,1,0,0:0:0:0:
64,192,352583,1,0,0:0:0:0:
192,192,352583,1,0,0:0:0:0:
320,192,352753,1,0,0:0:0:0:
192,192,352753,1,0,0:0:0:0:
448,192,352922,1,0,0:0:0:0:
320,192,353092,1,0,0:0:0:0:
64,192,353092,1,0,0:0:0:0:
192,192,353261,1,0,0:0:0:0:
320,192,353431,1,0,0:0:0:0:
448,192,353431,1,0,0:0:0:0:
192,192,353600,1,0,0:0:0:0:
320,192,353770,1,0,0:0:0:0:
64,192,353770,1,0,0:0:0:0:
448,192,353939,1,0,0:0:0:0:
320,192,354109,1,0,0:0:0:0:
192,192,354109,1,0,0:0:0:0:
64,192,354278,1,0,0:0:0:0:
320,192,354448,1,0,0:0:0:0:
448,192,354448,1,0,0:0:0:0:
192,192,354617,1,0,0:0:0:0:
320,192,354787,1,0,0:0:0:0:
64,192,354787,1,0,0:0:0:0:
448,192,354956,1,0,0:0:0:0:
320,192,355126,1,0,0:0:0:0:
64,192,355126,1,0,0:0:0:0:
192,192,355295,1,0,0:0:0:0:
320,192,355465,1,0,0:0:0:0:
448,192,355465,1,0,0:0:0:0:
192,192,355634,1,0,0:0:0:0:
320,192,355803,1,0,0:0:0:0:
64,192,355803,1,0,0:0:0:0:
448,192,355973,1,0,0:0:0:0:
320,192,356142,1,0,0:0:0:0:
192,192,356142,1,0,0:0:0:0:
448,192,356312,1,0,0:0:0:0:
320,192,356481,1,0,0:0:0:0:
64,192,356481,1,0,0:0:0:0:
192,192,356651,1,0,0:0:0:0:
320,192,356820,1,0,0:0:0:0:
448,192,356820,1,0,0:0:0:0:
64,192,356990,1,0,0:0:0:0:
320,192,357159,1,0,0:0:0:0:
192,192,357159,1,0,0:0:0:0:
448,192,357329,1,0,0:0:0:0:
320,192,357498,1,0,0:0:0:0:
192,192,357498,1,0,0:0:0:0:
64,192,357668,1,0,0:0:0:0:
320,192,357837,1,0,0:0:0:0:
448,192,357837,1,0,0:0:0:0:
64,192,358007,1,0,0:0:0:0:
192,192,358007,1,0,0:0:0:0:
192,192,358176,1,0,0:0:0:0:
448,192,358176,128,0,363600:0:0:0:0:
320,192,358176,1,0,0:0:0:0:
64,192,358346,1,0,0:0:0:0:
192,192,358515,1,0,0:0:0:0:
320,192,358685,1,0,0:0:0:0:
192,192,358854,1,0,0:0:0:0:
64,192,359024,1,0,0:0:0:0:
192,192,359193,1,0,0:0:0:0:
320,192,359363,1,0,0:0:0:0:
192,192,359532,1,0,0:0:0:0:
64,192,359702,1,0,0:0:0:0:
192,192,359871,1,0,0:0:0:0:
64,192,360041,1,0,0:0:0:0:
192,192,360210,1,0,0:0:0:0:
320,192,360380,1,0,0:0:0:0:
192,192,360549,1,0,0:0:0:0:
320,192,360719,1,0,0:0:0:0:
192,192,360888,1,0,0:0:0:0:
64,192,361058,1,0,0:0:0:0:
192,192,361227,1,0,0:0:0:0:
64,192,361397,1,0,0:0:0:0:
192,192,361566,1,0,0:0:0:0:
320,192,361736,1,0,0:0:0:0:
192,192,361905,1,0,0:0:0:0:
320,192,362075,1,0,0:0:0:0:
192,192,362244,1,0,0:0:0:0:
64,192,362414,1,0,0:0:0:0:
192,192,362583,1,0,0:0:0:0:
320,192,362753,1,0,0:0:0:0:
192,192,362922,1,0,0:0:0:0:
64,192,363092,1,0,0:0:0:0:
192,192,363261,1,0,0:0:0:0:
64,192,363431,1,0,0:0:0:0:
192,192,363600,1,0,0:0:0:0:
320,192,363600,1,0,0:0:0:0:
448,192,363939,1,0,0:0:0:0:
64,192,363939,1,0,0:0:0:0:
448,192,364278,1,0,0:0:0:0:
192,192,364278,1,0,0:0:0:0:
448,192,364617,1,0,0:0:0:0:
320,192,364617,1,0,0:0:0:0:
64,192,364787,1,0,0:0:0:0:
448,192,364956,1,0,0:0:0:0:
192,192,364956,1,0,0:0:0:0:
320,192,365126,1,0,0:0:0:0:
448,192,365295,1,0,0:0:0:0:
64,192,365295,1,0,0:0:0:0:
192,192,365465,1,0,0:0:0:0:
448,192,365634,1,0,0:0:0:0:
64,192,365634,1,0,0:0:0:0:
320,192,365803,1,0,0:0:0:0:
448,192,365973,1,0,0:0:0:0:
192,192,365973,1,0,0:0:0:0:
64,192,366142,1,0,0:0:0:0:
448,192,366312,1,0,0:0:0:0:
192,192,366312,1,0,0:0:0:0:
320,192,366481,1,0,0:0:0:0:
448,192,366651,1,0,0:0:0:0:
64,192,366820,1,0,0:0:0:0:
448,192,366990,1,0,0:0:0:0:
192,192,367159,1,0,0:0:0:0:
64,192,367329,1,0,0:0:0:0:
320,192,367498,1,0,0:0:0:0:
448,192,367668,1,0,0:0:0:0:
192,192,367837,1,0,0:0:0:0:
64,192,368007,1,0,0:0:0:0:
320,192,368176,1,0,0:0:0:0:
448,192,368346,1,0,0:0:0:0:
192,192,368515,1,0,0:0:0:0:
64,192,368685,1,0,0:0:0:0:
448,192,368854,1,0,0:0:0:0:
320,192,369024,1,0,0:0:0:0:
192,192,369024,1,0,0:0:0:0:
448,192,369193,1,0,0:0:0:0:
64,192,369363,1,0,0:0:0:0:
320,192,369532,1,0,0:0:0:0:
192,192,369702,1,0,0:0:0:0:
448,192,369871,1,0,0:0:0:0:
64,192,370041,1,0,0:0:0:0:
192,192,370210,1,0,0:0:0:0:
320,192,370380,1,0,0:0:0:0:
64,192,370549,1,0,0:0:0:0:
448,192,370719,1,0,0:0:0:0:
192,192,370888,1,0,0:0:0:0:
320,192,371058,1,0,0:0:0:0:
64,192,371227,1,0,0:0:0:0:
448,192,371397,1,0,0:0:0:0:
64,192,371566,1,0,0:0:0:0:
192,192,371736,1,0,0:0:0:0:
320,192,371736,1,0,0:0:0:0:
448,192,371905,1,0,0:0:0:0:
192,192,372075,1,0,0:0:0:0:
320,192,372244,1,0,0:0:0:0:
64,192,372414,1,0,0:0:0:0:
448,192,372583,1,0,0:0:0:0:
192,192,372753,1,0,0:0:0:0:
448,192,372922,1,0,0:0:0:0:
64,192,373092,1,0,0:0:0:0:
320,192,373261,1,0,0:0:0:0:
192,192,373431,1,0,0:0:0:0:
448,192,373600,1,0,0:0:0:0:
192,192,373770,1,0,0:0:0:0:
320,192,373939,1,0,0:0:0:0:
448,192,374109,1,0,0:0:0:0:
192,192,374278,1,0,0:0:0:0:
448,192,374448,1,0,0:0:0:0:
64,192,374448,1,0,0:0:0:0:
192,192,374617,1,0,0:0:0:0:
64,192,374787,1,0,0:0:0:0:
320,192,374956,1,0,0:0:0:0:
64,192,375126,1,0,0:0:0:0:
448,192,375295,1,0,0:0:0:0:
64,192,375465,1,0,0:0:0:0:
320,192,375634,1,0,0:0:0:0:
64,192,375803,1,0,0:0:0:0:
192,192,375973,1,0,0:0:0:0:
64,192,376142,1,0,0:0:0:0:
320,192,376312,1,0,0:0:0:0:
64,192,376481,1,0,0:0:0:0:
192,192,376651,1,0,0:0:0:0:
64,192,376820,1,0,0:0:0:0:
320,192,376990,1,0,0:0:0:0:
192,192,377159,1,0,0:0:0:0:
448,192,377159,1,0,0:0:0:0:
64,192,377329,1,0,0:0:0:0:
448,192,377498,1,0,0:0:0:0:
192,192,377668,1,0,0:0:0:0:
448,192,377837,1,0,0:0:0:0:
64,192,378007,1,0,0:0:0:0:
448,192,378176,1,0,0:0:0:0:
192,192,378346,1,0,0:0:0:0:
448,192,378515,1,0,0:0:0:0:
64,192,378685,1,0,0:0:0:0:
448,192,378854,1,0,0:0:0:0:
192,192,379024,1,0,0:0:0:0:
448,192,379193,1,0,0:0:0:0:
320,192,379363,1,0,0:0:0:0:
448,192,379532,1,0,0:0:0:0:
64,192,379702,1,0,0:0:0:0:
192,192,379871,1,0,0:0:0:0:
448,192,379871,1,0,0:0:0:0:
64,192,380041,1,0,0:0:0:0:
448,192,380210,1,0,0:0:0:0:
64,192,380380,1,0,0:0:0:0:
320,192,380549,1,0,0:0:0:0:
192,192,380719,1,0,0:0:0:0:
448,192,380888,1,0,0:0:0:0:
64,192,381058,1,0,0:0:0:0:
448,192,381227,1,0,0:0:0:0:
192,192,381397,1,0,0:0:0:0:
320,192,381566,1,0,0:0:0:0:
64,192,381736,1,0,0:0:0:0:
448,192,381905,1,0,0:0:0:0:
192,192,382075,1,0,0:0:0:0:
320,192,382244,1,0,0:0:0:0:
64,192,382414,1,0,0:0:0:0:
192,192,382583,1,0,0:0:0:0:
448,192,382583,1,0,0:0:0:0:
320,192,382753,1,0,0:0:0:0:
64,192,382922,1,0,0:0:0:0:
448,192,383092,1,0,0:0:0:0:
192,192,383261,1,0,0:0:0:0:
64,192,383431,1,0,0:0:0:0:
320,192,383600,1,0,0:0:0:0:
192,192,383770,1,0,0:0:0:0:
448,192,383939,1,0,0:0:0:0:
64,192,384109,1,0,0:0:0:0:
320,192,384278,1,0,0:0:0:0:
64,192,384448,1,0,0:0:0:0:
448,192,384617,1,0,0:0:0:0:
64,192,384787,1,0,0:0:0:0:
320,192,384956,1,0,0:0:0:0:
64,192,385126,1,0,0:0:0:0:
448,192,385295,128,0,387329:0:0:0:0:
192,192,385295,128,0,387329:0:0:0:0:
