osu file format v14

[General]
AudioFilename: audio.mp3
AudioLeadIn: 0
PreviewTime: 59025
Countdown: 0
SampleSet: None
StackLeniency: 0.2
Mode: 2
LetterboxInBreaks: 0
WidescreenStoryboard: 1

[Editor]
Bookmarks: 3025,12168,22454,31597,40740,49882,59025,68168,77311,89882,99025,108168,115025
DistanceSpacing: 0.5
BeatDivisor: 4
GridSize: 4
TimelineZoom: 3.399998

[Metadata]
Title:C18H27NO3
TitleUnicode:C18H27NO3
Artist:Team Grimoire
ArtistUnicode:Team Grimoire
Creator:Milquar
Version:MQ (AR10)
Source:SOUND VOLTEX II -infinite infection-
Tags:bemani sdvx floor
BeatmapID:928570
BeatmapSetID:428147

[Difficulty]
HPDrainRate:6
CircleSize:4
OverallDifficulty:10
ApproachRate:10
SliderMultiplier:2.1
SliderTickRate:2

[Events]
//Background and Video events
0,0,"BG.jpg",0,0
//Break Periods
//Storyboard Layer 0 (Background)
//Storyboard Layer 1 (Fail)
//Storyboard Layer 2 (Pass)
//Storyboard Layer 3 (Foreground)
//Storyboard Sound Samples

[TimingPoints]
740,285.714285714286,4,2,1,20,1,0
740,-100,4,2,1,40,0,0
12168,-100,4,2,1,50,0,0
22454,-100,4,2,1,70,0,0
59025,-100,4,2,1,80,0,1
59597,-100,4,2,1,80,0,0
61311,-100,4,2,1,80,0,1
61882,-100,4,2,1,80,0,0
63597,-100,4,2,1,80,0,1
64168,-100,4,2,1,80,0,0
65882,-100,4,2,1,80,0,1
66454,-100,4,2,1,80,0,0
68168,-100,4,2,1,80,0,1
68740,-100,4,2,1,80,0,0
70454,-100,4,2,1,80,0,1
71025,-100,4,2,1,80,0,0
72740,-100,4,2,1,80,0,1
73311,-100,4,2,1,80,0,0
75025,-100,4,2,1,80,0,1
75597,-100,4,2,1,80,0,0
77311,-100,4,2,1,70,0,0
89882,-100,4,2,1,80,0,1
97882,-100,4,2,1,80,0,0
99025,-100,4,2,1,80,0,1
107025,-100,4,2,1,80,0,0
108240,-100,4,2,1,20,0,0
113597,-100,4,2,1,70,0,0
115025,-100,4,2,1,80,0,0

[HitObjects]
256,192,740,12,0,2740,0:0:0:0:
47,192,3025,5,12,0:0:0:0:
152,192,3311,1,0,0:0:0:0:
256,192,3597,1,0,0:0:0:0:
360,192,3882,1,0,0:0:0:0:
256,192,4168,1,0,0:0:0:0:
465,192,4454,1,0,0:0:0:0:
360,192,4597,1,0,0:0:0:0:
465,192,4740,1,0,0:0:0:0:
256,192,5025,1,0,0:0:0:0:
465,192,5311,5,0,0:0:0:0:
360,192,5597,1,0,0:0:0:0:
256,192,5883,1,0,0:0:0:0:
152,192,6168,1,0,0:0:0:0:
256,192,6454,1,0,0:0:0:0:
47,192,6740,1,0,0:0:0:0:
152,192,6883,1,0,0:0:0:0:
256,192,7026,1,0,0:0:0:0:
47,192,7311,1,0,0:0:0:0:
256,192,7597,5,0,0:0:0:0:
360,192,7883,1,0,0:0:0:0:
465,192,8169,1,0,0:0:0:0:
360,192,8454,1,0,0:0:0:0:
256,192,8740,1,0,0:0:0:0:
47,192,9026,1,0,0:0:0:0:
152,192,9169,1,0,0:0:0:0:
47,192,9312,1,0,0:0:0:0:
256,192,9597,1,0,0:0:0:0:
47,192,9883,5,0,0:0:0:0:
152,192,10169,1,0,0:0:0:0:
256,192,10455,1,0,0:0:0:0:
360,192,10740,1,0,0:0:0:0:
256,192,11026,1,0,0:0:0:0:
465,192,11312,1,0,0:0:0:0:
360,192,11455,1,0,0:0:0:0:
256,192,11597,1,0,0:0:0:0:
465,192,11883,1,0,0:0:0:0:
47,192,12168,5,12,0:0:0:0:
100,192,12311,1,0,0:0:0:0:
256,192,12454,1,0,0:0:0:0:
203,192,12597,1,0,0:0:0:0:
100,192,12740,5,0,0:0:0:0:
153,192,12883,1,0,0:0:0:0:
309,192,13026,1,0,0:0:0:0:
256,192,13169,1,0,0:0:0:0:
153,192,13311,5,0,0:0:0:0:
206,192,13454,1,0,0:0:0:0:
360,192,13597,1,0,0:0:0:0:
256,192,13740,1,0,0:0:0:0:
386,192,13882,1,0,0:0:0:0:
412,192,14025,1,0,0:0:0:0:
256,192,14168,1,0,0:0:0:0:
230,192,14311,1,0,0:0:0:0:
465,192,14454,5,6,0:0:0:0:
412,192,14597,1,0,0:0:0:0:
256,192,14740,1,0,0:0:0:0:
309,192,14883,1,0,0:0:0:0:
412,192,15025,5,0,0:0:0:0:
359,192,15168,1,0,0:0:0:0:
206,192,15311,1,0,0:0:0:0:
256,192,15454,1,0,0:0:0:0:
359,192,15597,5,2,0:0:0:0:
309,192,15740,1,0,0:0:0:0:
153,192,15882,1,0,0:0:0:0:
256,192,16026,1,0,0:0:0:0:
126,192,16168,1,0,0:0:0:0:
100,192,16311,1,0,0:0:0:0:
256,192,16454,1,0,0:0:0:0:
282,192,16597,1,0,0:0:0:0:
47,192,16740,5,4,0:0:0:0:
21,222,16811,1,0,0:0:0:0:
21,252,16882,1,0,0:0:0:0:
34,282,16954,1,0,0:0:0:0:
60,312,17025,1,0,0:0:0:0:
99,312,17097,1,0,0:0:0:0:
151,312,17168,1,0,0:0:0:0:
217,312,17240,1,0,0:0:0:0:
465,192,17311,5,4,0:0:0:0:
491,162,17382,1,0,0:0:0:0:
491,132,17453,1,0,0:0:0:0:
478,102,17525,1,0,0:0:0:0:
452,72,17596,1,0,0:0:0:0:
413,72,17668,1,0,0:0:0:0:
361,72,17739,1,0,0:0:0:0:
295,72,17811,1,0,0:0:0:0:
47,192,17882,5,4,0:0:0:0:
21,162,17953,1,0,0:0:0:0:
21,132,18024,1,0,0:0:0:0:
34,102,18096,1,0,0:0:0:0:
60,72,18167,1,0,0:0:0:0:
99,72,18239,1,0,0:0:0:0:
151,72,18310,1,0,0:0:0:0:
217,72,18382,1,0,0:0:0:0:
465,192,18453,5,4,0:0:0:0:
491,222,18524,1,0,0:0:0:0:
491,252,18595,1,0,0:0:0:0:
478,282,18667,1,0,0:0:0:0:
452,312,18738,1,0,0:0:0:0:
413,312,18810,1,0,0:0:0:0:
361,312,18881,1,0,0:0:0:0:
295,312,18953,1,0,0:0:0:0:
47,192,19025,5,4,0:0:0:0:
31,192,19061,1,0,0:0:0:0:
20,192,19097,1,0,0:0:0:0:
14,192,19132,1,0,0:0:0:0:
12,192,19168,1,0,0:0:0:0:
14,192,19204,1,0,0:0:0:0:
20,192,19240,1,0,0:0:0:0:
31,192,19275,1,0,0:0:0:0:
47,192,19311,5,0,0:0:0:0:
68,192,19347,1,0,0:0:0:0:
88,192,19382,1,0,0:0:0:0:
115,192,19418,1,0,0:0:0:0:
141,192,19454,1,0,0:0:0:0:
168,192,19490,1,0,0:0:0:0:
194,192,19525,1,0,0:0:0:0:
225,192,19561,1,0,0:0:0:0:
256,192,19597,5,0,0:0:0:0:
287,192,19632,1,0,0:0:0:0:
318,192,19668,1,0,0:0:0:0:
344,192,19704,1,0,0:0:0:0:
371,192,19740,1,0,0:0:0:0:
397,192,19775,1,0,0:0:0:0:
424,192,19811,1,0,0:0:0:0:
444,192,19847,1,0,0:0:0:0:
465,192,19882,5,0,0:0:0:0:
481,192,19918,1,0,0:0:0:0:
492,192,19954,1,0,0:0:0:0:
498,192,19989,1,0,0:0:0:0:
500,192,20025,1,0,0:0:0:0:
498,192,20061,1,0,0:0:0:0:
492,192,20097,1,0,0:0:0:0:
481,192,20132,1,0,0:0:0:0:
465,192,20168,6,0,L|308:192,1,157.5,2|0,0:0|0:0,0:0:0:0:
47,192,20454,2,0,L|204:192,2,157.5
256,192,21025,6,0,B|361:192|361:192|256:192,1,210,0|2,0:0|0:0,0:0:0:0:
256,192,22454,6,0,L|151:192,1,105,10|0,0:0|0:0,0:0:0:0:
361,192,22740,2,0,L|466:192,1,105,2|0,0:0|0:0,0:0:0:0:
256,192,23025,2,0,L|151:192,1,105,2|0,0:0|0:0,0:0:0:0:
361,192,23311,1,2,0:0:0:0:
46,192,23454,2,0,L|142:226,1,105,0|2,0:0|0:0,0:0:0:0:
361,192,23740,2,0,L|264:226,1,105,0|2,0:0|0:0,0:0:0:0:
361,192,24025,1,0,0:0:0:0:
151,192,24168,2,0,L|54:157,1,105,2|0,0:0|0:0,0:0:0:0:
361,192,24454,2,0,L|457:157,1,105,2|0,0:0|0:0,0:0:0:0:
151,192,24740,6,0,L|46:192,1,105,2|0,0:0|0:0,0:0:0:0:
256,192,25025,2,0,L|361:192,1,105,2|0,0:0|0:0,0:0:0:0:
151,192,25311,2,0,L|46:192,1,105,2|0,0:0|0:0,0:0:0:0:
256,192,25597,1,2,0:0:0:0:
466,192,25740,2,0,L|369:157,1,105,0|2,0:0|0:0,0:0:0:0:
151,192,26025,2,0,L|247:157,1,105,0|2,0:0|0:0,0:0:0:0:
151,192,26311,1,0,0:0:0:0:
361,192,26454,2,0,L|457:226,1,105,2|0,0:0|0:0,0:0:0:0:
151,192,26740,2,0,L|54:226,1,105,2|0,0:0|0:0,0:0:0:0:
256,192,27025,6,0,L|361:192,1,105,2|0,0:0|0:0,0:0:0:0:
151,192,27311,2,0,L|46:192,1,105,2|0,0:0|0:0,0:0:0:0:
256,192,27596,2,0,L|361:192,1,105,2|0,0:0|0:0,0:0:0:0:
151,192,27882,1,2,0:0:0:0:
466,192,28025,2,0,L|370:226,1,105,0|2,0:0|0:0,0:0:0:0:
151,192,28311,2,0,L|248:226,1,105,0|2,0:0|0:0,0:0:0:0:
151,192,28596,1,0,0:0:0:0:
361,192,28740,2,0,L|458:157,1,105,2|0,0:0|0:0,0:0:0:0:
151,192,29025,2,0,L|55:157,1,105,2|0,0:0|0:0,0:0:0:0:
361,192,29311,6,0,L|466:192,1,105,2|0,0:0|0:0,0:0:0:0:
256,192,29596,2,0,L|151:192,1,105,2|0,0:0|0:0,0:0:0:0:
361,192,29882,2,0,L|466:192,1,105,2|0,0:0|0:0,0:0:0:0:
256,192,30168,1,2,0:0:0:0:
46,192,30311,2,0,L|143:157,1,105,0|2,0:0|0:0,0:0:0:0:
361,192,30596,2,0,L|265:157,1,105,0|2,0:0|0:0,0:0:0:0:
361,192,30882,1,0,0:0:0:0:
151,192,31025,2,0,L|45:192,1,105
361,192,31311,2,0,L|467:192,1,105
151,192,31597,6,0,L|46:192,1,105,10|0,0:0|0:0,0:0:0:0:
256,192,31882,2,0,L|361:192,1,105,2|0,0:0|0:0,0:0:0:0:
151,192,32168,2,0,L|256:192,1,105,2|0,0:0|0:0,0:0:0:0:
46,192,32454,1,2,0:0:0:0:
361,192,32597,2,0,L|458:158,1,105,0|2,0:0|0:0,0:0:0:0:
151,192,32882,2,0,L|54:158,1,105,0|2,0:0|0:0,0:0:0:0:
151,192,33168,1,0,0:0:0:0:
361,192,33311,2,0,L|265:226,1,105,2|0,0:0|0:0,0:0:0:0:
46,192,33597,2,0,L|143:226,1,105,2|0,0:0|0:0,0:0:0:0:
361,192,33882,6,0,L|466:192,1,105,2|0,0:0|0:0,0:0:0:0:
256,192,34167,2,0,L|151:192,1,105,2|0,0:0|0:0,0:0:0:0:
361,192,34454,2,0,L|256:192,1,105,2|0,0:0|0:0,0:0:0:0:
466,192,34739,1,2,0:0:0:0:
151,192,34882,2,0,L|39:192,1,105,0|2,0:0|0:0,0:0:0:0:
361,192,35168,2,0,L|471:192,1,105,0|2,0:0|0:0,0:0:0:0:
361,192,35453,1,0,0:0:0:0:
151,192,35596,2,0,L|247:226,1,105
466,192,35882,2,0,L|369:226,1,105
151,192,36168,6,0,L|261:192,1,105,10|0,0:0|0:0,0:0:0:0:
466,192,36454,2,0,L|356:192,1,105,2|0,0:0|0:0,0:0:0:0:
151,192,36740,2,0,L|261:192,1,105,2|0,0:0|0:0,0:0:0:0:
46,192,37025,1,2,0:0:0:0:
361,192,37168,2,0,L|458:158,1,105,0|10,0:0|0:0,0:0:0:0:
151,192,37454,2,0,L|54:158,1,105,0|2,0:0|0:0,0:0:0:0:
151,192,37739,1,0,0:0:0:0:
361,192,37882,2,0,L|457:226,1,105,2|0,0:0|0:0,0:0:0:0:
151,192,38168,2,0,L|55:226,1,105,2|0,0:0|0:0,0:0:0:0:
361,192,38454,6,0,L|209:136,1,157.5,8|0,0:0|0:0,0:0:0:0:
46,192,38740,2,0,L|129:109,1,105
466,192,39025,6,0,L|383:109,1,105,8|0,0:0|0:0,0:0:0:0:
151,192,39311,2,0,L|196:147,1,52.5
361,192,39454,2,0,L|316:147,1,52.5
151,192,39597,6,0,L|45:192,2,105,8|0|0,0:0|0:0|0:0,0:0:0:0:
256,192,40025,2,0,L|228:142,1,52.5
98,192,40168,6,0,L|37:192,1,52.5,8|0,0:0|0:0,0:0:0:0:
361,192,40311,2,0,L|422:192,1,52.5
151,192,40454,2,0,L|90:192,1,52.5,8|0,0:0|0:0,0:0:0:0:
413,192,40597,2,0,L|474:192,1,52.5
282,192,40740,5,2,0:0:0:0:
177,192,40882,1,0,0:0:0:0:
282,192,41025,2,0,L|361:192,1,78.75,2|0,0:0|0:0,0:0:0:0:
334,192,41204,1,0,0:0:0:0:
151,192,41311,2,0,L|99:192,1,52.5,2|0,0:0|0:0,0:0:0:0:
256,192,41454,2,0,L|308:192,1,52.5
98,192,41597,2,0,L|46:192,1,52.5,2|0,0:0|0:0,0:0:0:0:
203,192,41740,2,0,L|255:192,1,52.5
466,192,41882,5,2,0:0:0:0:
361,192,42025,1,0,0:0:0:0:
151,192,42168,1,2,0:0:0:0:
46,192,42311,2,0,L|75:143,1,52.5
361,192,42454,2,0,L|392:138,1,52.5,2|0,0:0|0:0,0:0:0:0:
256,192,42597,1,0,0:0:0:0:
46,192,42740,2,0,L|89:235,1,52.5,2|0,0:0|0:0,0:0:0:0:
282,192,42882,2,0,L|238:235,1,52.5,2|0,0:0|0:0,0:0:0:0:
8,154,43025,6,0,L|86:232,1,105,2|0,0:0|0:0,0:0:0:0:
435,192,43311,1,2,0:0:0:0:
361,192,43454,1,0,0:0:0:0:
151,192,43597,1,2,0:0:0:0:
46,192,43740,1,0,0:0:0:0:
361,192,43882,1,2,0:0:0:0:
151,192,44025,2,0,L|123:143,1,52.5
256,192,44168,5,2,0:0:0:0:
466,192,44311,2,0,L|439:145,1,52.5
256,192,44454,2,0,L|284:143,1,52.5,2|0,0:0|0:0,0:0:0:0:
361,192,44597,1,0,0:0:0:0:
335,192,44668,1,0,0:0:0:0:
151,192,44740,2,0,L|121:140,1,52.5,2|0,0:0|0:0,0:0:0:0:
256,192,44882,1,0,0:0:0:0:
466,192,45025,2,0,L|435:139,1,52.5,2|0,0:0|0:0,0:0:0:0:
256,192,45168,2,0,L|200:192,1,52.5,2|0,0:0|0:0,0:0:0:0:
46,192,45311,5,2,0:0:0:0:
151,192,45454,2,0,L|179:143,1,52.5,2|0,0:0|0:0,0:0:0:0:
46,192,45597,2,0,L|19:146,1,52.5,2|0,0:0|0:0,0:0:0:0:
203,192,45740,2,0,L|256:192,1,52.5,2|0,0:0|0:0,0:0:0:0:
98,192,45882,1,2,0:0:0:0:
111,169,45918,1,0,0:0:0:0:
124,146,45954,1,0,0:0:0:0:
255,192,46025,1,0,0:0:0:0:
413,192,46097,2,0,L|385:143,1,52.5,0|2,0:0|0:0,0:0:0:0:
151,192,46311,2,0,L|179:143,1,52.5
361,192,46454,5,2,0:0:0:0:
413,192,46525,1,0,0:0:0:0:
361,192,46597,1,0,0:0:0:0:
308,192,46668,1,0,0:0:0:0:
151,192,46740,2,0,L|179:143,1,52.5,2|0,0:0|0:0,0:0:0:0:
361,192,46882,2,0,L|389:143,1,52.5
151,192,47025,2,0,L|70:192,1,78.75,2|0,0:0|0:0,0:0:0:0:
308,192,47204,2,0,L|389:192,1,78.75,0|2,0:0|0:0,0:0:0:0:
151,192,47418,2,0,L|199:107,1,78.75
361,192,47597,5,2,0:0:0:0:
413,192,47668,1,0,0:0:0:0:
361,192,47740,1,0,0:0:0:0:
308,192,47811,1,0,0:0:0:0:
151,192,47882,2,0,L|90:192,1,52.5,2|0,0:0|0:0,0:0:0:0:
308,192,48025,2,0,L|369:192,1,52.5
98,192,48168,2,0,L|177:271,1,105,2|0,0:0|0:0,0:0:0:0:
413,192,48454,2,0,L|442:140,1,52.5,2|0,0:0|0:0,0:0:0:0:
256,192,48597,2,0,L|196:192,1,52.5
46,192,48740,6,0,L|257:192,1,210,2|2,0:0|0:0,0:0:0:0:
151,192,49168,1,0,0:0:0:0:
466,192,49311,2,0,L|348:75,1,157.5,8|0,0:0|0:0,0:0:0:0:
46,192,49597,2,0,L|164:75,1,157.5,8|0,0:0|0:0,0:0:0:0:
361,192,49882,5,2,0:0:0:0:
256,192,50025,1,2,0:0:0:0:
151,192,50168,1,2,0:0:0:0:
256,192,50311,1,2,0:0:0:0:
466,192,50454,2,0,L|450:134,1,52.5,2|0,0:0|0:0,0:0:0:0:
256,192,50597,2,0,L|204:192,1,52.5
361,192,50740,2,0,L|345:134,1,52.5,2|0,0:0|0:0,0:0:0:0:
151,192,50883,2,0,L|99:192,1,52.5
256,192,51025,6,0,L|312:192,2,52.5,2|0|0,0:0|0:0|0:0,0:0:0:0:
46,192,51311,2,0,L|98:192,1,52.5,2|0,0:0|0:0,0:0:0:0:
256,192,51454,2,0,L|204:192,1,52.5
46,192,51597,2,0,L|30:134,1,52.5,2|0,0:0|0:0,0:0:0:0:
203,192,51740,2,0,L|231:143,1,52.5
387,192,51882,1,2,0:0:0:0:
361,192,51953,1,2,0:0:0:0:
282,192,52025,1,2,0:0:0:0:
308,192,52096,1,2,0:0:0:0:
466,192,52168,6,0,L|482:134,1,52.5,2|0,0:0|0:0,0:0:0:0:
335,192,52311,1,0,0:0:0:0:
46,192,52454,2,0,L|62:134,1,52.5,2|0,0:0|0:0,0:0:0:0:
203,192,52597,2,0,L|256:192,1,52.5
387,192,52740,1,2,0:0:0:0:
361,192,52811,1,0,0:0:0:0:
203,192,52882,2,0,L|172:140,1,52.5
361,192,53025,2,0,L|472:192,1,105,2|0,0:0|0:0,0:0:0:0:
256,192,53311,6,0,L|196:192,1,52.5,2|0,0:0|0:0,0:0:0:0:
361,192,53454,2,0,L|421:192,1,52.5
203,192,53597,2,0,L|143:192,1,52.5,2|0,0:0|0:0,0:0:0:0:
413,192,53740,2,0,L|473:192,1,52.5
256,192,53882,1,0,0:0:0:0:
230,192,53954,1,0,0:0:0:0:
308,192,54025,1,0,0:0:0:0:
335,192,54097,1,0,0:0:0:0:
465,192,54168,2,0,L|421:148,1,52.5
256,192,54311,2,0,L|198:192,1,52.5
465,192,54454,6,0,L|496:138,1,52.5,2|0,0:0|0:0,0:0:0:0:
335,192,54597,2,0,L|303:138,1,52.5
151,192,54740,2,0,L|182:138,1,52.5,2|0,0:0|0:0,0:0:0:0:
335,192,54882,2,0,L|303:138,1,52.5
47,192,55025,2,0,L|16:138,1,52.5,2|0,0:0|0:0,0:0:0:0:
177,192,55168,2,0,L|209:138,1,52.5
361,192,55311,2,0,L|330:138,1,52.5,2|0,0:0|0:0,0:0:0:0:
177,192,55453,2,0,L|209:138,1,52.5
465,192,55597,6,0,L|496:138,1,52.5,2|0,0:0|0:0,0:0:0:0:
177,192,55740,2,0,L|146:138,1,52.5
335,192,55882,2,0,L|366:138,1,52.5,2|0,0:0|0:0,0:0:0:0:
47,192,56025,2,0,L|16:138,1,52.5
335,192,56168,1,2,0:0:0:0:
413,192,56240,2,0,L|413:102,1,78.75
177,192,56454,2,0,L|14:192,1,157.5,2|0,0:0|0:0,0:0:0:0:
335,192,56740,5,8,0:0:0:0:
387,192,56811,1,0,0:0:0:0:
439,192,56882,1,0,0:0:0:0:
492,192,56954,1,0,0:0:0:0:
256,192,57025,2,0,L|197:192,1,52.5,2|0,0:0|0:0,0:0:0:0:
387,192,57168,2,0,L|446:192,1,52.5
177,192,57311,5,8,0:0:0:0:
125,192,57382,1,0,0:0:0:0:
73,192,57453,1,0,0:0:0:0:
20,192,57525,1,0,0:0:0:0:
256,192,57596,2,0,L|315:192,1,52.5,2|0,0:0|0:0,0:0:0:0:
125,192,57740,2,0,L|66:192,1,52.5
281,192,57882,5,8,0:0:0:0:
308,192,57918,1,0,0:0:0:0:
335,192,57954,1,0,0:0:0:0:
492,192,58025,2,0,L|432:192,1,52.5
231,192,58168,1,8,0:0:0:0:
204,192,58204,1,0,0:0:0:0:
177,192,58240,1,0,0:0:0:0:
20,192,58311,2,0,L|80:192,1,52.5
335,192,58454,6,0,L|398:192,1,52.5,8|0,0:0|0:0,0:0:0:0:
177,192,58597,2,0,L|114:192,1,52.5,8|0,0:0|0:0,0:0:0:0:
335,192,58740,2,0,L|398:192,1,52.5,8|0,0:0|0:0,0:0:0:0:
177,192,58883,2,0,L|114:192,1,52.5,8|0,0:0|0:0,0:0:0:0:
335,192,59025,6,0,L|504:192,1,157.5,2|0,0:0|0:0,0:0:0:0:
177,192,59311,2,0,L|8:192,1,157.5
335,192,59597,2,0,L|365:192,1,26.25,2|0,0:0|0:0,0:0:0:0:
151,192,59740,2,0,L|110:192,1,26.25
295,192,59882,2,0,L|325:192,1,26.25,2|0,0:0|0:0,0:0:0:0:
111,192,60025,2,0,L|70:192,1,26.25
256,192,60168,5,2,0:0:0:0:
465,192,60311,2,0,L|400:192,1,52.5
256,192,60454,2,0,L|377:192,1,105
492,192,60740,2,0,L|509:131,1,52.5,2|0,0:0|0:0,0:0:0:0:
283,192,60882,2,0,L|299:131,1,52.5,2|0,0:0|0:0,0:0:0:0:
439,192,61025,2,0,L|456:131,1,52.5,2|0,0:0|0:0,0:0:0:0:
230,192,61167,2,0,L|246:131,1,52.5,2|0,0:0|0:0,0:0:0:0:
492,192,61311,6,0,L|335:192,1,157.5,2|0,0:0|0:0,0:0:0:0:
20,192,61597,2,0,L|177:192,1,157.5
492,192,61882,2,0,L|462:192,1,26.25,2|0,0:0|0:0,0:0:0:0:
256,192,62026,2,0,L|223:192,1,26.25
451,192,62167,2,0,L|421:192,1,26.25,2|0,0:0|0:0,0:0:0:0:
216,192,62311,2,0,L|183:192,1,26.25
20,192,62454,6,0,L|3:131,1,52.5,2|0,0:0|0:0,0:0:0:0:
229,192,62596,2,0,L|213:131,1,52.5,2|0,0:0|0:0,0:0:0:0:
73,192,62739,2,0,L|56:131,1,52.5,2|0,0:0|0:0,0:0:0:0:
282,192,62881,2,0,L|266:131,1,52.5,2|0,0:0|0:0,0:0:0:0:
124,192,63025,2,0,L|108:131,1,52.5,2|0,0:0|0:0,0:0:0:0:
388,192,63168,2,0,L|404:131,1,52.5,2|0,0:0|0:0,0:0:0:0:
124,192,63311,2,0,P|45:192|124:192,1,157.5,2|0,0:0|0:0,0:0:0:0:
335,192,63597,6,0,L|504:192,1,157.5,2|0,0:0|0:0,0:0:0:0:
177,192,63883,2,0,L|8:192,1,157.5
335,192,64168,2,0,L|383:192,1,26.25,2|0,0:0|0:0,0:0:0:0:
177,192,64311,2,0,L|222:192,1,26.25
413,192,64454,2,0,L|461:192,1,26.25,2|0,0:0|0:0,0:0:0:0:
255,192,64597,2,0,L|300:192,1,26.25
492,192,64740,5,2,0:0:0:0:
281,192,64882,2,0,L|224:192,1,52.5
388,192,65025,2,0,L|502:192,1,105
388,192,65311,2,0,L|359:141,1,52.5,2|0,0:0|0:0,0:0:0:0:
204,192,65454,2,0,L|175:141,1,52.5,2|0,0:0|0:0,0:0:0:0:
20,192,65597,2,0,L|48:141,1,52.5,2|0,0:0|0:0,0:0:0:0:
204,192,65740,2,0,L|232:141,1,52.5,2|0,0:0|0:0,0:0:0:0:
492,192,65882,6,0,L|335:192,1,157.5,2|0,0:0|0:0,0:0:0:0:
20,192,66168,2,0,L|177:192,1,157.5
492,192,66453,2,0,L|462:192,1,26.25,2|0,0:0|0:0,0:0:0:0:
256,192,66597,2,0,L|289:192,1,26.25
465,192,66738,2,0,L|435:192,1,26.25,2|0,0:0|0:0,0:0:0:0:
230,192,66882,2,0,L|263:192,1,26.25
438,192,67025,6,0,L|332:192,1,105,2|0,0:0|0:0,0:0:0:0:
177,192,67311,1,0,0:0:0:0:
282,192,67454,1,0,0:0:0:0:
492,192,67597,2,0,L|374:75,1,157.5,2|0,0:0|0:0,0:0:0:0:
20,192,67882,2,0,L|138:75,1,157.5,2|0,0:0|0:0,0:0:0:0:
334,192,68168,6,0,L|177:192,1,157.5,2|0,0:0|0:0,0:0:0:0:
413,192,68454,2,0,L|256:192,1,157.5
492,192,68740,2,0,L|460:192,1,26.25,2|0,0:0|0:0,0:0:0:0:
282,192,68882,2,0,L|250:192,1,26.25
72,192,69025,2,0,L|104:192,1,26.25,2|0,0:0|0:0,0:0:0:0:
282,192,69167,2,0,L|314:192,1,26.25
492,192,69311,5,2,0:0:0:0:
282,192,69453,2,0,L|225:192,1,52.5
388,192,69596,2,0,L|502:192,1,105
388,192,69882,2,0,L|372:134,1,52.5,2|0,0:0|0:0,0:0:0:0:
229,192,70025,2,0,L|213:134,1,52.5,2|0,0:0|0:0,0:0:0:0:
492,192,70168,2,0,L|476:134,1,52.5,2|0,0:0|0:0,0:0:0:0:
333,192,70311,2,0,L|317:134,1,52.5,2|0,0:0|0:0,0:0:0:0:
178,192,70454,6,0,L|335:192,1,157.5,2|0,0:0|0:0,0:0:0:0:
99,192,70740,2,0,L|256:192,1,157.5
20,192,71026,2,0,L|52:192,1,26.25,2|0,0:0|0:0,0:0:0:0:
230,192,71168,2,0,L|262:192,1,26.25
440,192,71311,2,0,L|408:192,1,26.25,2|0,0:0|0:0,0:0:0:0:
230,192,71453,2,0,L|198:192,1,26.25
20,192,71597,6,0,L|41:127,1,52.5,2|0,0:0|0:0,0:0:0:0:
333,192,71740,2,0,L|312:127,1,52.5,2|0,0:0|0:0,0:0:0:0:
179,192,71882,2,0,L|200:127,1,52.5,2|0,0:0|0:0,0:0:0:0:
492,192,72025,2,0,L|471:127,1,52.5,2|0,0:0|0:0,0:0:0:0:
179,192,72168,2,0,L|128:163,1,52.5,2|0,0:0|0:0,0:0:0:0:
333,192,72311,2,0,L|383:163,1,52.5,2|0,0:0|0:0,0:0:0:0:
99,192,72454,2,0,P|20:192|99:192,1,157.5,2|0,0:0|0:0,0:0:0:0:
333,192,72740,6,0,L|502:192,1,157.5,2|0,0:0|0:0,0:0:0:0:
179,192,73025,2,0,L|10:192,1,157.5
256,192,73311,2,0,L|282:192,1,26.25,2|0,0:0|0:0,0:0:0:0:
466,192,73454,2,0,L|440:192,1,26.25
256,192,73597,2,0,L|230:192,1,26.25,2|0,0:0|0:0,0:0:0:0:
46,192,73740,2,0,L|72:192,1,26.25
256,192,73882,5,2,0:0:0:0:
466,192,74025,2,0,L|401:192,1,52.5
256,192,74168,2,0,L|377:192,1,105
492,192,74454,2,0,L|464:140,1,52.5,2|0,0:0|0:0,0:0:0:0:
308,192,74597,2,0,L|280:140,1,52.5,2|0,0:0|0:0,0:0:0:0:
124,192,74740,2,0,L|151:140,1,52.5,2|0,0:0|0:0,0:0:0:0:
308,192,74883,2,0,L|335:140,1,52.5,2|0,0:0|0:0,0:0:0:0:
492,192,75025,6,0,L|335:192,1,157.5,2|0,0:0|0:0,0:0:0:0:
20,192,75311,2,0,L|177:192,1,157.5
492,192,75597,2,0,L|460:192,1,26.25,2|0,0:0|0:0,0:0:0:0:
282,192,75740,2,0,L|255:192,1,26.25
72,192,75882,2,0,L|104:192,1,26.25,2|0,0:0|0:0,0:0:0:0:
282,192,76025,2,0,L|309:192,1,26.25
492,192,76168,6,0,L|459:135,1,52.5,2|0,0:0|0:0,0:0:0:0:
177,192,76311,2,0,L|145:135,1,52.5,2|0,0:0|0:0,0:0:0:0:
335,192,76454,2,0,L|367:135,1,52.5,2|0,0:0|0:0,0:0:0:0:
20,192,76597,2,0,L|52:135,1,52.5,2|0,0:0|0:0,0:0:0:0:
492,192,76740,2,0,L|459:135,1,52.5,2|0,0:0|0:0,0:0:0:0:
177,192,76883,2,0,L|145:135,1,52.5,2|0,0:0|0:0,0:0:0:0:
335,192,77026,2,0,L|367:135,1,52.5,2|0,0:0|0:0,0:0:0:0:
20,192,77169,2,0,L|52:135,1,52.5,2|0,0:0|0:0,0:0:0:0:
492,192,77311,5,6,0:0:0:0:
387,192,77597,1,0,0:0:0:0:
492,192,77882,1,0,0:0:0:0:
282,192,78168,1,0,0:0:0:0:
387,192,78311,1,0,0:0:0:0:
20,192,78454,5,6,0:0:0:0:
125,192,78740,1,0,0:0:0:0:
20,192,79025,1,0,0:0:0:0:
230,192,79311,1,0,0:0:0:0:
125,192,79454,1,0,0:0:0:0:
492,192,79597,5,6,0:0:0:0:
387,192,79883,1,0,0:0:0:0:
282,192,80168,1,0,0:0:0:0:
492,192,80454,1,0,0:0:0:0:
387,192,80597,1,0,0:0:0:0:
20,192,80740,5,6,0:0:0:0:
125,192,81026,1,0,0:0:0:0:
230,192,81311,1,0,0:0:0:0:
20,192,81597,1,0,0:0:0:0:
125,192,81740,1,0,0:0:0:0:
492,192,81882,6,0,L|492:296,1,105,6|0,0:0|0:0,0:0:0:0:
256,192,82168,2,0,L|256:296,1,105
492,192,82454,2,0,L|492:296,1,105,6|0,0:0|0:0,0:0:0:0:
256,192,82740,2,0,L|256:296,1,105
20,192,83025,6,0,L|20:296,1,105,6|0,0:0|0:0,0:0:0:0:
256,192,83311,2,0,L|256:296,1,105
20,192,83597,2,0,L|20:296,1,105,6|0,0:0|0:0,0:0:0:0:
256,192,83883,2,0,L|256:296,1,105
492,192,84168,6,0,L|492:296,1,105,6|0,0:0|0:0,0:0:0:0:
256,192,84454,2,0,L|256:296,1,105,6|0,0:0|0:0,0:0:0:0:
20,192,84740,2,0,L|20:296,1,105,6|0,0:0|0:0,0:0:0:0:
256,192,85025,2,0,L|256:296,1,105,6|0,0:0|0:0,0:0:0:0:
492,192,85311,6,0,L|465:238,1,52.5,2|0,0:0|0:0,0:0:0:0:
335,192,85454,2,0,L|308:238,1,52.5,2|0,0:0|0:0,0:0:0:0:
20,192,85597,2,0,L|46:238,1,52.5,2|0,0:0|0:0,0:0:0:0:
177,192,85740,2,0,L|203:238,1,52.5,2|0,0:0|0:0,0:0:0:0:
492,192,85882,5,2,0:0:0:0:
465,237,85954,1,0,0:0:0:0:
177,192,86025,1,2,0:0:0:0:
177,192,86097,1,0,0:0:0:0:
335,192,86168,1,2,0:0:0:0:
335,192,86240,1,0,0:0:0:0:
20,192,86311,1,2,0:0:0:0:
45,237,86383,1,0,0:0:0:0:
492,192,86453,5,2,0:0:0:0:
466,237,86525,1,2,0:0:0:0:
256,192,86597,1,2,0:0:0:0:
230,237,86669,1,2,0:0:0:0:
20,192,86740,1,2,0:0:0:0:
46,237,86811,1,2,0:0:0:0:
256,192,86882,1,2,0:0:0:0:
282,237,86954,1,2,0:0:0:0:
492,192,87025,5,2,0:0:0:0:
466,237,87097,1,2,0:0:0:0:
282,192,87168,1,2,0:0:0:0:
230,192,87240,1,2,0:0:0:0:
20,192,87311,1,2,0:0:0:0:
46,237,87383,1,2,0:0:0:0:
230,192,87454,1,2,0:0:0:0:
282,192,87526,1,2,0:0:0:0:
492,192,87597,5,2,0:0:0:0:
512,192,87632,1,0,0:0:0:0:
492,192,87668,1,0,0:0:0:0:
512,192,87703,1,0,0:0:0:0:
492,192,87740,1,0,0:0:0:0:
512,192,87775,1,0,0:0:0:0:
492,192,87811,1,0,0:0:0:0:
512,192,87846,1,0,0:0:0:0:
492,192,87882,5,0,0:0:0:0:
512,192,87917,1,0,0:0:0:0:
492,192,87953,1,0,0:0:0:0:
512,192,87988,1,0,0:0:0:0:
492,192,88025,1,0,0:0:0:0:
512,192,88060,1,0,0:0:0:0:
492,192,88096,1,0,0:0:0:0:
512,192,88131,1,0,0:0:0:0:
492,192,88168,5,0,0:0:0:0:
512,192,88203,1,0,0:0:0:0:
492,192,88239,1,0,0:0:0:0:
512,192,88274,1,0,0:0:0:0:
492,192,88311,1,0,0:0:0:0:
512,192,88346,1,0,0:0:0:0:
492,192,88382,1,0,0:0:0:0:
512,192,88417,1,0,0:0:0:0:
492,192,88454,5,0,0:0:0:0:
512,192,88489,1,0,0:0:0:0:
492,192,88525,1,0,0:0:0:0:
512,192,88560,1,0,0:0:0:0:
492,192,88597,1,0,0:0:0:0:
512,192,88632,1,0,0:0:0:0:
492,192,88668,1,0,0:0:0:0:
512,192,88703,1,0,0:0:0:0:
492,192,88740,6,0,L|474:221,1,26.25
379,232,88811,2,0,L|361:261,1,26.25
20,192,88882,2,0,L|38:163,1,26.25
133,152,88953,2,0,L|151:123,1,26.25
492,192,89025,6,0,L|474:221,1,26.25
379,232,89096,2,0,L|361:261,1,26.25
20,192,89167,2,0,L|38:163,1,26.25
133,152,89238,2,0,L|151:123,1,26.25
492,192,89311,6,0,L|474:221,1,26.25
379,232,89382,2,0,L|361:261,1,26.25
20,192,89453,2,0,L|38:163,1,26.25
133,152,89524,2,0,L|151:123,1,26.25
492,192,89597,6,0,L|474:221,1,26.25
379,232,89668,2,0,L|361:261,1,26.25
20,192,89739,2,0,L|38:163,1,26.25
133,152,89811,2,0,L|151:123,1,26.25
492,192,89882,5,2,0:0:0:0:
256,192,90025,1,0,0:0:0:0:
374,192,90168,1,2,0:0:0:0:
138,192,90311,1,0,0:0:0:0:
256,192,90454,1,2,0:0:0:0:
20,192,90597,1,0,0:0:0:0:
138,192,90740,1,2,0:0:0:0:
374,192,90882,1,0,0:0:0:0:
20,192,91025,5,2,0:0:0:0:
256,192,91168,1,0,0:0:0:0:
138,192,91311,1,2,0:0:0:0:
374,192,91454,1,0,0:0:0:0:
256,192,91597,1,2,0:0:0:0:
492,192,91740,1,0,0:0:0:0:
374,192,91883,1,2,0:0:0:0:
138,192,92025,1,0,0:0:0:0:
492,192,92168,5,2,0:0:0:0:
256,192,92311,1,0,0:0:0:0:
374,192,92454,1,2,0:0:0:0:
138,192,92597,1,0,0:0:0:0:
256,192,92740,1,2,0:0:0:0:
20,192,92883,1,0,0:0:0:0:
138,192,93025,1,2,0:0:0:0:
374,192,93168,1,0,0:0:0:0:
20,192,93311,6,0,L|182:192,1,157.5,2|0,0:0|0:0,0:0:0:0:
492,192,93597,2,0,L|330:192,1,157.5,2|0,0:0|0:0,0:0:0:0:
20,192,93882,2,0,L|194:192,1,157.5,2|0,0:0|0:0,0:0:0:0:
492,192,94168,2,0,L|452:152,1,52.5,2|0,0:0|0:0,0:0:0:0:
256,192,94311,2,0,L|216:152,1,52.5,2|0,0:0|0:0,0:0:0:0:
374,192,94454,5,2,0:0:0:0:
492,192,94597,1,0,0:0:0:0:
256,192,94740,1,2,0:0:0:0:
138,192,94882,1,0,0:0:0:0:
374,192,95025,1,2,0:0:0:0:
492,192,95168,1,0,0:0:0:0:
256,192,95311,1,2,0:0:0:0:
492,192,95453,1,0,0:0:0:0:
138,192,95597,5,2,0:0:0:0:
20,192,95740,1,0,0:0:0:0:
256,192,95883,1,2,0:0:0:0:
374,192,96025,1,0,0:0:0:0:
138,192,96168,1,2,0:0:0:0:
20,192,96311,1,0,0:0:0:0:
256,192,96454,1,2,0:0:0:0:
20,192,96596,1,0,0:0:0:0:
374,192,96740,5,2,0:0:0:0:
492,192,96883,1,0,0:0:0:0:
256,192,97026,1,2,0:0:0:0:
492,192,97168,1,0,0:0:0:0:
138,192,97311,1,2,0:0:0:0:
20,192,97454,1,0,0:0:0:0:
256,192,97597,1,2,0:0:0:0:
20,192,97739,1,0,0:0:0:0:
256,192,97882,6,0,L|430:192,1,157.5,4|0,0:0|0:0,0:0:0:0:
256,192,98168,2,0,L|82:192,1,157.5,4|0,0:0|0:0,0:0:0:0:
413,192,98454,2,0,L|239:192,1,157.5,4|0,0:0|0:0,0:0:0:0:
98,192,98740,2,0,L|272:192,1,157.5,4|0,0:0|0:0,0:0:0:0:
20,192,99025,5,2,0:0:0:0:
256,192,99168,1,0,0:0:0:0:
138,192,99311,1,2,0:0:0:0:
374,192,99454,1,0,0:0:0:0:
256,192,99597,1,2,0:0:0:0:
492,192,99740,1,0,0:0:0:0:
374,192,99883,1,2,0:0:0:0:
138,192,100025,1,0,0:0:0:0:
492,192,100168,5,2,0:0:0:0:
256,192,100311,1,0,0:0:0:0:
374,192,100454,1,2,0:0:0:0:
138,192,100597,1,0,0:0:0:0:
256,192,100740,1,2,0:0:0:0:
20,192,100883,1,0,0:0:0:0:
138,192,101025,1,2,0:0:0:0:
374,192,101168,1,0,0:0:0:0:
20,192,101311,5,2,0:0:0:0:
256,192,101454,1,0,0:0:0:0:
138,192,101597,1,2,0:0:0:0:
374,192,101740,1,0,0:0:0:0:
256,192,101882,1,2,0:0:0:0:
492,192,102026,1,0,0:0:0:0:
374,192,102168,1,2,0:0:0:0:
138,192,102311,1,0,0:0:0:0:
492,192,102454,6,0,L|506:138,1,52.5,2|0,0:0|0:0,0:0:0:0:
256,192,102597,2,0,L|241:138,1,52.5
374,192,102740,2,0,L|388:138,1,52.5,2|0,0:0|0:0,0:0:0:0:
138,192,102882,2,0,L|123:138,1,52.5
256,192,103025,2,0,L|414:192,1,157.5,2|0,0:0|0:0,0:0:0:0:
99,192,103311,2,0,L|71:143,1,52.5,2|0,0:0|0:0,0:0:0:0:
413,192,103454,2,0,L|440:143,1,52.5,2|0,0:0|0:0,0:0:0:0:
256,192,103597,5,2,0:0:0:0:
138,192,103740,1,0,0:0:0:0:
374,192,103882,1,2,0:0:0:0:
138,192,104025,1,0,0:0:0:0:
256,192,104168,1,2,0:0:0:0:
374,192,104311,1,0,0:0:0:0:
138,192,104453,1,2,0:0:0:0:
374,192,104596,1,0,0:0:0:0:
138,192,104740,6,0,L|99:153,1,52.5,2|0,0:0|0:0,0:0:0:0:
374,192,104882,2,0,L|413:153,1,52.5
100,154,105025,2,0,L|61:115,1,52.5,2|0,0:0|0:0,0:0:0:0:
412,154,105168,2,0,L|451:115,1,52.5
62,116,105311,6,0,L|23:77,1,52.5,2|0,0:0|0:0,0:0:0:0:
256,192,105454,2,0,L|274:260,1,52.5
450,116,105597,2,0,L|489:77,1,52.5,2|0,0:0|0:0,0:0:0:0:
256,192,105740,2,0,L|238:257,1,52.5
24,78,105882,6,0,L|52:30,1,52.5,2|0,0:0|0:0,0:0:0:0:
256,244,106025,2,0,L|304:216,1,52.5
488,78,106168,2,0,L|460:30,1,52.5,2|0,0:0|0:0,0:0:0:0:
256,244,106311,2,0,L|208:216,1,52.5
24,78,106454,6,0,L|71:49,1,52.5,2|0,0:0|0:0,0:0:0:0:
488,78,106597,2,0,L|440:49,1,52.5
24,78,106740,2,0,L|71:49,1,52.5,2|0,0:0|0:0,0:0:0:0:
488,78,106882,2,0,L|440:49,1,52.5
256,192,107025,6,0,L|90:192,1,157.5,4|0,0:0|0:0,0:0:0:0:
256,192,107311,2,0,L|422:192,1,157.5,4|0,0:0|0:0,0:0:0:0:
256,192,107597,2,0,L|90:192,1,157.5,4|0,0:0|0:0,0:0:0:0:
256,192,107883,2,0,L|422:192,1,157.5,4|0,0:0|0:0,0:0:0:0:
256,192,108168,5,2,0:0:0:0:
256,192,108240,12,0,113454,0:0:0:0:
169,192,113597,6,0,L|129:152,1,52.5
302,192,113740,2,0,B|512:192|512:192|302:192,1,420
171,72,114454,2,0,B|31:192|31:192|171:312,1,367.5
483,192,115025,5,2,0:0:0:0:
