osu file format v5

[General]
AudioFilename: 09 - Montage.mp3
AudioLeadIn: 0
PreviewTime: -1
Countdown: 1
SampleSet: Normal
StackLeniency: 0.7
Mode: 0

[Metadata]
Title:Montage
Artist:Team America
Creator:omaricondego
Version:Normal
Source:
Tags:

[Difficulty]
HPDrainRate:4
CircleSize:4
OverallDifficulty:4
SliderMultiplier:1.4
SliderTickRate:1

[Events]
//Background and Video events
0,0,"Poster_WPbig.jpg"
//Break Periods
2,59719,70497
//Storyboard Layer 0 (Background)
//Storyboard Layer 1 (Failing)
//Storyboard Layer 2 (Passing)
//Storyboard Layer 3 (Foreground)
//Storyboard Sound Samples
//Background Colour Transformations
3,100,163,162,255

[TimingPoints]
2000,396.6917,4,1,0,100

[HitObjects]
160,96,3586,1,0
352,288,3983,1,0
256,64,5768,1,0
384,192,6165,1,0
128,192,6363,1,0
256,320,6760,1,0
256,192,7156,1,0
256,192,9735,5,0
160,192,9933,1,0
160,96,10330,1,0
64,96,10528,1,0
64,320,11123,1,0
160,320,11322,1,0
352,320,11718,1,0
448,320,11917,1,0
448,320,12115,2,2,B|316:227,1,140
256,192,13008,5,0
352,192,13404,1,0
352,96,13603,1,0
448,96,14099,1,0
448,192,14495,2,2,B|224:192,1,210
256,192,16181,5,0
256,96,16578,2,0,B|160:96,1,70
96,96,17173,1,0
96,192,17371,1,0
96,288,17570,1,0
192,288,17768,1,0
256,288,18165,2,2,B|256:192,1,70
256,192,19454,6,0,B|256:96,1,70
160,192,19851,2,0,B|160:96,1,70
64,192,20446,2,0,B|64:96,1,70
64,32,20842,2,2,B|224:32,1,140
256,224,21636,6,0,B|256:128,5,70
384,96,23024,2,0,B|288:32|256:128|192:96|128:32|96:32,1,280
160,96,24214,5,2
224,160,24611,1,2
256,192,24809,5,0
256,224,25206,2,0,B|256:128,3,70
384,320,26198,2,0,B|288:256|256:352|192:320|128:256|96:256,1,280
160,224,27388,5,2
256,192,27784,1,2
256,192,28975,6,0,B|256:96,1,70
256,32,29371,2,0,B|160:32,1,70
160,32,30264,1,0
160,128,30760,2,0,B|160:224,1,70
160,288,31156,1,0
256,288,31553,6,0,B|256:192,1,70
256,96,32148,2,0,B|352:96,1,70
416,96,32545,1,0
416,192,32941,2,0,B|416:288,1,70
352,320,33338,2,2,B|288:288|224:224|224:160|256:64,1,280
64,64,35222,6,0,B|64:160,1,70
64,256,35817,1,0
160,256,36313,2,0,B|160:160,1,70
160,64,36710,1,0
256,64,37107,2,0,B|256:160,1,70
256,256,37503,2,0,B|256:128,1,105
192,128,38297,5,0
256,128,38495,1,0
320,128,38693,1,0
320,192,38892,1,0
256,192,39090,1,0
192,192,39289,1,0
256,256,39487,1,0
256,320,39884,2,2,B|320:384|256:128,1,210
256,192,40875,5,0
384,192,41272,2,0,B|384:288,1,70
384,192,41669,1,0
384,96,42065,2,0,B|288:32|256:128|192:96|128:32|96:32,1,280
160,96,43255,5,2
224,160,43652,1,2
256,192,43850,5,0
256,224,44247,2,0,B|256:128,3,70
384,320,45239,2,0,B|288:256|256:352|192:320|128:256|96:256,1,280
160,224,46429,5,6
256,192,46825,1,6
256,192,48016,12,0,48809
256,192,49602,12,0,50395
256,192,51190,12,0,51983
256,192,52777,12,0,53570
256,192,53966,2,0,B|256:96,2,70
384,96,54759,2,0,B|288:32|256:128|192:96|128:32|96:32,1,280
160,96,55949,5,6
224,160,56346,1,6
256,192,56544,5,0
256,224,56941,2,0,B|256:128,3,70
384,320,57933,2,0,B|288:256|256:352|192:320|128:256|96:256,1,280
160,224,59123,5,6
256,192,59519,1,6
256,64,71817,5,2
256,320,72214,1,2
256,192,73404,6,0,L|96:192|96:96|320:96|320:192,1,560
384,256,75586,5,0
160,256,75983,1,0
256,64,76181,1,0
256,192,76578,2,0,L|160:192|160:64|320:64|320:256,1,560
352,224,78363,6,0,C|352:128,1,70
256,154,78759,2,0,C|256:224,1,70
160,224,79156,2,0,C|160:128,2,70
256,64,79751,2,0,L|256:224|384:224|384:64,1,420
96,192,81338,5,2
416,192,81735,1,2
352,192,82131,6,0,L|224:192|224:96|160:96,1,280
160,192,83321,1,0
160,288,83718,1,0
256,288,84115,1,0
352,288,84511,1,0
256,96,85305,1,4
256,192,85701,1,4
256,192,86098,12,0,86891
256,192,87684,12,0,88477
256,192,89272,12,0,90065
256,192,90859,12,0,91652
256,192,92049,2,0,B|256:96,2,70
480,320,92842,2,0,B|384:256|352:352|288:320|224:256|192:256,1,280
160,96,94032,5,2
352,96,94429,1,2
256,288,94627,5,0
256,224,95024,2,0,B|256:128,3,70
288,96,96016,2,0,B|192:32|160:128|96:96|32:32|0:32,1,280
160,288,97206,5,2
352,288,97602,1,2
256,96,98991,5,0
256,192,99387,1,0
256,288,99784,1,0
160,288,100181,1,0
160,192,100577,1,0
160,96,100776,1,0
256,96,101172,1,0
256,160,101569,2,4,B|256:202|268:252|192:256|96:224|64:128|128:32|224:32|384:32|448:96|448:224|416:288|320:320,1,700
