osu file format v5

[General]
AudioFilename: Team America- Everyone Has AIDS.mp3
AudioLeadIn: 0
PreviewTime: -1
Countdown: 1
SampleSet: Soft
StackLeniency: 0.7
Mode: 0
LetterboxInBreaks: 1
EditorBookmarks: 20167,23334

[Metadata]
Title:Everyone has AIDS
Artist:Team America
Creator:hawkzor
Version:
Source:
Tags:

[Difficulty]
HPDrainRate:7
CircleSize:6
OverallDifficulty:7
SliderMultiplier:1.6
SliderTickRate:1

[Events]
//Background and Video events
//Break Periods
2,15785,19338
2,37882,43211
//Storyboard Layer 0 (Background)
//Storyboard Layer 1 (Failing)
//Storyboard Layer 2 (Passing)
//Storyboard Layer 3 (Foreground)
//Storyboard Sound Samples
//Background Colour Transformations
3,100,163,162,255

[TimingPoints]
5099.45908894531,372.670807453416,4,2,0,100,1
16254,857.142857142857,4,2,0,100,1
46825,600,4,2,0,100,1
48539,857.142857142857,4,2,0,100,1
54440,372.670807453416,4,2,0,100,1

[HitObjects]
122,70,2677,1,0
122,74,2863,1,0
122,78,3049,1,0
122,82,3236,5,0
122,86,3422,1,0
122,90,3658,1,0
128,96,3795,6,0,B|195:156|257:192|288:288|256:352|96:320|75:265|320:64,1,560
249,111,5472,5,0
304,112,5658,1,0
357,113,5844,1,0
410,113,6031,1,0
200,102,6438,5,0
200,102,6819,1,0
128,96,7335,6,0,B|128:192,1,80
160,192,7708,2,0,B|160:96,1,80
158,54,8080,2,0,B|254:143|254:144,1,80
216,108,8453,1,0
216,108,8639,1,0
256,96,8826,5,0
320,96,9012,1,0
320,96,9385,1,0
320,96,9757,1,0
320,96,10130,6,0,B|320:192,4,80
254,129,11062,6,0,B|389:128|388:129,1,80
352,96,11406,2,0,B|308:136|288:160,1,80
320,160,11857,1,0
320,160,11993,1,0
445,50,12953,5,0
371,117,13111,1,0
284,191,13298,1,0
80,197,13705,1,0
71,54,14043,2,0,B|158:115|222:106|200:61|145:55|101:104|5:143,1,240
91,137,14759,5,0
157,192,14954,1,4
414,192,15585,1,4
128,288,20285,6,0,B|288:224|352:128|320:96|288:64|192:32|160:96|160:128|160:192|256:256|288:288|288:288|306:298,1,586.666666666667
224,160,24804,5,0
160,64,26062,6,0,B|352:192|352:288|288:320|192:320|160:288|160:224|160:192|224:160|320:96|352:64,1,640
256,160,30627,1,0
96,64,31254,5,0
160,128,31604,1,0
256,128,31932,1,0
288,128,32096,2,0,B|288:288|224:384|96:224|224:224|224:224|384:224,1,453.333333333333
320,192,35254,6,0,B|288:192|192:256|160:192|160:192|224:160|224:160|160:128|160:96|192:96|256:96|320:160,1,453.333333333333
128,64,44111,6,0,B|224:64,1,80
208,64,44675,1,0
448,64,45396,6,0,B|448:160,1,80
448,144,46111,1,0
384,256,46947,6,0,B|288:256,4,80
256,256,48539,1,12
192,192,48932,1,12
128,128,49347,1,12
96,32,50110,5,0
224,32,50681,1,0
320,32,51396,1,0
448,32,52110,1,0
416,160,53110,1,0
287,160,53475,5,0
288,160,53681,1,0
288,160,53824,1,0
224,128,54231,1,0
160,128,54564,1,0
