osu file format v14

[General]
AudioFilename: ARIA ED.mp3
AudioLeadIn: 0
PreviewTime: 56313
Countdown: 0
SampleSet: Soft
StackLeniency: 0.7
Mode: 0
LetterboxInBreaks: 0
WidescreenStoryboard: 1

[Editor]
DistanceSpacing: 0.8
BeatDivisor: 4
GridSize: 32
TimelineZoom: 3.350001

[Metadata]
Title:pulse
TitleUnicode:パルス
Artist:Team AA
ArtistUnicode:Team AA
Creator:Hyasalia
Version:Insane
Source:緋弾のアリアAA
Tags:hidan no aria aa akari mamiya kanzaki H aria Kugimiya Rie Sakura Ayane tv size ending
BeatmapID:804199
BeatmapSetID:364744

[Difficulty]
HPDrainRate:7
CircleSize:4
OverallDifficulty:7
ApproachRate:9
SliderMultiplier:1.74
SliderTickRate:1

[Events]
//Background and Video events
0,0,"aa.jpg",0,0
//Break Periods
//Storyboard Layer 0 (Background)
//Storyboard Layer 1 (Fail)
//Storyboard Layer 2 (Pass)
//Storyboard Layer 3 (Foreground)
//Storyboard Sound Samples

[TimingPoints]
2183,326.086956521739,4,2,0,60,1,0
2183,-166.666666666667,4,2,0,30,0,0
12617,-100,4,2,0,30,0,0
24030,-200,4,2,0,60,0,0
25661,-125,4,2,0,60,0,0
34791,-100,4,2,0,60,0,0
36096,-100,4,2,0,60,0,0
46530,-125,4,2,0,60,0,0
51748,-100,4,2,0,60,0,0
55661,-200,4,2,0,60,0,0
56965,-100,4,2,0,60,0,1
66096,-100,4,2,0,60,0,0
67400,-100,4,2,0,60,0,1
76530,-200,4,2,0,60,0,1
77835,-100,4,2,0,60,0,0

[Colours]
Combo1 : 0,128,255
Combo2 : 255,128,192
Combo3 : 15,163,251
Combo4 : 128,128,255

[HitObjects]
311,206,2183,6,0,L|331:262,1,52.1999984069825
223,190,2509,1,0,0:0:0:0:
279,118,2672,2,0,P|328:117|371:62,1,104.399996813965
472,127,3161,2,0,L|457:191,1,52.1999984069825
432,320,3487,6,0,P|385:312|383:264,1,104.399996813965
299,222,3976,2,0,P|250:271|195:272,1,104.399996813965
175,177,4465,2,0,P|201:180|222:195,1,52.1999984069825
191,306,4791,1,0,0:0:0:0:
27,156,5769,6,0,P|65:148|95:124,1,78.2999976104737
112,97,6096,2,0,L|94:44,1,52.1999984069825
199,122,6422,2,0,L|183:185,1,52.1999984069825
124,246,6748,2,0,P|94:217|69:207,1,52.1999984069825
209,259,7074,2,0,P|242:244|262:217,1,52.1999984069825
366,176,7400,6,0,B|360:218|360:218|383:280,1,104.399996813965
447,184,7889,1,0,0:0:0:0:
376,101,8052,2,0,P|327:114|293:158,1,104.399996813965
284,233,8541,1,0,0:0:0:0:
213,148,8704,2,0,P|217:123|229:100,1,52.1999984069825
152,213,9030,2,0,P|137:192|106:179,1,52.1999984069825
153,300,9356,1,0,0:0:0:0:
331,247,9682,2,0,P|350:263|374:273,1,52.1999984069825
237,296,10009,5,0,0:0:0:0:
157,210,12617,5,0,0:0:0:0:
256,138,12780,2,0,L|154:120,1,87
146,86,13025,1,0,0:0:0:0:
146,86,13106,2,0,P|192:30|269:37,1,130.5
280,53,13432,1,0,0:0:0:0:
288,219,13596,1,0,0:0:0:0:
354,118,13759,1,0,0:0:0:0:
225,167,13922,6,0,P|253:231|243:292,2,116
83,169,14574,6,0,L|32:149,3,43.5
118,271,14900,2,0,L|186:223,3,43.5
249,275,15226,6,0,L|280:130,1,130.5
314,125,15552,2,0,P|319:171|341:222,1,87
477,167,15878,1,0,0:0:0:0:
327,233,16041,1,0,0:0:0:0:
434,261,16204,1,0,0:0:0:0:
302,332,16367,6,0,P|231:306|151:319,1,130.5
145,340,16693,1,0,0:0:0:0:
302,332,16856,2,0,P|340:300|363:229,1,87
282,145,17182,1,0,0:0:0:0:
268,253,17346,1,0,0:0:0:0:
327,162,17509,1,0,0:0:0:0:
165,213,17672,1,0,0:0:0:0:
240,82,17835,6,0,P|304:126|381:111,1,130.5
424,67,18161,2,0,P|362:83|348:105,1,87
226,159,18487,1,0,0:0:0:0:
333,81,18650,1,0,0:0:0:0:
268,253,18813,1,0,0:0:0:0:
211,65,18976,5,0,0:0:0:0:
211,65,19057,2,0,B|114:96|114:96|181:115,1,130.5
319,177,19465,2,0,L|294:299,1,87
188,315,19791,1,0,0:0:0:0:
319,177,19954,1,0,0:0:0:0:
154,225,20117,2,0,B|128:175|128:175|141:130,1,87
302,78,20443,5,0,0:0:0:0:
95,54,20606,1,0,0:0:0:0:
223,115,20769,2,0,L|310:73,1,87
472,160,21096,2,0,P|413:131|361:143,1,87
365,159,21340,1,0,0:0:0:0:
365,159,21422,1,0,0:0:0:0:
366,355,21585,6,0,P|404:309|394:229,1,130.5
400,241,21911,1,0,0:0:0:0:
278,309,22074,2,0,L|193:290,1,87
135,147,22400,1,0,0:0:0:0:
281,212,22563,2,0,L|344:174,2,43.5
141,228,22889,1,0,0:0:0:0:
201,34,23052,6,0,L|215:134,1,87
244,136,23297,1,0,0:0:0:0:
244,136,23378,1,0,0:0:0:0:
364,256,23541,2,0,L|378:156,1,87
408,156,23786,1,0,0:0:0:0:
408,156,23867,1,0,0:0:0:0:
506,74,24030,6,0,B|457:5|373:23|373:23|408:32|438:67,1,217.5
303,247,25661,6,0,P|287:220|286:165,1,69.6
217,119,25987,1,0,0:0:0:0:
150,179,26150,1,0,0:0:0:0:
66,144,26313,1,0,0:0:0:0:
119,255,26476,1,0,0:0:0:0:
66,144,26639,1,0,0:0:0:0:
43,282,26802,6,0,P|90:278|132:308,1,69.6
177,346,27128,1,0,0:0:0:0:
181,199,27291,2,0,P|203:253|193:294,1,69.6
277,201,27617,2,0,P|312:154|353:143,1,69.6
232,120,27943,2,0,P|174:112|143:82,1,69.6
286,52,28269,6,0,P|317:97|321:143,1,69.6
392,166,28596,1,0,0:0:0:0:
458,104,28759,1,0,0:0:0:0:
415,252,28922,1,0,0:0:0:0:
392,166,29085,1,0,0:0:0:0:
503,238,29248,1,0,0:0:0:0:
393,324,29411,6,0,P|379:274|344:241,2,69.6
286,264,29900,2,0,P|313:202|338:187,1,69.6
183,130,30226,2,0,P|217:167|226:210,1,69.6
193,269,30552,1,0,0:0:0:0:
22,234,30715,6,0,P|68:242|151:190,1,139.2
131,67,31204,2,0,P|102:121|108:154,1,69.6
183,130,31530,1,0,0:0:0:0:
283,114,31693,1,0,0:0:0:0:
235,24,31856,1,0,0:0:0:0:
255,147,32019,6,0,P|322:167|339:185,1,69.6
352,273,32346,1,0,0:0:0:0:
185,274,32509,2,0,P|218:234|263:219,1,69.6
352,199,32835,2,0,P|312:241|308:345,1,139.2
381,357,33324,1,0,0:0:0:0:
299,318,33487,6,0,P|256:330|214:369,1,69.6
153,301,33813,2,0,P|140:258|120:231,1,69.6
118,104,34139,2,0,P|93:128|76:158,1,69.6
60,245,34465,1,0,0:0:0:0:
7,121,34628,1,0,0:0:0:0:
154,175,34791,5,0,0:0:0:0:
183,167,34873,1,0,0:0:0:0:
212,159,34954,1,0,0:0:0:0:
241,151,35036,1,0,0:0:0:0:
270,143,35117,2,0,L|296:75,3,43.5
364,190,35443,2,0,L|381:249,3,43.5
291,247,35769,6,0,L|225:233,1,43.5
222,345,35932,2,0,L|269:327,1,43.5
343,353,36096,6,0,L|366:255,1,87
380,117,36422,1,0,0:0:0:0:
440,233,36585,1,0,0:0:0:0:
302,164,36748,1,0,0:0:0:0:
432,190,36911,1,0,0:0:0:0:
291,247,37074,1,0,0:0:0:0:
222,142,37237,6,0,L|244:47,1,87
222,142,37563,1,0,0:0:0:0:
135,196,37726,2,0,P|166:235|176:307,1,87
82,341,38052,1,0,0:0:0:0:
201,296,38215,1,0,0:0:0:0:
52,251,38378,1,0,0:0:0:0:
197,342,38541,1,0,0:0:0:0:
197,342,38623,1,0,0:0:0:0:
197,342,38704,6,0,P|241:307|304:303,1,87
319,216,39030,2,0,P|290:181|286:105,1,87
329,29,39356,1,0,0:0:0:0:
257,131,39519,1,0,0:0:0:0:
397,75,39682,1,0,0:0:0:0:
232,54,39846,6,0,P|188:91|182:153,1,87
241,225,40172,1,0,0:0:0:0:
81,227,40335,2,0,P|134:221|181:175,1,87
311,197,40661,1,0,0:0:0:0:
213,300,40824,1,0,0:0:0:0:
322,377,40987,1,0,0:0:0:0:
293,269,41150,1,0,0:0:0:0:
293,269,41231,1,0,0:0:0:0:
293,269,41313,6,0,P|340:207|399:190,1,130.5
415,177,41639,2,0,L|321:141,1,87
167,125,41965,1,0,0:0:0:0:
294,57,42128,1,0,0:0:0:0:
167,125,42291,2,0,P|194:171|185:236,1,87
58,337,42617,6,0,P|37:284|86:198,1,130.5
88,204,42943,2,0,L|64:92,1,87
140,44,43269,1,0,0:0:0:0:
263,129,43432,1,0,0:0:0:0:
236,43,43596,1,0,0:0:0:0:
167,202,43759,1,0,0:0:0:0:
167,202,43840,1,0,0:0:0:0:
167,202,43922,6,0,P|232:164|309:174,1,130.5
304,189,44248,2,0,L|280:301,1,87
403,364,44574,2,0,B|377:327|377:327|404:207,1,130.5
417,221,44900,1,0,0:0:0:0:
356,117,45063,1,0,0:0:0:0:
356,117,45144,1,0,0:0:0:0:
356,117,45226,5,0,0:0:0:0:
474,167,45389,1,0,0:0:0:0:
304,189,45552,1,0,0:0:0:0:
448,122,45715,1,0,0:0:0:0:
448,122,45797,1,0,0:0:0:0:
448,122,45878,2,0,L|432:235,1,87
341,265,46204,1,0,0:0:0:0:
428,305,46367,1,0,0:0:0:0:
297,347,46530,6,0,P|314:291|267:204,1,139.2
175,257,47019,1,0,0:0:0:0:
244,161,47182,1,0,0:0:0:0:
65,59,47509,2,0,L|84:160,1,69.6
105,148,47753,1,0,0:0:0:0:
105,148,47835,5,0,0:0:0:0:
227,85,47998,1,0,0:0:0:0:
173,183,48161,1,0,0:0:0:0:
160,50,48324,1,0,0:0:0:0:
241,193,48487,2,0,L|162:181,1,69.6
47,286,48813,2,0,P|91:266|136:268,1,69.6
227,333,49139,6,0,P|297:322|314:248,1,139.2
241,193,49628,1,0,0:0:0:0:
374,142,49791,1,0,0:0:0:0:
481,315,50117,2,0,L|385:292,1,69.6
385,321,50362,1,0,0:0:0:0:
385,321,50443,5,0,0:0:0:0:
436,210,50606,1,0,0:0:0:0:
293,282,50769,1,0,0:0:0:0:
365,350,50932,1,0,0:0:0:0:
365,192,51096,2,0,P|393:147|430:131,1,69.6
266,127,51422,6,0,P|201:104|170:60,1,104.4
142,53,51748,2,0,L|48:84,1,87
30,250,52074,2,0,L|124:219,1,87
303,237,52400,1,0,0:0:0:0:
163,162,52563,1,0,0:0:0:0:
365,192,52726,2,0,L|331:272,1,87
213,344,53052,6,0,P|198:300|144:256,1,87
98,94,53378,2,0,L|77:214,1,87
215,229,53704,1,0,0:0:0:0:
78,214,53867,1,0,0:0:0:0:
241,145,54030,2,0,P|298:122|347:138,1,87
484,235,54356,2,0,P|440:236|403:215,1,87
376,232,54601,1,0,0:0:0:0:
376,232,54682,2,0,L|404:352,1,87
229,306,55009,5,0,0:0:0:0:
398,341,55172,1,0,0:0:0:0:
224,284,55335,5,0,0:0:0:0:
390,363,55498,1,0,0:0:0:0:
219,262,55661,5,0,0:0:0:0:
391,131,56313,6,0,P|363:124|318:87,1,87
298,67,56965,6,0,L|281:180,1,87
157,233,57291,2,0,L|144:146,1,87
216,50,57617,1,0,0:0:0:0:
60,138,57780,1,0,0:0:0:0:
221,129,57943,2,0,P|281:167|294:202,1,87
148,312,58269,6,0,P|151:258|232:217,1,130.5
242,245,58596,2,0,L|261:351,1,87
408,368,58922,1,0,0:0:0:0:
257,330,59085,1,0,0:0:0:0:
381,293,59248,2,0,L|400:187,1,87
327,57,59574,6,0,P|273:70|240:109,1,87
143,173,59900,2,0,P|86:161|53:126,1,87
139,70,60226,1,0,0:0:0:0:
322,138,60389,1,0,0:0:0:0:
216,257,60552,2,0,L|236:172,1,87
327,57,60878,6,0,P|378:78|393:173,1,130.5
423,193,61204,2,0,L|402:277,1,87
251,342,61530,1,0,0:0:0:0:
382,255,61693,1,0,0:0:0:0:
243,261,61856,2,0,P|198:216|223:119,1,130.5
229,122,62182,6,0,L|214:23,1,87
96,156,62509,2,0,L|111:255,1,87
351,222,62835,2,0,L|252:176,1,87
75,309,63161,2,0,P|134:263|225:274,1,130.5
228,275,63487,6,0,L|248:382,1,87
390,295,63813,2,0,P|366:272|355:194,1,87
488,115,64139,1,0,0:0:0:0:
429,224,64302,1,0,0:0:0:0:
276,180,64465,2,0,P|343:138|375:140,1,87
255,74,64791,6,0,B|208:86|208:86|109:53,1,130.5
92,89,65117,1,0,0:0:0:0:
143,201,65280,1,0,0:0:0:0:
38,263,65443,2,0,L|68:160,1,87
231,185,65769,2,0,P|276:152|383:161,1,130.5
370,190,66096,5,0,0:0:0:0:
469,116,66259,1,0,0:0:0:0:
440,309,66422,2,0,B|415:278|415:278|287:259,1,130.5
294,296,66748,2,0,L|269:151,1,130.5
263,124,67074,2,0,P|208:176|123:175,1,130.5
124,152,67400,5,0,0:0:0:0:
158,26,67563,1,0,0:0:0:0:
288,51,67726,2,0,P|330:90|336:148,1,87
253,217,68052,1,0,0:0:0:0:
395,164,68215,1,0,0:0:0:0:
314,269,68378,2,0,B|225:240|225:240|176:258,1,130.5
163,287,68704,6,0,L|181:392,1,87
332,365,69030,2,0,P|387:339|412:287,1,87
324,185,69356,1,0,0:0:0:0:
262,327,69519,1,0,0:0:0:0:
253,217,69682,2,0,P|198:177|127:174,1,130.5
100,146,70009,6,0,P|152:107|179:51,1,87
293,38,70335,2,0,L|401:67,1,87
431,222,70661,1,0,0:0:0:0:
471,102,70824,1,0,0:0:0:0:
349,211,70987,2,0,P|382:250|389:318,1,87
371,327,71231,1,0,0:0:0:0:
371,327,71313,6,0,L|270:350,1,87
82,278,71639,2,0,L|166:297,1,87
318,192,71965,1,0,0:0:0:0:
240,288,72128,1,0,0:0:0:0:
197,121,72291,1,0,0:0:0:0:
275,207,72454,1,0,0:0:0:0:
116,154,72617,6,0,L|213:114,1,87
250,38,72943,2,0,L|346:66,1,87
431,142,73269,2,0,P|361:153|305:216,1,130.5
275,207,73596,1,0,0:0:0:0:
345,353,73759,1,0,0:0:0:0:
349,258,73922,6,0,L|402:230,2,43.5
205,308,74248,2,0,P|160:284|85:290,1,87
22,206,74574,2,0,L|53:99,1,87
189,38,74900,2,0,L|213:121,1,87
261,218,75226,5,0,0:0:0:0:
150,175,75389,1,0,0:0:0:0:
295,192,75552,5,0,0:0:0:0:
164,253,75715,1,0,0:0:0:0:
314,156,75878,5,0,0:0:0:0:
216,305,76041,1,0,0:0:0:0:
314,118,76204,5,0,0:0:0:0:
292,319,76367,1,0,0:0:0:0:
421,188,76530,6,0,P|364:148|344:80,1,130.5
258,40,77182,2,0,P|219:73|127:84,1,130.5
54,167,77835,6,0,L|155:188,1,87
303,235,78161,2,0,L|202:256,1,87
97,305,78487,6,0,L|188:349,1,87
327,314,78813,2,0,P|374:276|387:228,1,87
315,61,79139,6,0,L|343:178,1,87
182,246,79465,2,0,L|202:161,1,87
159,56,79791,5,0,0:0:0:0:
282,131,79954,1,0,0:0:0:0:
282,131,80036,1,0,0:0:0:0:
282,131,80117,2,0,P|319:103|383:100,1,87
508,146,80443,5,0,0:0:0:0:
436,209,80606,2,0,L|341:178,1,87
209,163,80932,1,0,0:0:0:0:
282,225,81096,2,0,L|301:314,1,87
129,350,81422,5,0,0:0:0:0:
63,280,81585,2,0,L|110:165,1,87
74,46,81911,1,0,0:0:0:0:
150,103,82074,2,0,L|294:61,1,130.5
310,99,82400,6,0,P|285:138|279:179,1,87
197,325,82726,1,0,0:0:0:0:
197,325,82807,1,0,0:0:0:0:
197,325,82889,1,0,0:0:0:0:
197,325,82971,1,0,0:0:0:0:
197,325,83052,6,0,B|169:262|169:262|210:184,1,130.5
173,182,83378,2,0,L|72:214,1,87
150,103,83704,1,0,0:0:0:0:
256,211,83867,1,0,0:0:0:0:
306,35,84030,1,0,0:0:0:0:
310,158,84193,6,0,P|288:210|320:293,1,130.5
294,314,84519,1,0,0:0:0:0:
464,245,84682,2,0,L|371:220,1,87
238,116,85009,1,0,0:0:0:0:
176,245,85172,1,0,0:0:0:0:
310,158,85335,1,0,0:0:0:0:
169,162,85498,1,0,0:0:0:0:
231,324,85661,6,0,P|263:280|270:217,2,87
93,226,86150,2,0,P|28:193|-20:194,2,87
174,114,86639,5,0,0:0:0:0:
256,192,86721,12,0,87617,0:0:0:0:
