osu file format v14

[General]
AudioFilename: Isosine - Taylor Swift vs. Slipknot - How You Get the Memories.mp3
AudioLeadIn: 0
PreviewTime: 40458
Countdown: 0
SampleSet: Normal
StackLeniency: 0.7
Mode: 0
LetterboxInBreaks: 0
WidescreenStoryboard: 1

[Editor]
DistanceSpacing: 1.2
BeatDivisor: 4
GridSize: 8
TimelineZoom: 1

[Metadata]
Title:How You Get the Memories (Isosine Mashup)
TitleUnicode:How You Get the Memories (Isosine Mashup)
Artist:Taylor Swift vs. Slipknot
ArtistUnicode:Taylor Swift vs. Slipknot
Creator:Lanturn
Version:Normal
Source:
Tags:Corey Dead Girl Rock Metal Pop English All Hope Is Gone 1989
BeatmapID:1748684
BeatmapSetID:834845

[Difficulty]
HPDrainRate:4
CircleSize:3.5
OverallDifficulty:4
ApproachRate:5
SliderMultiplier:1.5
SliderTickRate:2

[Events]
//Background and Video events
0,0,"TSvsSK.jpg",0,0
Video,2870,"TSvsSK.avi"
//Break Periods
2,73178,75618
2,134618,144018
//Storyboard Layer 0 (Background)
//Storyboard Layer 1 (Fail)
//Storyboard Layer 2 (Pass)
//Storyboard Layer 3 (Foreground)
//Storyboard Sound Samples

[TimingPoints]
3858,480,4,1,1,70,1,0
34578,-100,4,1,1,50,0,0
40338,-100,4,1,1,60,0,0
42258,-100,4,1,1,80,0,1
72978,-100,4,1,1,50,0,0
76818,-100,4,1,1,70,0,0
88338,-100,4,1,1,80,0,1
134418,-100,4,1,1,50,0,0
145938,-100,4,1,1,30,0,0
147858,-100,4,1,1,40,0,0
149778,-100,4,1,1,50,0,0
151698,-100,4,1,1,60,0,0
153618,-100,4,1,1,80,0,1
199698,-100,4,1,1,50,0,0
204498,-100,4,1,1,40,0,0
205458,-100,4,1,1,30,0,0
206418,-100,4,1,1,20,0,0
207378,-100,4,1,1,10,0,0

[Colours]
Combo1 : 0,206,206
Combo2 : 0,202,0
Combo3 : 18,124,255
Combo4 : 0,198,99

[HitObjects]
104,96,11538,6,0,L|104:246,1,150,2|8,0:0|0:0,0:0:0:0:
176,296,12258,2,0,P|129:331|72:328,2,112.5,2|0|8,0:0|0:0|0:0,0:0:0:0:
256,336,13218,1,0,0:0:0:0:
336,296,13458,2,0,L|336:146,1,150,2|8,0:0|0:0,0:0:0:0:
409,96,14178,2,0,P|365:62|310:62,2,112.5,2|0|8,0:0|0:0|0:0,0:0:0:0:
448,272,15378,6,0,P|400:328|312:336,1,150,2|8,0:0|0:0,0:0:0:0:
256,280,16098,2,0,L|144:280,2,112.5,2|0|8,0:0|0:0|0:0,0:0:0:0:
319,216,17058,1,0,0:0:0:0:
319,126,17298,2,0,P|271:70|183:62,1,150,2|8,0:0|0:0,0:0:0:0:
127,118,18018,2,0,L|15:118,2,112.5,2|0|8,0:0|0:0|0:0,0:0:0:0:
264,240,19218,6,0,P|335:263|408:240,1,150,2|8,0:0|0:0,0:0:0:0:
405,151,19938,2,0,P|334:128|261:151,1,150,2|0,0:0|0:0,0:0:0:0:
184,200,20658,2,0,P|144:216|80:200,1,75,8|0,0:0|0:0,0:0:0:0:
77,131,21138,2,0,L|237:51,1,150,2|8,0:0|0:0,0:0:0:0:
301,67,21858,2,0,L|461:147,1,150,2|0,0:0|0:0,0:0:0:0:
400,214,22578,1,8,0:0:0:0:
400,214,23058,6,0,P|384:288|312:342,1,150,2|8,0:0|0:0,0:0:0:0:
256,288,23778,1,2,0:0:0:0:
181,335,24018,2,0,P|126:286|112:214,1,150,2|8,0:2|0:0,0:0:0:0:
73,40,24978,2,0,B|136:40|136:40|184:40|205:84,1,150,2|8,0:0|0:0,0:0:0:0:
256,160,25698,1,2,0:0:0:0:
306,84,25938,2,0,B|328:40|376:40|376:40|438:40,1,150,2|8,0:2|0:0,0:0:0:0:
496,208,26898,5,2,0:0:0:0:
440,272,27138,1,0,0:0:0:0:
360,312,27378,2,0,L|264:312,1,75,8|2,0:0|0:0,0:0:0:0:
312,224,27858,2,0,L|216:224,1,75,2|0,0:2|0:0,0:0:0:0:
272,136,28338,2,0,L|176:136,1,75,8|0,0:0|0:0,0:0:0:0:
144,64,28818,1,2,0:0:0:0:
56,224,29298,2,0,L|96:312,1,75,8|2,0:0|0:0,0:0:0:0:
152,232,29778,2,0,L|192:320,1,75,2|0,0:2|0:0,0:0:0:0:
248,240,30258,2,0,L|288:328,1,75,8|0,0:0|0:0,0:0:0:0:
360,336,30738,6,0,B|408:336|424:296|424:296|456:208,1,150,2|8,0:0|0:0,0:0:0:0:
447,140,31458,2,0,B|423:75|423:75|407:35|359:35,1,150,2|0,0:0|0:0,0:0:0:0:
296,96,32178,1,8,0:0:0:0:
152,200,32658,2,0,P|80:216|24:160,1,150,2|8,0:0|0:0,0:0:0:0:
104,128,33378,2,0,P|176:112|232:168,1,150,2|0,0:0|0:0,0:0:0:0:
224,248,34098,1,8,0:0:0:0:
224,248,34578,6,0,L|368:336,1,150,2|8,0:0|0:0,0:0:0:0:
432,368,35298,2,0,P|392:272|456:168,1,225,2|8,0:0|0:0,0:0:0:0:
267,173,36498,2,0,L|123:85,1,150,2|8,0:0|0:0,0:0:0:0:
59,53,37218,2,0,P|99:149|35:253,1,225,2|8,0:0|0:0,0:0:0:0:
208,320,38418,6,0,L|368:320,1,150,2|8,0:0|0:0,0:0:0:0:
432,264,39138,1,2,0:0:0:0:
368,200,39378,2,0,L|368:104,2,75,2|0|8,0:2|0:0|0:0,0:0:0:0:
240,72,40338,2,0,L|80:72,1,150,2|8,0:0|0:0,0:0:0:0:
16,128,41058,1,2,0:0:0:0:
80,192,41298,2,0,L|80:288,2,75,2|0|8,0:2|0:0|0:0,0:0:0:0:
200,328,42258,6,0,P|184:256|240:184,1,150,6|8,0:0|0:0,0:0:0:0:
312,184,42978,1,2,0:0:0:0:
272,272,43218,2,0,L|432:272,1,150,2|8,0:2|0:0,0:0:0:0:
392,96,44178,2,0,L|480:96,1,75,2|2,0:0|0:0,0:0:0:0:
448,8,44658,2,0,L|352:8,1,75,8|2,0:0|0:0,0:0:0:0:
312,72,45138,2,0,P|240:96|168:72,1,150,2|8,0:2|0:0,0:0:0:0:
44,201,46098,6,0,L|104:344,1,150,2|8,0:0|0:0,0:0:0:0:
192,328,46818,1,2,0:0:0:0:
184,240,47058,2,0,P|253:263|278:344,1,150,2|8,0:2|0:0,0:0:0:0:
448,256,48018,2,0,L|488:160,1,75,2|2,0:0|0:0,0:0:0:0:
384,176,48498,2,0,L|416:96,1,75,8|2,0:0|0:0,0:0:0:0:
360,32,48978,2,0,B|288:56|288:56|216:32,1,150,2|8,0:2|0:0,0:0:0:0:
128,56,49698,1,0,0:0:0:0:
72,128,49938,6,0,B|96:160|77:193|77:193|32:272,1,150,6|8,0:0|0:0,0:0:0:0:
37,352,50658,1,2,0:0:0:0:
112,304,50898,2,0,P|181:279|256:304,1,150,2|8,0:2|0:0,0:0:0:0:
424,352,51858,2,0,P|432:312|424:280,1,75,2|2,0:0|0:0,0:0:0:0:
360,215,52338,2,0,P|352:175|360:143,1,75,8|2,0:0|0:0,0:0:0:0:
432,88,52818,2,0,P|360:112|288:88,1,150,2|8,0:2|0:0,0:0:0:0:
126,18,53778,6,0,P|150:87|97:172,1,150,2|8,0:0|0:0,0:0:0:0:
51,212,54498,1,2,0:0:0:0:
97,289,54738,2,0,B|169:309|169:309|241:289,1,150,2|8,0:2|0:0,0:0:0:0:
295,116,55698,2,0,P|287:82|295:37,1,75,2|2,0:0|0:0,0:0:0:0:
376,76,56178,2,0,P|414:58|456:66,1,75,8|2,0:0|0:0,0:0:0:0:
480,144,56658,2,0,L|424:312,1,150,2|8,0:2|0:0,0:0:0:0:
256,328,57618,6,0,P|187:302|152:232,1,150,6|8,0:0|0:0,0:0:0:0:
200,160,58338,2,0,L|200:24,2,112.5,2|2|8,0:0|0:0|0:0,0:0:0:0:
256,232,59298,1,0,0:0:0:0:
256,328,59538,2,0,P|325:302|360:232,1,150,2|8,0:0|0:0,0:0:0:0:
312,160,60258,2,0,L|312:24,2,112.5,2|2|8,0:0|0:0|0:0,0:0:0:0:
256,232,61218,1,0,0:0:0:0:
170,202,61458,6,0,P|162:274|90:346,1,150,2|8,0:0|0:0,0:0:0:0:
34,298,62178,2,0,P|42:226|114:154,1,150,2|0,0:0|0:0,0:0:0:0:
162,114,62898,1,8,0:0:0:0:
336,168,63378,2,0,P|400:184|464:160,1,112.5,2|2,0:0|0:0,0:0:0:0:
464,40,64098,2,0,P|392:16|320:40,1,150,2|0,0:0|0:0,0:0:0:0:
264,104,64818,1,8,0:0:0:0:
144,240,65298,6,0,B|192:296|192:296|272:296,1,150,6|8,0:0|0:0,0:0:0:0:
312,216,66018,2,0,P|356:276|346:341,2,112.5,2|2|8,0:0|0:0|0:0,0:0:0:0:
224,192,66978,1,0,0:0:0:0:
144,144,67218,2,0,B|192:88|192:88|272:88,1,150,2|8,0:0|0:0,0:0:0:0:
312,168,67938,2,0,P|356:108|346:43,2,112.5,2|2|8,0:0|0:0|0:0,0:0:0:0:
224,192,68898,1,0,0:0:0:0:
176,120,69138,6,0,L|25:146,1,150,2|8,0:0|0:0,0:0:0:0:
28,239,69858,2,0,L|175:267,1,150,2|0,0:0|0:0,0:0:0:0:
224,192,70578,1,8,0:0:0:0:
351,64,71058,2,0,P|415:48|479:72,1,112.5,2|2,0:0|0:0,0:0:0:0:
479,192,71778,2,0,P|407:216|335:192,1,150,2|0,0:0|0:0,0:0:0:0:
256,152,72498,2,0,L|256:312,1,150,8|0,0:0|0:0,0:0:0:0:
328,80,76818,6,0,P|335:155|296:240,1,150,2|8,0:0|0:0,0:0:0:0:
256,296,77538,1,2,0:0:0:0:
203,223,77778,2,0,P|176:154|184:80,1,150,2|8,0:2|0:0,0:0:0:0:
72,224,78738,2,0,B|112:288|112:288|176:336,1,150,2|8,0:0|0:0,0:0:0:0:
256,296,79458,1,2,0:0:0:0:
340,332,79698,2,0,B|400:288|400:288|440:224,1,150,2|8,0:2|0:0,0:0:0:0:
376,56,80658,6,0,L|472:56,2,75,2|0|8,0:0|0:0|0:0,0:0:0:0:
312,119,81378,2,0,L|160:119,1,150,2|0,0:0|0:0,0:0:0:0:
98,55,82098,1,8,0:0:0:0:
98,235,82578,2,0,L|2:235,2,75,2|0|8,0:0|0:0|0:0,0:0:0:0:
162,172,83298,2,0,L|314:172,1,150,2|0,0:0|0:0,0:0:0:0:
376,236,84018,1,8,0:0:0:0:
375,236,84498,6,0,P|376:306|310:330,1,150,2|8,0:0|0:0,0:0:0:0:
256,256,85218,1,2,0:0:0:0:
201,330,85458,2,0,P|135:306|136:236,1,150,2|8,0:2|0:0,0:0:0:0:
256,104,86418,2,0,B|288:120|328:104|328:104|400:144,1,150,2|8,0:0|0:0,0:0:0:0:
472,192,87138,1,2,0:0:0:0:
394,243,87378,2,0,B|328:280|328:280|288:264|256:280,1,150,2|8,0:2|0:0,0:0:0:0:
96,360,88338,6,0,P|64:304|72:200,1,150,6|8,0:0|0:0,0:0:0:0:
120,152,89058,1,2,0:0:0:0:
192,200,89298,2,0,B|256:248|208:280|280:328,1,150,2|8,0:2|0:0,0:0:0:0:
456,328,90258,2,0,L|440:240,1,75,2|2,0:0|0:0,0:0:0:0:
360,224,90738,2,0,L|344:136,1,75,8|2,0:0|0:0,0:0:0:0:
256,128,91218,2,0,P|208:96|240:16,1,150,2|8,0:2|0:0,0:0:0:0:
416,24,92178,6,0,P|448:80|440:184,1,150,2|8,0:0|0:0,0:0:0:0:
392,232,92898,1,2,0:0:0:0:
320,184,93138,2,0,B|256:136|304:104|232:56,1,150,2|8,0:2|0:0,0:0:0:0:
56,56,94098,2,0,L|72:144,1,75,2|2,0:0|0:0,0:0:0:0:
152,160,94578,2,0,L|168:248,1,75,8|2,0:0|0:0,0:0:0:0:
256,256,95058,2,0,P|304:288|272:368,1,150,2|8,0:2|0:0,0:0:0:0:
192,384,95778,1,0,0:0:0:0:
112,344,96018,6,0,B|112:272|112:272|72:248|72:208,1,150,6|8,0:0|0:0,0:0:0:0:
160,192,96738,1,2,0:0:0:0:
247,208,96978,2,0,B|248:248|208:272|208:272|208:344,1,150,2|8,0:2|0:0,0:0:0:0:
392,352,97938,2,0,P|400:312|392:280,1,75,2|2,0:0|0:0,0:0:0:0:
464,224,98418,2,0,P|456:184|464:152,1,75,8|2,0:0|0:0,0:0:0:0:
432,64,98898,2,0,P|360:88|288:64,1,150,2|8,0:2|0:0,0:0:0:0:
112,40,99858,6,0,B|112:112|112:112|72:136|72:175,1,150,2|8,0:0|0:0,0:0:0:0:
160,192,100578,1,2,0:0:0:0:
247,175,100818,2,0,B|248:136|208:112|208:112|208:40,1,150,2|8,0:2|0:0,0:0:0:0:
392,32,101778,2,0,P|400:72|392:104,1,75,2|2,0:0|0:0,0:0:0:0:
464,160,102258,2,0,P|456:200|464:232,1,75,8|2,0:0|0:0,0:0:0:0:
432,320,102738,2,0,P|360:296|288:320,1,150,2|8,0:2|0:0,0:0:0:0:
168,184,103698,6,0,P|150:111|168:39,1,150,6|8,0:0|0:0,0:0:0:0:
257,38,104418,2,0,L|393:38,2,112.5,2|2|8,0:0|0:0|0:0,0:0:0:0:
257,128,105378,1,0,0:0:0:0:
347,128,105618,2,0,P|364:200|346:272,1,150,2|8,0:0|0:0,0:0:0:0:
257,273,106338,2,0,L|121:273,2,112.5,2|2|8,0:0|0:0|0:0,0:0:0:0:
257,183,107298,1,0,0:0:0:0:
168,192,107538,6,0,B|94:183|94:183|31:136,1,150,2|8,0:0|0:0,0:0:0:0:
72,56,108258,2,0,B|145:64|145:64|208:111,1,150,2|0,0:0|0:0,0:0:0:0:
257,183,108978,1,8,0:0:0:0:
360,32,109458,2,0,L|488:32,1,112.5,2|2,0:0|0:0,0:0:0:0:
496,168,110178,2,0,L|344:168,1,150,2|0,0:0|0:0,0:0:0:0:
282,104,110898,1,8,0:0:0:0:
128,192,111378,6,0,P|95:255|128:320,1,150,6|8,0:0|0:0,0:0:0:0:
209,361,112098,2,0,P|264:378|325:351,2,112.5,2|2|8,0:0|0:0|0:0,0:0:0:0:
262,288,113058,1,0,0:0:0:0:
351,283,113298,2,0,P|384:220|351:155,1,150,2|8,0:0|0:0,0:0:0:0:
269,113,114018,2,0,P|214:96|153:123,2,112.5,2|2|8,0:0|0:0|0:0,0:0:0:0:
217,187,114978,1,0,0:0:0:0:
148,245,115218,6,0,P|162:316|212:373,1,150,2|8,0:0|0:0,0:0:0:0:
299,373,115938,2,0,P|349:317|364:245,1,150,2|0,0:0|0:0,0:0:0:0:
295,187,116658,1,8,0:0:0:0:
198,35,117138,2,0,L|70:35,1,112.5,2|2,0:0|0:0,0:0:0:0:
62,171,117858,2,0,L|214:171,1,150,2|0,0:0|0:0,0:0:0:0:
276,107,118578,1,8,0:0:0:0:
455,117,119058,6,0,L|455:277,1,150,6|8,0:0|0:0,0:0:0:0:
367,301,119778,2,0,L|367:64,1,225,2|8,0:0|0:0,0:0:0:0:
191,117,120978,2,0,L|191:277,1,150,2|8,0:0|0:0,0:0:0:0:
279,301,121698,2,0,L|279:64,1,225,2|8,0:0|0:0,0:0:0:0:
98,76,122898,6,0,L|98:228,1,150,2|8,0:0|0:0,0:0:0:0:
162,292,123618,2,0,P|92:317|27:284,2,150,2|0|0,0:0|0:0|0:0,0:0:0:0:
244,254,124818,2,0,B|298:269|298:269|352:254,1,112.5,2|2,0:0|0:0,0:0:0:0:
372,118,125538,2,0,B|300:138|300:138|228:118,1,150,2|0,0:0|0:0,0:0:0:0:
153,66,126258,1,8,0:0:0:0:
24,192,126738,5,6,0:0:0:0:
151,319,127218,2,0,L|319:319,2,150,8|2|8,0:0|0:2|0:0,0:0:0:0:
216,152,128658,1,2,0:0:0:0:
343,279,129138,2,0,L|511:279,2,150,8|2|8,0:0|0:2|0:0,0:0:0:0:
208,159,130578,6,0,P|190:232|211:303,1,150,2|8,0:0|0:0,0:0:0:0:
300,303,131298,2,0,P|321:232|303:159,2,150,2|2|0,0:0|0:2|0:0,0:0:0:0:
211,303,132498,2,0,L|64:344,1,150,2|8,0:0|0:0,0:0:0:0:
58,253,133218,2,0,L|190:217,2,112.5,2|2|8,0:0|0:2|0:0,0:0:0:0:
70,73,134418,1,0,0:0:0:0:
256,192,145938,12,2,151698,0:0:0:0:
176,320,153618,6,0,L|88:320,2,75,6|2|8,0:0|0:0|0:0,0:0:0:0:
239,256,154338,1,2,0:0:0:0:
175,192,154578,2,0,P|96:208|24:176,1,150,2|8,0:2|0:0,0:0:0:0:
88,8,155538,2,0,L|144:88,1,75,2|2,0:0|0:0,0:0:0:0:
224,64,156018,2,0,L|272:128,1,75,8|2,0:0|0:0,0:0:0:0:
208,192,156498,2,0,B|166:255|166:255|142:296|182:344,1,150,2|8,0:2|0:0,0:0:0:0:
256,344,157218,1,0,0:0:0:0:
341,317,157458,6,0,L|429:317,2,75,2|2|8,0:0|0:0|0:0,0:0:0:0:
273,256,158178,1,2,0:0:0:0:
337,192,158418,2,0,P|416:208|488:176,1,150,2|8,0:2|0:0,0:0:0:0:
424,8,159378,2,0,L|368:88,1,75,2|2,0:0|0:0,0:0:0:0:
288,64,159858,2,0,L|240:128,1,75,8|2,0:0|0:0,0:0:0:0:
304,192,160338,2,0,B|346:255|346:255|370:296|330:344,1,150,2|8,0:2|0:0,0:0:0:0:
256,344,161058,1,0,0:0:0:0:
176,304,161298,6,0,B|140:320|140:320|88:320,2,75,6|2|8,0:0|0:0|0:0,0:0:0:0:
256,264,162018,1,2,0:0:0:0:
336,304,162258,2,0,B|352:344|392:346|392:346|432:344|448:304,1,150,2|8,0:2|0:0,0:0:0:0:
448,122,163218,2,0,B|412:113|412:113|376:122,1,75,2|2,0:0|0:0,0:0:0:0:
304,184,163698,2,0,B|268:193|268:193|232:184,1,75,8|2,0:0|0:0,0:0:0:0:
175,255,164178,2,0,B|145:295|97:279|57:250|77:207,1,150,2|8,0:2|0:0,0:0:0:0:
153,169,164898,1,0,0:0:0:0:
176,80,165138,6,0,B|140:64|140:64|88:64,2,75,2|2|8,0:0|0:0|0:0,0:0:0:0:
256,128,165858,1,2,0:0:0:0:
336,80,166098,2,0,B|352:40|392:38|392:38|432:40|448:80,1,150,2|8,0:2|0:0,0:0:0:0:
448,262,167058,2,0,B|412:271|412:271|376:262,1,75,2|2,0:0|0:0,0:0:0:0:
304,200,167538,2,0,B|268:191|268:191|232:200,1,75,8|2,0:0|0:0,0:0:0:0:
175,129,168018,2,0,B|145:89|97:105|57:134|77:177,1,150,2|8,0:2|0:0,0:0:0:0:
152,217,168738,1,0,0:0:0:0:
96,288,168978,6,0,P|168:320|240:288,1,150,6|8,0:0|0:0,0:0:0:0:
320,288,169698,2,0,B|351:304|351:304|365:342|365:342|400:360,2,112.5,2|2|8,0:0|0:0|0:0,0:0:0:0:
336,200,170658,1,0,0:0:0:0:
408,144,170898,2,0,P|336:112|264:144,1,150,2|8,0:0|0:0,0:0:0:0:
184,144,171618,2,0,B|153:128|153:128|139:90|139:90|104:72,2,112.5,2|2|8,0:0|0:0|0:0,0:0:0:0:
168,232,172578,1,0,0:0:0:0:
256,264,172818,6,0,B|325:240|325:240|373:224|393:257,1,150,2|8,0:0|0:0,0:0:0:0:
392,346,173538,2,0,B|372:378|324:362|324:362|252:338,1,150,2|0,0:0|0:0,0:0:0:0:
176,296,174258,1,8,0:0:0:0:
176,296,174738,2,0,P|128:321|80:296,1,112.5,2|2,0:0|0:0,0:0:0:0:
52,164,175458,2,0,L|204:164,1,150,2|0,0:0|0:0,0:0:0:0:
265,227,176178,1,8,0:0:0:0:
344,64,176658,6,0,P|400:104|416:208,1,150,6|8,0:0|0:0,0:0:0:0:
357,243,177378,2,0,P|384:288|448:312,2,112.5,2|2|8,0:0|0:0|0:0,0:0:0:0:
272,216,178338,1,0,0:0:0:0:
208,279,178578,2,0,P|152:239|136:135,1,150,2|8,0:0|0:0,0:0:0:0:
195,100,179298,2,0,P|168:55|104:31,2,112.5,2|2|8,0:0|0:0|0:0,0:0:0:0:
280,127,180258,1,0,0:0:0:0:
344,192,180498,6,0,L|400:344,1,150,2|8,0:0|0:0,0:0:0:0:
486,332,181218,2,0,L|434:191,1,150,2|0,0:0|0:0,0:0:0:0:
384,112,181938,1,8,0:0:0:0:
224,192,182418,2,0,L|168:344,1,150,2|8,0:0|0:0,0:0:0:0:
82,332,183138,2,0,L|133:191,1,150,2|0,0:0|0:0,0:0:0:0:
184,112,183858,1,8,0:0:0:0:
296,256,184338,6,0,P|368:272|448:256,1,150,2|8,0:0|0:0,0:0:0:0:
480,176,185058,2,0,L|480:40,2,112.5,2|2|8,0:0|0:0|0:0,0:0:0:0:
392,176,186018,1,0,0:0:0:0:
328,112,186258,2,0,P|256:96|176:112,1,150,2|8,0:0|0:0,0:0:0:0:
144,192,186978,2,0,L|144:328,2,112.5,2|2|8,0:0|0:0|0:0,0:0:0:0:
232,192,187938,1,0,0:0:0:0:
256,280,188178,6,0,P|296:320|408:328,1,150,2|8,0:0|0:0,0:0:0:0:
440,264,188898,2,0,B|384:176|480:136|432:48,1,225,2|8,0:0|0:0,0:0:0:0:
256,104,190098,2,0,P|216:64|104:56,1,150,2|8,0:0|0:0,0:0:0:0:
72,120,190818,2,0,B|128:208|32:248|80:336,1,225,2|8,0:0|0:0,0:0:0:0:
248,272,192018,6,0,L|248:96,1,150,6|8,0:0|0:0,0:0:0:0:
320,64,192738,2,0,P|369:44|424:64,2,112.5,2|2|8,0:0|0:0|0:0,0:0:0:0:
372,136,193698,1,0,0:0:0:0:
462,136,193938,2,0,L|462:312,1,150,2|8,0:0|0:0,0:0:0:0:
390,344,194658,2,0,P|341:364|286:344,2,112.5,2|2|8,0:0|0:0|0:0,0:0:0:0:
338,272,195618,1,0,0:0:0:0:
264,216,195858,6,0,B|248:264|192:264|192:264|104:264,1,150,2|8,0:0|0:0,0:0:0:0:
59,215,196578,2,0,P|0:128|80:32,1,225,2|8,0:0|0:0,0:0:0:0:
200,152,197778,2,0,B|216:104|272:104|272:104|360:104,1,150,2|8,0:0|0:0,0:0:0:0:
405,153,198498,2,0,P|464:240|384:336,1,225,2|8,0:0|0:0,0:0:0:0:
256,224,199698,5,2,0:2:0:0:
256,184,201618,1,2,0:2:0:0:
256,192,203538,12,0,207378,0:0:0:0:
