osu file format v12

[General]
AudioFilename: Safe_And_Sound_Pop_Punk_Cover.mp3
AudioLeadIn: 0
PreviewTime: -1
Countdown: 0
SampleSet: Normal
StackLeniency: 0.6
Mode: 0
LetterboxInBreaks: 1
WidescreenStoryboard: 1

[Editor]
DistanceSpacing: 1.2
BeatDivisor: 1
GridSize: 8

[Metadata]
Title:Safe And Sound (Pop Punk Cover)
TitleUnicode:Safe And Sound (Pop Punk Cover)
Artist:Taylor Swift feat. The Civil Wars (Pop Punk Cover by TeraBrite)
ArtistUnicode:Taylor Swift feat. The Civil Wars (Pop Punk Cover by TeraBrite)
Creator:CopterMaster
Version:Extreme
Source:TeraBrite
Tags:Pop Punk
BeatmapID:352708
BeatmapSetID:133304

[Difficulty]
HPDrainRate:10
CircleSize:6
OverallDifficulty:10
ApproachRate:9
SliderMultiplier:1.5
SliderTickRate:1

[Events]
//Background and Video events
0,0,"TeraBrite.png",0,0
//Break Periods
2,63199,74400
//Storyboard Layer 0 (Background)
//Storyboard Layer 1 (Fail)
//Storyboard Layer 2 (Pass)
//Storyboard Layer 3 (Foreground)
//Storyboard Sound Samples
//Background Colour Transformations
3,100,163,162,255

[TimingPoints]
0,333.333333333333,4,1,0,100,1,0
43014,-66.6666666666667,4,1,0,100,0,1
64557,-66.6666666666667,4,1,0,100,0,0
99064,-66.6666666666667,4,1,0,100,0,1
120361,-66.6666666666667,4,1,0,100,0,0
195333,-66.6666666666667,4,1,0,100,0,0
197297,-66.6666666666667,4,1,0,5,0,0

[Colours]
Combo1 : 255,255,255
Combo2 : 128,128,128
Combo3 : 192,192,192

[HitObjects]
256,192,11000,5,0,0:0:0:0:
272,160,11333,1,8,0:0:0:0:
296,192,11666,1,8,0:0:0:0:
272,208,11999,1,0,0:0:0:0:
240,232,12333,1,8,0:0:0:0:
272,256,12666,1,8,0:0:0:0:
296,232,12999,1,4,0:0:0:0:
256,192,16333,5,0,0:0:0:0:
224,160,16666,1,8,0:0:0:0:
200,200,16999,1,8,0:0:0:0:
232,216,17333,1,0,0:0:0:0:
264,240,17666,1,8,0:0:0:0:
232,272,17999,1,8,0:0:0:0:
200,240,18333,1,4,0:0:0:0:
232,168,21666,5,0,0:0:0:0:
256,168,21833,1,0,0:0:0:0:
344,168,22333,1,8,0:0:0:0:
312,168,22999,1,0,0:0:0:0:
376,168,23333,1,8,0:0:0:0:
288,168,23666,1,0,0:0:0:0:
200,168,23999,1,8,0:0:0:0:
248,168,24333,1,0,0:0:0:0:
208,216,25000,1,0,0:0:0:0:
248,216,25333,1,8,0:0:0:0:
152,216,25666,1,4,0:0:0:0:
96,216,26833,5,0,0:0:0:0:
120,216,27000,1,0,0:0:0:0:
152,216,27666,1,0,0:0:0:0:
208,216,27999,1,8,0:0:0:0:
176,216,28333,1,8,0:0:0:0:
288,216,28666,1,8,0:0:0:0:
248,216,28999,1,0,0:0:0:0:
448,248,29666,2,0,B|32:248|56:240,2,300
392,216,32333,5,0,0:0:0:0:
432,216,32666,1,8,0:0:0:0:
304,216,32999,1,8,0:0:0:0:
352,216,33333,1,8,0:0:0:0:
256,216,33666,1,0,0:0:0:0:
208,216,34333,1,0,0:0:0:0:
144,216,34666,1,8,0:0:0:0:
112,224,34999,1,8,0:0:0:0:
104,264,35333,1,0,0:0:0:0:
120,296,35666,1,8,0:0:0:0:
160,304,35999,1,8,0:0:0:0:
192,288,36333,1,4,0:0:0:0:
256,192,37500,5,0,0:0:0:0:
288,192,37666,1,0,0:0:0:0:
384,192,37999,1,8,0:0:0:0:
336,192,38333,1,0,0:0:0:0:
336,224,38666,1,0,0:0:0:0:
216,192,38999,1,8,0:0:0:0:
272,192,39333,1,0,0:0:0:0:
312,224,39666,1,0,0:0:0:0:
312,256,40333,2,0,P|312:104|320:120,1,750
256,192,42666,1,0,0:0:0:0:
232,168,43500,5,0,0:0:0:0:
280,168,44333,1,8,0:0:0:0:
288,168,45000,1,0,0:0:0:0:
288,112,45666,2,0,L|288:360,1,225.000008583069
360,168,46500,5,0,0:0:0:0:
360,208,46833,1,0,0:0:0:0:
360,248,47333,1,8,0:0:0:0:
320,248,48166,1,0,0:0:0:0:
320,200,49000,5,0,0:0:0:0:
272,200,49666,1,8,0:0:0:0:
280,240,50333,2,0,L|120:240,1,150
120,240,50999,1,8,0:0:0:0:
120,192,52000,1,0,0:0:0:0:
160,192,52166,1,0,0:0:0:0:
216,192,52666,1,0,0:0:0:0:
272,192,52999,1,8,0:0:0:0:
368,248,53333,1,8,0:0:0:0:
320,248,53666,1,0,0:0:0:0:
320,304,54333,5,0,0:0:0:0:
272,304,54999,1,8,0:0:0:0:
224,304,55666,1,8,0:0:0:0:
224,256,56333,1,0,0:0:0:0:
280,168,57666,5,0,0:0:0:0:
304,200,57999,1,8,0:0:0:0:
280,224,58333,1,0,0:0:0:0:
280,280,58999,2,0,L|280:32,2,225.000008583069
96,224,60333,1,0,0:0:0:0:
144,224,60666,5,0,0:0:0:0:
120,232,60999,1,0,0:0:0:0:
96,224,61666,2,0,B|256:56|360:360|480:64,2,450.000017166138
232,168,75000,5,0,0:0:0:0:
272,120,75333,1,8,0:0:0:0:
272,168,75666,1,8,0:0:0:0:
312,168,76000,1,0,0:0:0:0:
360,168,76333,1,8,0:0:0:0:
312,208,76666,1,8,0:0:0:0:
232,168,76999,1,0,0:0:0:0:
232,192,77333,1,0,0:0:0:0:
232,224,77666,5,0,0:0:0:0:
272,264,77999,1,8,0:0:0:0:
272,224,78333,1,8,0:0:0:0:
272,264,78666,1,8,0:0:0:0:
232,264,78999,1,4,0:0:0:0:
232,264,80333,5,0,0:0:0:0:
232,208,80666,1,8,0:0:0:0:
280,208,80999,1,8,0:0:0:0:
176,264,81333,1,0,0:0:0:0:
336,80,81666,1,8,0:0:0:0:
336,152,81999,1,8,0:0:0:0:
336,216,82333,1,0,0:0:0:0:
336,168,82833,1,0,0:0:0:0:
336,64,83000,2,0,P|456:352|488:328,1,450
232,168,85666,5,0,0:0:0:0:
280,168,86333,1,8,0:0:0:0:
328,216,87000,1,0,0:0:0:0:
280,216,87666,1,8,0:0:0:0:
232,216,88333,5,0,0:0:0:0:
232,264,88999,1,8,0:0:0:0:
232,264,89666,1,4,0:0:0:0:
264,264,91000,5,0,0:0:0:0:
304,264,91333,1,8,0:0:0:0:
304,224,91666,1,0,0:0:0:0:
264,224,91999,1,8,0:0:0:0:
216,224,92333,1,0,0:0:0:0:
200,224,93000,1,0,0:0:0:0:
40,160,93666,2,0,P|488:160|464:56,2,675.000025749207
64,96,96333,2,0,P|480:96|464:32,2,675.000025749207
48,128,99666,5,0,0:0:0:0:
104,128,100333,1,8,0:0:0:0:
160,128,101000,1,0,0:0:0:0:
256,128,101666,1,8,0:0:0:0:
488,168,102666,5,0,0:0:0:0:
464,168,102833,1,0,0:0:0:0:
408,168,103333,1,0,0:0:0:0:
352,168,103666,1,8,0:0:0:0:
384,168,103999,1,8,0:0:0:0:
288,168,104333,1,0,0:0:0:0:
72,280,105000,5,0,0:0:0:0:
120,280,105666,1,0,0:0:0:0:
168,280,106333,1,0,0:0:0:0:
224,280,107000,1,0,0:0:0:0:
256,280,108000,5,0,0:0:0:0:
256,280,108166,1,0,0:0:0:0:
256,256,108333,1,0,0:0:0:0:
256,200,108666,1,8,0:0:0:0:
256,152,108999,1,8,0:0:0:0:
216,112,109333,1,0,0:0:0:0:
288,112,109666,1,0,0:0:0:0:
256,152,109999,1,8,0:0:0:0:
232,168,110333,5,0,0:0:0:0:
232,216,110999,1,8,0:0:0:0:
280,216,111666,1,8,0:0:0:0:
280,168,112333,1,0,0:0:0:0:
280,168,113666,5,0,0:0:0:0:
312,216,113999,1,8,0:0:0:0:
312,168,114166,1,0,0:0:0:0:
232,168,114666,1,0,0:0:0:0:
96,168,114999,2,0,P|432:168|400:328,1,450.000017166138
352,192,115999,1,8,0:0:0:0:
256,192,116333,1,0,0:0:0:0:
104,128,117666,2,0,P|456:128|448:96,2,450.000017166138
32,192,120333,2,0,L|496:192,3,450
480,192,122999,2,0,L|8:192,3,450.000017166138
232,168,125666,5,0,0:0:0:0:
280,216,126333,1,8,0:0:0:0:
232,216,126999,1,8,0:0:0:0:
280,168,127666,1,8,0:0:0:0:
280,216,128333,1,0,0:0:0:0:
232,168,128999,1,8,0:0:0:0:
280,168,129666,1,8,0:0:0:0:
232,216,130333,1,0,0:0:0:0:
32,192,131000,2,0,L|496:192,3,450
480,192,133666,2,0,L|24:192,3,450.000017166138
232,56,136333,5,0,0:0:0:0:
280,56,136999,1,8,0:0:0:0:
280,112,137666,1,8,0:0:0:0:
232,112,138333,1,8,0:0:0:0:
232,168,139000,1,0,0:0:0:0:
280,168,139666,1,8,0:0:0:0:
280,216,140333,1,8,0:0:0:0:
232,216,141000,1,0,0:0:0:0:
56,216,142333,5,0,0:0:0:0:
104,168,142999,1,8,0:0:0:0:
152,216,143666,1,8,0:0:0:0:
200,168,144333,1,0,0:0:0:0:
448,168,144666,5,0,0:0:0:0:
424,168,144999,1,0,0:0:0:0:
400,168,145333,1,0,0:0:0:0:
368,168,145666,1,0,0:0:0:0:
448,168,147666,5,8,0:0:0:0:
392,216,148333,1,0,0:0:0:0:
336,168,149000,1,0,0:0:0:0:
280,216,149666,1,8,0:0:0:0:
32,216,149999,1,8,0:0:0:0:
80,216,150333,1,8,0:0:0:0:
128,216,150499,1,8,0:0:0:0:
176,216,150999,1,8,0:0:0:0:
232,72,153000,5,0,0:0:0:0:
176,72,153333,1,8,0:0:0:0:
280,120,153666,1,0,0:0:0:0:
328,120,153999,1,8,0:0:0:0:
232,168,154333,1,0,0:0:0:0:
184,168,154666,1,8,0:0:0:0:
280,216,155000,1,0,0:0:0:0:
256,112,156333,5,0,0:0:0:0:
256,168,156999,1,8,0:0:0:0:
256,216,157666,1,8,0:0:0:0:
256,264,158333,1,8,0:0:0:0:
256,272,159000,1,0,0:0:0:0:
176,304,160333,2,0,P|416:304|384:336,2,675.000025749207
64,264,162666,5,0,0:0:0:0:
64,264,162999,2,0,P|456:168|440:328,2,675.000025749207
112,112,165333,1,8,0:0:0:0:
112,112,165666,2,0,P|464:112|448:64,2,675.000025749207
48,296,167999,5,0,0:0:0:0:
48,296,168333,2,0,P|464:296|440:352,2,675.000025749207
128,136,170666,1,8,0:0:0:0:
128,136,170999,2,0,P|456:136|424:72,2,675.000025749207
72,240,173333,5,0,0:0:0:0:
72,240,173666,2,0,P|480:240|432:368,2,675.000025749207
96,128,175999,1,8,0:0:0:0:
96,128,176333,2,0,P|448:128|432:80,2,675.000025749207
88,304,178666,5,0,0:0:0:0:
88,304,178999,2,0,P|448:168|440:328,2,675.000025749207
136,104,181333,1,8,0:0:0:0:
136,104,181666,2,0,P|480:104|448:40,2,675.000025749207
432,272,183999,5,0,0:0:0:0:
432,272,184333,6,0,P|56:192|64:320,2,675.000025749207
64,144,186666,1,0,0:0:0:0:
64,144,186999,2,0,P|472:152|464:104,2,675.000025749207
256,192,189333,1,8,0:0:0:0:
256,192,189666,12,0,191666,0:0:0:0:
256,192,191999,5,14,0:0:0:0:
256,192,192333,12,0,195000,0:0:0:0:
