osu file format v14

[General]
AudioFilename: You Belong with me.mp3
AudioLeadIn: 0
PreviewTime: 114036
Countdown: 1
SampleSet: Soft
StackLeniency: 0.7
Mode: 0
LetterboxInBreaks: 1
WidescreenStoryboard: 0

[Editor]
Bookmarks: 19662
DistanceSpacing: 0.6
BeatDivisor: 4
GridSize: 4
TimelineZoom: 1

[Metadata]
Title:You Belong With Me
TitleUnicode:You Belong With Me
Artist:Taylor Swift
ArtistUnicode:Taylor Swift
Creator:leonardlucky
Version:With Me
Source:
Tags:taylorswift
BeatmapID:446282
BeatmapSetID:186913

[Difficulty]
HPDrainRate:7
CircleSize:4
OverallDifficulty:8
ApproachRate:8
SliderMultiplier:2
SliderTickRate:2

[Events]
//Background and Video events
0,0,"Taylor-Swift-You-Belong-With-Me-Music-Video-taylor-swift-21519650-1248-704.jpg",0,0
//Break Periods
2,66933,68752
2,144463,156434
2,205379,206736
//Storyboard Layer 0 (Background)
//Storyboard Layer 1 (Fail)
//Storyboard Layer 2 (Pass)
//Storyboard Layer 3 (Foreground)
//Storyboard Sound Samples

[TimingPoints]
280,461.485213244626,4,2,1,80,1,0
58888,-200,4,2,1,80,0,1
60734,-100,4,2,1,80,0,1
66733,-100,4,2,1,80,0,0
114036,-100,4,2,1,80,0,1
144263,-100,4,2,1,80,0,0
183028,-100,4,2,1,80,0,1
224561,-100,4,2,1,5,0,0

[Colours]
Combo1 : 11,244,221
Combo2 : 255,255,255
Combo3 : 255,128,128
Combo4 : 255,102,204
Combo5 : 184,71,136
Combo6 : 255,0,51

[HitObjects]
84,280,280,6,0,B|136:244|164:184|164:184|224:192|224:192|280:216,1,200,0|2,0:0|0:0,0:0:0:0:
320,268,972,1,0,0:0:0:0:
404,216,1202,1,0,0:0:0:0:
384,120,1433,1,2,0:0:0:0:
284,108,1664,1,0,0:0:0:0:
232,192,1895,2,0,P|180:148|232:24,1,200,2|0,0:0|0:0,0:0:0:0:
284,108,2587,6,0,P|336:176|336:200,1,100,2|0,0:0|0:0,0:0:0:0:
236,192,3048,2,0,P|180:144|188:92,1,100,2|0,0:0|0:0,0:0:0:0:
177,122,3510,1,2,0:0:0:0:
72,188,3741,1,0,0:0:0:0:
124,60,3971,1,0,0:0:0:0:
242,180,4202,1,4,0:0:0:0:
276,100,4433,1,0,0:0:0:0:
172,120,4664,2,0,P|212:172|288:168,2,100,2|0|2,0:0|0:0|0:0,0:0:0:0:
96,56,5356,1,0,0:0:0:0:
52,144,5587,1,2,0:0:0:0:
128,208,5817,1,0,0:0:0:0:
216,164,6048,1,0,0:0:0:0:
188,68,6279,1,2,0:0:0:0:
52,144,6510,1,0,0:0:0:0:
128,208,6740,1,2,0:0:0:0:
92,56,6971,5,0,0:0:0:0:
128,208,7202,1,2,0:0:0:0:
188,68,7433,1,0,0:0:0:0:
288,72,7663,6,4,P|400:124|480:80,1,200,4|0,0:0|0:0,0:0:0:0:
384,40,8355,1,0,0:0:0:0:
384,40,8586,2,4,L|344:244,1,200,4|0,0:0|0:0,0:0:0:0:
324,332,9278,5,0,0:0:0:0:
324,332,9509,2,0,P|232:280|136:296,1,200,4|0,0:0|0:0,0:0:0:0:
28,328,10432,1,0,0:0:0:0:
48,216,10663,2,0,P|124:192|172:84,1,200
284,148,11355,1,6,0:0:0:0:
300,236,11586,1,0,0:0:0:0:
300,236,11817,6,0,P|220:212|208:172,1,100
284,148,12278,1,6,0:0:0:0:
284,148,12509,1,0,0:0:0:0:
332,304,12740,2,0,P|224:320|152:248,1,200
159,265,13432,1,0,0:0:0:0:
80,324,13663,6,0,P|60:260|88:196,1,100
88,132,14124,2,0,P|136:156|212:152,1,100
280,152,14586,1,0,0:0:0:0:
376,124,14816,1,0,0:0:0:0:
452,188,15047,1,4,0:0:0:0:
388,268,15278,5,0,0:0:0:0:
292,252,15509,1,0,0:0:0:0:
292,252,15970,1,0,0:0:0:0:
280,152,16201,1,0,0:0:0:0:
280,152,16893,5,0,0:0:0:0:
280,152,17124,2,0,P|216:152|120:56,2,200,0|0|0,0:0|0:0|0:0,0:0:0:0:
232,64,18277,1,0,0:0:0:0:
232,64,18508,1,0,0:0:0:0:
232,64,18739,2,4,P|344:76|336:236,1,300,6|4,0:0|0:0,0:0:0:0:
384,320,19662,2,2,P|272:308|280:148,1,300,6|4,0:0|0:0,0:0:0:0:
256,192,20585,12,0,21969,0:0:0:0:
428,280,22200,5,0,0:0:0:0:
428,280,22431,6,0,P|352:344|280:264,1,200
256,196,23123,1,0,0:0:0:0:
328,108,23354,2,0,P|240:68|160:132,1,200
163,123,24046,1,0,0:0:0:0:
64,140,24277,6,0,P|96:204|132:208,1,100
168,244,24738,1,0,0:0:0:0:
408,292,25200,1,0,0:0:0:0:
456,204,25430,1,0,0:0:0:0:
384,136,25661,1,0,0:0:0:0:
328,220,25892,1,4,0:0:0:0:
140,200,26353,5,0,0:0:0:0:
140,200,26584,2,0,P|184:228|232:300,1,100
320,184,27046,5,0,0:0:0:0:
360,320,27276,1,0,0:0:0:0:
408,188,27507,1,0,0:0:0:0:
360,320,27738,1,0,0:0:0:0:
320,184,27969,1,0,0:0:0:0:
272,256,28199,1,0,0:0:0:0:
272,256,28430,6,0,P|232:200|244:140,1,100
164,96,28892,2,0,P|232:76|276:96,1,100
356,84,29353,1,0,0:0:0:0:
356,84,29584,2,0,P|352:160|440:236,1,200
440,136,30276,5,0,0:0:0:0:
440,136,30738,1,0,0:0:0:0:
440,136,30968,2,0,L|244:224,1,200
168,260,31660,1,0,0:0:0:0:
168,260,31891,2,0,L|256:328,1,100
72,228,32353,2,0,P|140:168|244:200,1,200
304,36,33045,1,0,0:0:0:0:
380,92,33276,5,0,0:0:0:0:
380,92,33506,2,0,P|304:132|220:28,1,200
124,40,34199,1,0,0:0:0:0:
144,132,34429,2,0,P|188:188|424:188,1,300
456,120,35352,5,0,0:0:0:0:
472,220,35583,1,0,0:0:0:0:
412,300,35814,1,0,0:0:0:0:
312,312,36045,1,0,0:0:0:0:
212,300,36275,2,0,P|136:248|132:216,1,100
52,192,36737,1,0,0:0:0:0:
52,192,36968,5,0,0:0:0:0:
52,192,37198,2,0,L|180:36,1,200
52,192,37891,1,0,0:0:0:0:
80,32,38121,2,0,P|116:104|260:80,1,200
472,340,39044,6,0,L|316:212,1,200
472,340,39737,1,0,0:0:0:0:
312,312,39967,2,0,P|384:276|360:132,1,200
312,312,40659,5,0,0:0:0:0:
324,212,40890,2,0,P|412:248|464:132,1,200
384,136,41582,1,0,0:0:0:0:
472,178,41813,1,0,0:0:0:0:
324,212,42044,1,0,0:0:0:0:
260,136,42275,2,0,L|332:224,1,100
224,216,42736,6,0,P|136:180|52:232,1,200
140,284,43428,1,0,0:0:0:0:
232,320,43659,1,0,0:0:0:0:
316,268,43890,1,0,0:0:0:0:
388,200,44121,2,0,L|304:280,1,100
256,188,44582,5,0,0:0:0:0:
192,56,44813,1,0,0:0:0:0:
316,56,45044,1,0,0:0:0:0:
256,188,45274,1,0,0:0:0:0:
340,244,45505,2,0,P|252:296|160:216,1,200
252,104,46197,1,0,0:0:0:0:
164,144,46428,6,0,L|264:192,1,100
344,144,46890,2,0,L|240:192,1,100
208,276,47351,1,0,0:0:0:0:
256,104,47582,1,0,0:0:0:0:
304,276,47812,1,0,0:0:0:0:
256,188,48043,1,0,0:0:0:0:
256,40,48274,5,0,0:0:0:0:
152,352,48966,1,0,0:0:0:0:
352,356,49197,1,0,0:0:0:0:
256,284,49889,1,0,0:0:0:0:
152,192,50120,1,0,0:0:0:0:
256,284,50812,1,0,0:0:0:0:
360,196,51042,1,0,0:0:0:0:
256,192,51274,5,0,0:0:0:0:
256,192,51504,2,0,L|256:56,1,100
176,44,51966,2,0,P|244:4|352:80,1,200
440,32,52658,2,0,P|448:96|328:144,1,200
256,100,53350,1,0,0:0:0:0:
164,144,53581,2,0,P|99:152|50:32,1,200
256,100,54273,5,0,0:0:0:0:
192,192,54504,1,0,0:0:0:0:
328,192,54735,1,0,0:0:0:0:
256,312,55196,1,0,0:0:0:0:
256,100,55427,5,0,0:0:0:0:
372,128,55658,2,0,P|328:212|220:212,1,200
256,100,56350,2,0,L|372:280,1,200
364,268,57042,1,0,0:0:0:0:
364,268,57273,2,0,P|280:224|188:288,1,200
292,344,57965,5,0,0:0:0:0:
160,192,58427,1,0,0:0:0:0:
332,160,58888,1,0,0:0:0:0:
332,160,59350,2,0,P|320:104|224:60,2,150
336,229,60965,5,0,0:0:0:0:
444,268,61196,1,0,0:0:0:0:
512,148,61426,1,0,0:0:0:0:
416,92,61657,1,0,0:0:0:0:
304,132,61888,1,0,0:0:0:0:
416,92,62119,6,0,P|432:152|328:228,1,200,0|0,0:0|0:0,0:0:0:0:
188,92,63041,2,0,P|88:124|160:276,2,300,0|0|0,0:0|0:0|0:0,0:0:0:0:
256,156,65348,1,0,0:0:0:0:
256,256,65579,1,0,0:0:0:0:
256,256,65695,1,0,0:0:0:0:
256,256,65810,1,0,0:0:0:0:
184,324,66041,1,0,0:0:0:0:
320,324,66271,1,0,0:0:0:0:
256,256,66503,2,0,L|256:148,1,100
88,144,69502,6,0,B|292:128,1,200
88,144,70425,6,0,P|144:196|96:312,1,200
48,228,71117,1,0,0:0:0:0:
48,228,71348,2,0,L|264:192,1,200
344,188,72040,5,0,0:0:0:0:
412,116,72271,5,0,0:0:0:0:
340,48,72502,1,0,0:0:0:0:
252,92,72733,1,0,0:0:0:0:
268,192,72963,1,0,0:0:0:0:
368,200,73194,1,0,0:0:0:0:
368,200,73425,6,0,P|348:288|312:308,1,100
256,336,73886,2,0,P|192:308|68:352,1,200
24,312,74579,2,0,L|3:206,1,100
132,136,75040,2,0,L|156:240,1,100
256,296,75502,5,0,0:0:0:0:
256,196,75732,1,0,0:0:0:0:
256,196,75963,1,0,0:0:0:0:
256,196,76194,2,0,P|316:160|448:196,2,200,0|0|0,0:0|0:0|0:0,0:0:0:0:
344,244,77348,1,0,0:0:0:0:
344,244,77578,2,0,L|356:96,1,100
356,44,78040,5,0,0:0:0:0:
264,84,78271,1,0,0:0:0:0:
176,36,78501,1,0,0:0:0:0:
84,80,78732,1,0,0:0:0:0:
164,140,78963,1,0,0:0:0:0:
164,140,79193,2,0,P|188:208|180:272,1,100
100,284,79655,2,0,P|192:260|288:304,1,200
384,324,80347,5,0,0:0:0:0:
384,324,80578,2,0,L|436:196,1,100
384,324,81039,1,0,0:0:0:0:
421,231,81270,2,0,P|352:224|300:112,1,200
392,136,81962,5,0,0:0:0:0:
312,44,82193,1,0,0:0:0:0:
228,96,82424,1,0,0:0:0:0:
148,36,82655,2,0,P|128:84|144:156,1,100
228,96,83347,2,0,P|268:152|328:144,1,100
375,113,83808,1,0,0:0:0:0:
324,220,84270,1,0,0:0:0:0:
324,220,84501,2,0,L|400:296,2,100
284,124,85193,6,0,P|244:156|92:164,1,200
176,96,85885,1,0,0:0:0:0:
176,96,86116,2,0,L|248:292,1,200
344,260,86808,5,0,0:0:0:0:
312,164,87039,2,0,L|264:44,1,100
376,80,87500,2,0,L|424:184,1,100
440,268,87962,1,0,0:0:0:0:
440,268,88192,1,0,0:0:0:0:
340,252,88423,2,0,L|456:272,1,100
436,168,88885,5,0,0:0:0:0:
376,88,89115,1,0,0:0:0:0:
296,132,89346,1,0,0:0:0:0:
308,228,89577,1,0,0:0:0:0:
408,248,89808,1,0,0:0:0:0:
408,248,90038,2,0,P|348:308|292:320,1,100
276,320,90500,1,0,0:0:0:0:
205,186,90731,1,0,0:0:0:0:
128,240,90961,2,0,P|196:204|212:148,1,100
220,88,91423,5,0,0:0:0:0:
220,88,91654,2,0,P|288:104|348:104,1,100
400,168,92346,1,0,0:0:0:0:
220,88,92807,1,0,0:0:0:0:
400,168,93038,2,0,L|272:112,1,100
284,264,93500,2,0,L|236:172,1,100
100,244,93961,2,0,L|166:146,1,100
228,92,94422,5,0,0:0:0:0:
228,92,94653,2,0,L|348:88,1,100
327,88,95345,2,0,P|304:164|368:268,1,200
420,148,96038,5,0,0:0:0:0:
420,148,96268,1,0,0:0:0:0:
324,172,96499,2,0,L|428:144,1,100
360,264,96961,1,0,0:0:0:0:
324,172,97191,1,0,0:0:0:0:
384,92,97422,1,0,0:0:0:0:
476,136,97653,5,0,0:0:0:0:
476,236,97884,1,0,0:0:0:0:
256,96,98114,5,0,0:0:0:0:
160,192,98345,1,0,0:0:0:0:
256,296,98576,1,0,0:0:0:0:
348,192,98807,1,0,0:0:0:0:
256,192,99037,2,0,L|256:88,1,100
256,96,99499,2,0,P|128:104|32:80,1,200
56,180,100191,5,0,0:0:0:0:
60,268,100422,2,0,P|160:260|260:304,1,200
60,268,101114,1,0,0:0:0:0:
128,340,101345,2,0,L|220:152,1,200
256,80,102037,5,0,0:0:0:0:
256,80,102268,2,0,P|364:112|468:100,1,200
456,196,102960,1,0,0:0:0:0:
444,284,103191,2,0,P|392:268|372:136,1,200,0|0,0:0|0:0,0:0:0:0:
444,284,103883,1,0,0:0:0:0:
456,196,104114,2,0,L|248:228,1,200
168,236,104806,5,0,0:0:0:0:
172,144,105037,2,0,P|236:168|232:308,1,200
251,286,105729,2,0,L|396:284,1,100
424,120,106190,2,0,L|388:228,1,100
512,236,106652,2,0,L|408:308,1,100
348,284,107113,1,0,0:0:0:0:
348,284,107344,5,0,0:0:0:0:
348,284,107575,2,0,P|288:252|224:264,2,100,0|0|0,0:0|0:0|0:0,0:0:0:0:
348,284,108267,2,0,P|376:212|360:88,1,200
361,92,108959,1,0,0:0:0:0:
296,28,109190,1,0,0:0:0:0:
220,76,109421,1,0,0:0:0:0:
244,160,109651,1,0,0:0:0:0:
332,172,109882,1,0,0:0:0:0:
416,204,110113,6,0,P|376:256|308:260,1,100
332,172,110574,2,0,P|372:120|436:120,1,100
408,192,111036,5,0,0:0:0:0:
256,28,111497,1,0,0:0:0:0:
112,192,111959,1,0,0:0:0:0:
256,328,112420,1,0,0:0:0:0:
256,328,112651,2,0,P|304:248|340:240,1,100
352,324,113113,5,0,0:0:0:0:
412,256,113343,1,0,0:0:0:0:
412,256,113574,2,0,L|476:244,2,50
352,184,114036,1,0,0:0:0:0:
396,4,114266,5,0,0:0:0:0:
376,32,114382,1,0,0:0:0:0:
352,52,114497,1,0,0:0:0:0:
332,72,114612,1,0,0:0:0:0:
300,88,114728,2,0,P|216:96|88:88,1,200
100,89,115420,2,0,P|104:224|164:280,1,200
100,89,116112,1,0,0:0:0:0:
200,144,116343,2,0,L|4:228,1,200
76,288,117035,5,0,0:0:0:0:
148,344,117266,1,0,0:0:0:0:
216,284,117497,1,0,0:0:0:0:
148,168,117958,1,0,0:0:0:0:
148,168,118420,6,0,P|236:128|364:140,1,200
300,48,119112,2,0,P|252:124|300:232,1,200
340,148,119804,1,0,0:0:0:0:
340,148,120035,2,0,P|264:128|200:256,1,200
280,228,120727,2,0,P|264:280|120:280,2,200,0|0|0,0:0|0:0|0:0,0:0:0:0:
188,232,121881,1,0,0:0:0:0:
188,232,122112,6,0,P|232:296|364:324,1,200
392,252,122804,2,0,P|276:204|260:36,1,300
320,108,123727,1,0,0:0:0:0:
320,108,123958,2,0,L|188:124,1,100
184,200,124419,2,0,L|304:188,1,100
372,184,124881,5,0,0:0:0:0:
320,108,125111,1,0,0:0:0:0:
408,108,125342,1,0,0:0:0:0:
360,32,125573,1,0,0:0:0:0:
376,184,125803,1,0,0:0:0:0:
448,180,126265,6,0,P|420:244|384:256,1,100
432,348,126726,2,0,P|392:288|264:284,2,200,0|0|0,0:0|0:0|0:0,0:0:0:0:
340,348,127880,1,0,0:0:0:0:
340,348,128111,2,0,L|400:212,1,100
404,168,128572,6,0,L|296:124,1,100
140,204,129034,1,0,0:0:0:0:
140,204,129495,2,0,P|136:132|248:96,1,200
224,180,130188,2,0,P|152:120|48:204,1,200
140,204,130880,1,0,0:0:0:0:
172,8,131111,2,0,L|140:216,1,200
72,260,131803,5,0,0:0:0:0:
124,332,132034,1,0,0:0:0:0:
192,272,132264,1,0,0:0:0:0:
160,76,132726,1,0,0:0:0:0:
72,260,133187,6,0,P|120:192|116:140,1,100
40,136,133649,1,0,0:0:0:0:
40,136,133879,2,0,L|244:196,1,200
264,276,134572,1,0,0:0:0:0:
264,276,134802,2,0,P|328:212|280:120,1,200
287,123,135495,2,0,P|392:128|472:64,2,200,0|0|0,0:0|0:0|0:0,0:0:0:0:
340,52,136648,1,0,0:0:0:0:
340,52,136879,6,0,P|380:124|304:236,1,200
272,156,137571,2,0,P|340:124|464:172,1,200
272,156,138264,1,0,0:0:0:0:
456,160,138494,5,0,0:0:0:0:
412,80,138725,1,0,0:0:0:0:
324,100,138956,1,0,0:0:0:0:
316,188,139187,1,0,0:0:0:0:
396,228,139417,1,0,0:0:0:0:
396,228,139648,2,0,L|312:296,1,100
240,252,140110,2,0,L|328:176,1,100
256,192,140571,12,0,144263,0:0:0:0:
256,192,157184,12,0,158569,0:0:0:0:
276,96,159030,6,0,L|344:172,1,100
256,200,159492,2,0,L|184:120,1,100
116,56,159953,1,0,0:0:0:0:
60,140,160184,1,0,0:0:0:0:
169,229,160415,1,0,0:0:0:0:
256,200,160646,1,0,0:0:0:0:
236,304,160876,6,0,L|168:228,1,100
256,200,161338,2,0,L|328:280,1,100
400,208,161799,1,0,0:0:0:0:
400,208,162030,1,0,0:0:0:0:
236,304,162261,1,0,0:0:0:0:
236,304,162492,1,0,0:0:0:0:
411,298,162722,5,0,0:0:0:0:
464,228,162953,1,0,0:0:0:0:
460,140,163184,1,0,0:0:0:0:
396,76,163415,1,0,0:0:0:0:
332,136,163645,1,0,0:0:0:0:
240,168,163876,2,0,L|336:136,1,100
396,76,164337,5,0,0:0:0:0:
332,136,164568,2,0,L|256:60,2,100,0|0|0,0:0|0:0|0:0,0:0:0:0:
396,76,165260,1,0,0:0:0:0:
396,76,165491,2,0,P|440:144|280:200,1,300
348,144,166414,1,0,0:0:0:0:
348,144,166645,2,0,P|256:124|224:148,1,100
176,164,167106,5,0,0:0:0:0:
176,164,167337,2,0,P|216:232|176:348,1,200
176,164,168029,1,0,0:0:0:0:
176,164,168260,2,0,L|248:92,1,100
246,93,168722,2,0,P|304:120|360:108,1,100
360,204,169183,6,0,L|448:144,1,100
444,240,169645,2,0,L|348:304,1,100
360,295,170106,5,0,0:0:0:0:
288,240,170337,1,0,0:0:0:0:
324,156,170568,1,0,0:0:0:0:
412,168,170798,1,0,0:0:0:0:
432,244,171029,1,0,0:0:0:0:
432,244,171491,6,0,P|464:304|440:360,1,100,0|0,0:0|0:0,0:0:0:0:
324,156,171952,2,0,P|248:136|220:96,1,100
156,80,172413,1,0,0:0:0:0:
156,80,172875,2,0,P|196:176|80:320,1,300
256,192,173798,12,0,174952,0:0:0:0:
80,180,175182,6,0,L|216:200,1,100
178,194,175644,2,0,P|172:124|248:16,1,200
260,108,176336,2,0,P|136:92|72:40,1,200
52,136,177028,1,0,0:0:0:0:
52,136,177259,2,0,P|96:168|244:188,1,200
256,100,177951,5,0,0:0:0:0:
340,128,178182,1,0,0:0:0:0:
316,216,178413,1,0,0:0:0:0:
56,136,178644,1,0,0:0:0:0:
80,232,178874,2,0,L|56:128,1,100
52,44,179336,6,0,P|132:48|264:40,1,200
251,41,180028,2,0,P|216:112|264:224,1,200
304,140,180720,1,0,0:0:0:0:
304,140,180951,2,0,L|96:140,1,200
104,140,181643,2,0,P|128:192|56:320,1,200
104,140,182566,1,0,0:0:0:0:
104,140,183028,6,0,P|280:152|420:88,2,300,0|0|0,0:0|0:0|0:0,0:0:0:0:
100,316,184874,2,0,P|160:280|168:240,1,100
256,256,185335,5,0,0:0:0:0:
256,256,185566,1,0,0:0:0:0:
316,324,185797,2,0,P|364:252|268:184,1,200
256,192,186720,12,0,189488,0:0:0:0:
56,8,189719,5,0,0:0:0:0:
76,28,189835,1,0,0:0:0:0:
92,52,189950,1,0,0:0:0:0:
108,76,190065,1,0,0:0:0:0:
124,100,190181,1,0,0:0:0:0:
144,124,190296,1,0,0:0:0:0:
172,148,190411,6,0,P|312:176|356:108,1,200
260,104,191104,2,0,L|260:304,1,200
260,104,191796,1,0,0:0:0:0:
180,144,192027,2,0,P|64:164|44:160,1,100
44,248,192488,2,0,P|132:240|172:216,1,100
184,316,192950,5,0,0:0:0:0:
228,240,193180,1,0,0:0:0:0:
180,144,193642,1,0,0:0:0:0:
180,144,194103,2,0,P|312:152|388:128,1,200
320,64,194796,2,0,P|292:120|384:232,1,200
358,226,195488,1,0,0:0:0:0:
416,300,195718,1,0,0:0:0:0:
416,300,196180,2,0,P|340:316|304:280,1,100
256,192,196641,1,0,0:0:0:0:
256,192,196872,2,0,L|256:72,1,100
172,120,197334,2,0,L|172:248,1,100
172,220,197795,6,0,P|240:272|340:228,1,200
264,184,198487,1,0,0:0:0:0:
264,184,198718,2,0,L|360:128,1,100
276,80,199180,2,0,L|176:140,1,100
68,192,199641,1,0,0:0:0:0:
68,192,199872,2,0,P|96:120|100:84,1,100
172,44,200333,5,0,0:0:0:0:
172,44,200564,2,0,P|244:96|364:96,1,200
292,32,201256,1,0,0:0:0:0:
292,32,201487,2,0,P|272:96|352:188,1,200
388,104,202179,2,0,P|300:112|336:280,1,300
323,277,203102,5,0,0:0:0:0:
256,220,203333,1,0,0:0:0:0:
308,144,203564,1,0,0:0:0:0:
396,164,203794,1,0,0:0:0:0:
404,252,204025,1,0,0:0:0:0:
380,340,204256,1,0,0:0:0:0:
280,340,204487,5,0,0:0:0:0:
252,340,204602,1,0,0:0:0:0:
224,340,204717,1,0,0:0:0:0:
124,340,204948,1,0,0:0:0:0:
92,340,205064,1,0,0:0:0:0:
64,340,205179,1,0,0:0:0:0:
84,192,207486,6,0,L|208:192,1,100
184,192,207948,2,0,P|208:120|328:88,1,200
284,168,208640,2,0,L|112:40,1,200
48,96,209332,5,0,0:0:0:0:
92,172,209563,1,0,0:0:0:0:
164,120,209794,1,0,0:0:0:0:
208,200,210025,1,0,0:0:0:0:
288,164,210255,2,0,P|296:216|256:284,1,100
208,200,210717,2,0,P|196:136|240:100,1,100
292,64,211178,6,0,P|352:100|480:96,2,200,0|0|0,0:0|0:0|0:0,0:0:0:0:
200,60,212332,1,0,0:0:0:0:
200,60,212563,2,0,L|104:252,1,200
64,160,213255,2,0,P|148:148|196:264,1,200
112,232,213947,2,0,P|152:308|272:280,2,200,0|0|0,0:0|0:0|0:0,0:0:0:0:
204,240,215101,1,0,0:0:0:0:
204,240,215332,1,0,0:0:0:0:
204,240,215562,2,0,L|304:160,1,100
282,177,216255,6,0,P|224:116|288:40,1,200,0|0,0:0|0:0,0:0:0:0:
344,112,216947,2,0,L|136:112,1,200
80,176,217639,2,0,L|80:284,1,100
160,316,218101,2,0,L|160:208,1,100
248,196,218562,5,0,0:0:0:0:
316,136,218793,1,0,0:0:0:0:
388,192,219023,1,0,0:0:0:0:
364,280,219254,1,0,0:0:0:0:
264,280,219485,1,0,0:0:0:0:
248,196,219716,1,0,0:0:0:0:
256,192,219946,12,0,224561,0:0:0:0:
