osu file format v13

[General]
AudioFilename: You Belong with me.mp3
AudioLeadIn: 0
PreviewTime: 114036
Countdown: 1
SampleSet: Soft
StackLeniency: 0.7
Mode: 0
LetterboxInBreaks: 1
WidescreenStoryboard: 1

[Editor]
Bookmarks: 19662
DistanceSpacing: 1
BeatDivisor: 2
GridSize: 4
TimelineZoom: 1

[Metadata]
Title:You Belong With Me
TitleUnicode:You Belong With Me
Artist:Taylor Swift
ArtistUnicode:Taylor Swift
Creator:leonardlucky
Version:Normal
Source:
Tags:taylorswift
BeatmapID:446717
BeatmapSetID:186913

[Difficulty]
HPDrainRate:5
CircleSize:3
OverallDifficulty:5
ApproachRate:5
SliderMultiplier:1.2
SliderTickRate:1

[Events]
//Background and Video events
0,0,"Taylor-Swift-You-Belong-With-Me-Music-Video-taylor-swift-21519650-1248-704.jpg",0,0
//Break Periods
2,19862,21231
2,34629,35768
2,66703,69225
//Storyboard Layer 0 (Background)
//Storyboard Layer 1 (Fail)
//Storyboard Layer 2 (Pass)
//Storyboard Layer 3 (Foreground)
//Storyboard Sound Samples
//Background Colour Transformations
3,100,163,162,255

[TimingPoints]
280,461.485213244626,4,2,1,80,1,0
51274,-100,4,2,1,80,0,1
66733,-100,4,2,1,80,0,0
114036,-100,4,2,1,80,0,1
144263,-100,4,2,1,80,0,0
183028,-100,4,2,1,80,0,1
224561,-100,4,2,1,80,0,0

[HitObjects]
44,92,280,6,0,L|160:124,1,120
240,64,1202,2,0,P|252:144|160:228,2,180,0|0|0,0:0|0:0|0:0,0:0:0:0:
128,112,3048,1,0,0:0:0:0:
56,208,3509,1,0,0:0:0:0:
244,308,3971,5,0,0:0:0:0:
244,308,4433,2,0,L|440:308,2,180,0|0|0,0:0|0:0|0:0,0:0:0:0:
256,188,6278,2,0,P|180:156|152:96,2,120,0|0|0,0:0|0:0|0:0,0:0:0:0:
376,24,7663,6,0,P|400:100|344:168,1,120
492,188,8586,2,0,P|424:252|384:256,1,120
308,332,9509,1,0,0:0:0:0:
308,332,9971,2,0,L|88:332,2,180,0|0|0,0:0|0:0|0:0,0:0:0:0:
400,256,11817,5,0,0:0:0:0:
280,252,12278,2,0,L|128:252,1,120
56,196,13201,2,0,L|96:140,1,60
84,52,13893,2,0,P|132:68|204:144,2,120,0|0|0,0:0|0:0|0:0,0:0:0:0:
108,168,15278,6,0,L|160:256,1,60
120,340,15970,2,0,P|200:320|208:316,1,60
244,228,16893,1,0,0:0:0:0:
244,228,17124,2,0,P|340:204|380:220,2,120,0|0|0,0:0|0:0|0:0,0:0:0:0:
240,168,18277,2,0,P|256:80|272:40,1,120
380,264,19662,1,0,0:0:0:0:
260,192,22431,6,0,P|156:184|88:156,1,120
212,84,23354,1,0,0:0:0:0:
328,108,23815,6,0,L|408:184,1,60
376,208,24277,1,0,0:0:0:0:
308,308,24738,2,0,L|208:264,1,60
192,292,25200,2,0,L|120:328,1,60
24,280,25892,2,0,P|12:196|36:120,1,120
52,112,26584,6,0,P|108:140|200:136,2,120,0|0|0,0:0|0:0|0:0,0:0:0:0:
156,52,27969,2,0,L|232:28,1,60
260,72,28430,1,0,0:0:0:0:
296,184,28892,2,0,P|256:256|240:280,1,60
172,312,29584,2,0,P|96:280|32:296,1,120
64,224,30276,5,0,0:0:0:0:
180,192,30738,2,0,L|244:168,1,60
388,268,31660,1,0,0:0:0:0:
388,268,31891,2,0,P|480:264|528:236,2,120,0|0|0,0:0|0:0|0:0,0:0:0:0:
328,268,33045,5,0,0:0:0:0:
196,124,33506,1,0,0:0:0:0:
56,320,34429,1,0,0:0:0:0:
64,192,36968,5,0,0:0:0:0:
64,192,37198,2,0,L|204:192,1,120
268,276,38121,2,0,P|280:200|332:128,1,120
412,120,39044,5,0,0:0:0:0:
468,228,39506,1,0,0:0:0:0:
380,308,39967,2,0,P|348:240|348:192,1,120
256,120,40890,5,0,0:0:0:0:
160,192,41352,1,0,0:0:0:0:
252,268,41813,2,0,P|332:224|336:220,2,60,0|0|0,0:0|0:0|0:0,0:0:0:0:
140,312,42736,6,0,P|20:328|-20:304,1,120
36,272,43428,2,0,L|72:208,1,60
184,192,44121,1,0,0:0:0:0:
256,96,44582,6,0,P|344:132|424:132,1,120
420,104,45274,2,0,L|448:184,1,60
396,272,45967,6,0,L|308:232,1,60
280,252,46428,1,0,0:0:0:0:
176,312,46890,1,0,0:0:0:0:
64,268,47351,1,0,0:0:0:0:
60,160,47582,1,0,0:0:0:0:
60,160,47812,2,0,L|160:96,1,60
228,144,48505,6,0,L|200:76,2,60,0|0|0,0:0|0:0|0:0,0:0:0:0:
224,252,49428,2,0,L|316:232,1,60
340,252,49889,2,0,P|424:268|480:228,1,120
440,196,50581,2,0,L|336:108,1,120,0|0,0:0|0:0,0:0:0:0:
300,80,51274,5,0,0:0:0:0:
300,80,51504,1,0,0:0:0:0:
300,80,51735,1,0,0:0:0:0:
240,76,51966,6,0,P|164:144|100:168,1,120
88,148,52658,2,0,L|248:284,1,180
232,324,53581,2,0,P|276:260|344:224,1,120
372,240,54273,2,0,L|424:304,2,60,0|0|0,0:0|0:0|0:0,0:0:0:0:
308,140,55196,1,0,0:0:0:0:
208,76,55658,6,0,P|184:144|208:228,1,120
136,216,56350,2,0,P|236:212|360:240,1,180
328,284,57273,2,0,P|368:180|408:152,1,120
376,116,57965,1,0,0:0:0:0:
256,104,58427,1,0,0:0:0:0:
136,124,58888,1,0,0:0:0:0:
40,196,59350,6,0,P|128:232|216:220,2,180,0|0|0,0:0|0:0|0:0,0:0:0:0:
276,144,61657,2,0,L|344:104,1,60
384,132,62119,2,0,L|456:188,2,60,0|0|0,0:0|0:0|0:0,0:0:0:0:
288,60,63041,2,0,P|204:92|196:172,2,180,0|0|0,0:0|0:0|0:0,0:0:0:0:
340,168,65349,6,0,L|264:220,2,60,0|0|0,0:0|0:0|0:0,0:0:0:0:
432,92,66272,1,0,0:0:0:0:
432,92,66503,1,0,0:0:0:0:
104,120,70425,6,0,P|136:224|124:252,1,120
192,220,71117,2,0,L|256:168,1,60
356,200,71810,1,0,0:0:0:0:
356,200,72040,2,0,P|352:116|344:72,1,120
292,56,72733,2,0,L|212:92,1,60
176,76,73194,2,0,L|76:44,1,60
80,104,73886,1,0,0:0:0:0:
64,224,74348,5,0,0:0:0:0:
64,224,74579,2,0,L|120:252,1,60
176,248,75040,2,0,L|232:204,1,60
280,196,75502,2,0,L|356:228,1,60
392,240,75963,1,0,0:0:0:0:
392,240,76194,6,0,P|376:156|376:100,2,120,0|0|0,0:0|0:0|0:0,0:0:0:0:
280,284,77578,1,0,0:0:0:0:
124,192,78271,6,0,L|180:120,1,60
220,148,78732,2,0,P|332:164|364:152,1,120
296,52,79655,1,0,0:0:0:0:
396,120,80116,2,0,P|408:216|400:244,1,120
400,296,80809,1,0,0:0:0:0:
304,316,81270,2,0,P|216:296|120:320,1,180
96,264,82193,6,0,L|92:188,2,60,0|0|0,0:0|0:0|0:0,0:0:0:0:
132,312,82885,1,0,0:0:0:0:
272,208,83347,2,0,L|340:284,2,60,0|0|0,0:0|0:0|0:0,0:0:0:0:
160,164,84270,2,0,L|152:72,1,60
276,116,84962,5,0,0:0:0:0:
276,116,85193,2,0,P|360:124|444:124,1,120
428,76,85885,2,0,L|472:120,1,60
436,232,86577,2,0,P|324:220|300:216,1,120
264,248,87269,1,0,0:0:0:0:
136,268,87731,2,0,P|152:196|212:160,2,120,0|0|0,0:0|0:0|0:0,0:0:0:0:
252,292,89115,5,0,0:0:0:0:
252,292,89346,2,0,P|356:304|420:292,2,120,0|0|0,0:0|0:0|0:0,0:0:0:0:
472,180,90731,2,0,P|356:188|308:164,1,120,0|0,0:0|0:0,0:0:0:0:
332,132,91423,2,0,L|252:64,2,60,0|0|0,0:0|0:0|0:0,0:0:0:0:
276,240,92346,1,0,0:0:0:0:
196,328,92807,5,0,0:0:0:0:
196,328,93038,2,0,L|136:280,1,60
136,232,93500,2,0,L|168:164,1,60
148,120,93961,2,0,L|88:72,1,60
152,52,94422,6,0,L|252:36,2,60,0|0|0,0:0|0:0|0:0,0:0:0:0:
56,124,95345,2,0,P|176:152|284:84,1,240
300,148,97653,6,0,L|344:56,1,60
300,40,98114,2,0,P|196:40|136:20,2,120,0|0|0,0:0|0:0|0:0,0:0:0:0:
376,204,99960,6,0,L|288:160,1,60
264,180,100422,2,0,P|164:192|116:164,2,120,0|0|0,0:0|0:0|0:0,0:0:0:0:
204,76,101806,2,0,L|256:36,1,60
308,64,102268,1,0,0:0:0:0:
412,124,102729,1,0,0:0:0:0:
324,204,103191,1,0,0:0:0:0:
256,304,103652,6,0,L|176:272,1,60
140,288,104114,2,0,P|208:224|232:176,1,120
192,148,104806,2,0,L|156:84,1,60
284,96,105498,6,0,P|400:108|436:92,1,120,0|0,0:0|0:0,0:0:0:0:
440,60,106190,2,0,L|476:108,1,60
428,220,106883,1,0,0:0:0:0:
344,304,107344,6,0,P|232:308|200:288,1,120
172,284,108036,2,0,L|232:236,1,60
324,180,108729,5,0,0:0:0:0:
272,148,108959,1,0,0:0:0:0:
220,124,109190,1,0,0:0:0:0:
172,88,109421,2,0,P|236:52|248:32,2,60,0|0|0,0:0|0:0|0:0,0:0:0:0:
60,136,110344,6,0,P|52:60|56:44,1,60
96,40,110805,1,0,0:0:0:0:
168,136,111267,2,0,P|256:140|272:140,2,60,0|0|0,0:0|0:0|0:0,0:0:0:0:
48,136,112190,5,0,0:0:0:0:
48,196,112420,1,0,0:0:0:0:
48,256,112651,1,0,0:0:0:0:
148,320,113113,2,0,L|184:232,1,60
256,348,113805,1,0,0:0:0:0:
256,288,114036,5,0,0:0:0:0:
256,228,114266,1,0,0:0:0:0:
256,168,114497,1,0,0:0:0:0:
316,168,114728,2,0,P|404:136|456:96,1,120
352,28,115420,2,0,P|432:100|504:100,1,180
496,160,116343,6,0,P|464:240|480:296,1,120
436,320,117035,2,0,L|368:340,2,60,0|0|0,0:0|0:0|0:0,0:0:0:0:
376,216,117958,1,0,0:0:0:0:
256,192,118420,6,0,P|152:192|96:168,1,120
144,128,119112,2,0,P|248:132|272:124,1,120
312,164,119804,2,0,L|366:124,1,60
400,244,120496,5,0,0:0:0:0:
400,244,120727,2,0,P|340:276|236:256,2,120,0|0|0,0:0|0:0|0:0,0:0:0:0:
304,168,122112,2,0,P|232:100|188:24,2,180,0|0|0,0:0|0:0|0:0,0:0:0:0:
424,188,124419,5,0,0:0:0:0:
456,240,124649,1,0,0:0:0:0:
420,288,124880,1,0,0:0:0:0:
300,288,125342,1,0,0:0:0:0:
300,288,125803,2,0,P|208:256|96:268,2,180,0|0|0,0:0|0:0|0:0,0:0:0:0:
392,364,127649,6,0,P|420:296|396:220,1,120
300,296,128572,2,0,P|240:236|228:220,2,60,0|0|0,0:0|0:0|0:0,0:0:0:0:
316,176,129495,6,0,P|220:184|144:164,1,120
156,224,130188,2,0,P|204:120|196:52,1,180
256,56,131111,2,0,L|384:56,1,120
436,56,131803,1,0,0:0:0:0:
436,56,132264,1,0,0:0:0:0:
436,56,132726,1,0,0:0:0:0:
420,176,133187,6,0,L|280:120,1,120
256,108,133879,1,0,0:0:0:0:
76,116,134572,2,0,L|160:168,1,60
236,196,135264,5,0,0:0:0:0:
236,196,135495,2,0,P|356:172|388:184,2,120,0|0|0,0:0|0:0|0:0,0:0:0:0:
164,292,136879,6,0,P|256:284|336:296,1,120
344,280,137571,2,0,L|408:240,1,60
448,140,138264,2,0,P|344:152|316:180,2,120,0|0|0,0:0|0:0|0:0,0:0:0:0:
436,200,139417,2,0,L|412:260,1,60
256,192,140110,1,0,0:0:0:0:
256,192,140571,12,0,144263,0:0:0:0:
