osu file format v7

[General]
AudioFilename: 06_-_Taylor_Swift_-_You_Belong.mp3
AudioLeadIn: 0
PreviewTime: 51817
Countdown: 1
SampleSet: Soft
StackLeniency: 0.6
Mode: 0
LetterboxInBreaks: 1

[Editor]
Bookmarks: 19666
DistanceSpacing: 1.10000002384186
BeatDivisor: 4
GridSize: 16

[Metadata]
Title:You Belong With Me
Artist:Taylor Swift
Creator:Selectus
Version:Normal
Source:
Tags:

[Difficulty]
HPDrainRate:3
CircleSize:4
OverallDifficulty:3
SliderMultiplier:1.4
SliderTickRate:2

[Events]
//Background and Video events
0,0,"Taylor-Swift-taylor-swift-5129783-1024-768.jpg"
//Break Periods
2,34622,35520
2,49390,50519
2,64562,68979
2,112154,113283
//Storyboard Layer 0 (Background)
//Storyboard Layer 1 (Fail)
//Storyboard Layer 2 (Pass)
//Storyboard Layer 3 (Foreground)
//Storyboard Sound Samples
//Background Colour Transformations
3,100,163,162,255

[TimingPoints]
7655,461.502961310668,4,2,0,49,1,0
51959,-100,4,2,0,49,0,1
66727,-100,4,2,0,49,0,0
114723,-100,4,2,0,49,0,1
127184,-100,4,2,0,49,0,0
129030,-100,4,2,0,49,0,1
144259,-100,4,2,0,49,0,0

[Colours]
Combo1 : 255,128,0
Combo2 : 217,0,0
Combo3 : 192,192,192
Combo4 : 128,128,255

[HitObjects]
128,240,7655,5,0
208,112,8116,2,2,B|282:112|320:192,1,140
352,336,9039,2,2,B|400:336|416:304,1,70
464,240,9501,1,0
352,128,9962,1,0
192,128,10424,2,0,B|136:75,2,70
256,176,11116,1,4
128,256,11577,5,0
112,176,11808,2,0,B|112:128|48:128,2,70
144,336,12731,2,2,B|240:336|192:192|320:208,1,210
432,192,13885,1,0
320,80,14346,1,0
160,112,14808,1,4
96,256,15269,6,0,B|112:304|176:288,1,70
304,291,15962,1,0
304,291,16192,1,0
160,112,16885,2,0,B|176:48|64:96|64:16,2,140
160,192,18038,1,0
160,272,18269,1,8
320,272,18731,2,0,B|355:292|404:266,2,70
160,272,19654,2,0,B|128:256|79:276,2,70
240,144,20577,5,8
384,192,21038,1,0
384,192,21269,1,8
272,304,21730,1,0
272,304,21961,1,8
144,224,22423,5,0
208,80,22884,2,2,B|272:32|350:95,1,140
432,208,23807,1,0
304,304,24269,2,0,B|240:352,2,70
320,144,25192,2,0,B|304:80|192:112,1,140
128,128,25884,1,4
80,272,26345,6,0,L|16:208,2,70
144,304,27038,2,0,B|224:320|304:256,1,140
384,160,27961,2,0,B|352:80|240:80,1,140
128,80,28884,2,0,B|48:80|16:176,1,140
16,240,29576,2,0,B|64:320,1,70
112,240,30037,6,2,B|208:240,1,70
336,240,30730,2,0,B|416:240,2,70,2|0|2
176,240,31653,1,0
224,288,31883,1,2
368,336,32345,2,0,B|403:360|449:326,3,70
464,192,33499,1,8
192,64,34422,1,4
160,80,36960,6,0,B|121:37,2,35,0|0|0
272,192,37652,1,8
326,137,37883,2,0,B|358:105,2,35,0|0|0
208,240,38575,1,8
80,160,39037,5,0
96,240,39267,2,0,B|96:288|160:288,1,70,0|8
293,286,39960,2,0,B|341:286|341:238,1,70
340,168,40421,1,8
208,96,40883,5,0
64,160,41344,1,8
192,256,41806,1,0
192,256,42036,1,0
192,256,42267,1,8
64,160,42729,5,0
176,64,43190,2,0,B|208:32|272:96|320:64,1,140,8|0
384,64,43882,1,0
384,64,44113,1,8
384,224,44575,6,0,B|384:304|256:288,1,140,0|8
128,288,45498,1,0
80,144,45959,2,0,B|80:96|16:128|48:64,2,70,0|0|0
224,208,46882,2,0,B|238:159|192:96|304:112,1,140,0|0
432,112,47805,2,0,B|352:112,1,70,0|4
256,192,48267,12,0,49190
80,80,51959,5,2
240,80,52420,2,0,L|320:80|384:128,1,140,0|0
464,240,53343,2,0,B|432:272|496:288|448:320,2,70,0|0|0
464,80,54266,1,0
320,128,54728,1,0
256,160,54959,2,0,B|256:112|176:128,1,70,0|4
48,128,55651,5,2
48,288,56112,2,0,B|48:336|112:336,2,70
48,128,57035,2,0,B|48:80|112:80,2,70,0|0|0
48,288,57958,1,0
192,240,58420,2,0,B|272:208,1,70
320,176,58881,1,4
256,192,59343,12,4,60727
128,288,61650,6,0,B|80:288|64:224,2,70,0|8|0
208,288,62343,2,0,B|304:288,1,70,0|8
432,288,63035,1,0
352,96,63669,1,8
128,144,64362,1,4
368,288,70419,5,0
208,288,70880,2,2,B|128:304|96:192,1,140
80,64,71803,2,0,B|90:21|144:32,2,70,0|0|0
32,208,72726,1,0
176,144,73188,2,2,B|256:96,2,70
160,224,73880,1,4
304,272,74342,5,0
384,272,74573,2,0,B|384:320|448:304,2,70
368,112,75495,2,0,L|416:176,3,70
496,304,76650,1,0
336,304,77111,1,0
336,144,77573,1,4
160,288,78264,5,0
80,160,78726,2,0,B|80:128|32:128|32:80,2,70
224,96,79650,2,2,B|319:63|343:159,2,140
158,136,80803,1,0
32,208,81264,2,0,B|-16:176,2,35
240,288,82187,2,2,B|192:240|384:288|336:144,1,210,2|0
256,16,83342,1,0
96,32,83802,2,0,B|9:55|16:144,1,140,0|0
16,208,84495,1,0
64,272,84726,1,4
224,272,85188,5,0
304,144,85649,2,0,B|384:80|432:160,1,140
416,288,86572,1,0
304,288,87034,2,0,B|272:288|320:352|288:352,2,70
304,208,87725,1,0
304,53,88187,1,0
150,53,88648,1,4
64,176,89110,6,2,B|16:224,2,35
208,240,89803,2,0,B|288:256|368:192,2,140
64,174,91187,1,2
64,97,91417,1,0
144,112,91648,2,0,B|192:48|304:64,1,140
352,64,92341,2,2,B|400:16,2,35
400,128,92802,6,0,B|443:130|448:192,1,70
384,320,93495,2,0,B|416:336|432:288|464:320,2,70
224,320,94417,2,0,B|192:336|176:288|144:336,2,70
304,192,95340,1,8
304,192,95571,1,0
304,192,95802,1,8
192,96,96264,1,0
112,112,96494,6,0,B|96:160|112:192,1,70
144,336,97187,2,0,B|176:352|192:304|224:336,2,70
48,208,98109,1,0
128,224,98340,2,0,B|208:208,1,70
352,176,99032,1,8
352,176,99263,1,0
352,176,99494,1,8
297,121,99724,6,0,B|258:78,2,35
192,240,100416,1,8
246,294,100647,2,0,B|288:336,2,35
144,176,101339,1,8
256,80,101801,5,0
336,80,102031,2,0,B|384:80|384:128,1,70,2|8
416,272,102724,2,0,B|464:272|464:224,1,70
464,160,103185,1,8
336,80,103647,5,0
192,112,104108,1,8
288,224,104570,1,0
288,224,104801,1,0
288,224,105032,1,8
336,80,105493,5,0
192,112,105954,2,0,B|128:160|176:240,1,140
228,290,106646,1,8
229,291,106877,1,4
384,320,107339,6,0,B|416:288|336:224|384:176,1,140,0|8
384,32,108262,1,0
240,80,108723,2,0,B|240:32|176:64|208:0,2,70
352,192,109646,2,0,B|336:224|256:256|208:208,1,140,0|0
112,128,110569,2,0,B|62:121|48:192,1,70,0|4
256,192,111031,12,4,111954
80,80,114723,5,0
144,224,115184,2,2,B|192:304|288:272,1,140
416,256,116107,2,0,B|448:304|400:336,2,70
352,112,117030,1,0
256,240,117492,1,0
176,240,117723,2,0,B|128:240|128:192,1,70,0|4
128,48,118415,5,0
272,80,118877,2,2,B|352:80|336:192,1,140
336,256,119569,2,0,B|352:304|288:304,2,70
208,160,120492,1,0
160,96,120722,1,0
32,176,121184,2,2,B|112:128,1,70
160,96,121645,1,4
256,192,122107,12,4,123491
384,144,124414,6,0,B|384:96|320:80,2,70,0|8|0
384,224,125107,2,0,B|304:224,1,70,0|8
160,224,125799,1,0
352,320,126492,1,0
352,96,127184,1,4
256,192,127645,12,0,129030
80,80,129491,5,0
208,160,129952,2,2,B|192:224|272:144|352:208,1,140
480,208,130875,2,0,B|544:128,2,70
370,317,131798,1,0
240,224,132260,1,0
176,272,132491,2,0,B|128:272|128:224,1,70,0|4
112,80,133183,5,0
272,80,133645,2,2,B|272:160,2,70
272,240,134568,1,0
128,304,135029,1,0
272,240,135490,1,0
416,176,135952,2,0,B|416:256,1,70
416,320,136413,1,4
256,192,136875,12,4,138260
320,112,139183,6,0,B|416:112,2,70,0|8|0
160,112,140106,1,0
96,256,140567,2,0,B|96:320,2,35,8|0|8
256,240,141260,2,0,B|256:176,2,35,8|0|8
416,256,141952,2,0,B|416:320,2,35,8|0|8
416,32,142875,2,0,B|336:192|256:0|32:48|80:160,1,420,0|4
