osu file format v7

[General]
AudioFilename: 06_-_Taylor_Swift_-_You_Belong.mp3
AudioLeadIn: 0
PreviewTime: 51817
Countdown: 1
SampleSet: Soft
StackLeniency: 0.6
Mode: 0
LetterboxInBreaks: 1

[Editor]
Bookmarks: 19666
DistanceSpacing: 0.899999976158142
BeatDivisor: 6
GridSize: 16

[Metadata]
Title:You Belong With Me
Artist:Taylor Swift
Creator:Selectus
Version:Hard
Source:
Tags:

[Difficulty]
HPDrainRate:7
CircleSize:5
OverallDifficulty:7
SliderMultiplier:1.4
SliderTickRate:2

[Events]
//Background and Video events
0,0,"Taylor-Swift-taylor-swift-5129783-1024-768.jpg"
//Break Periods
2,48236,49444
2,66927,69519
2,111000,112208
//Storyboard Layer 0 (Background)
//Storyboard Layer 1 (Fail)
//Storyboard Layer 2 (Pass)
//Storyboard Layer 3 (Foreground)
Sprite,Foreground,Centre,"arrow.png",320,240 S,0,58432,58586,0.2560001,0.36 M,0,58432,59816,424,237 S,0,58586,58739,0.36,0.5199999 S,0,58739,58893,0.5199999,0.6799999 S,0,58893,59047,0.6799999,0.7839998 S,0,59047,59201,0.7839998,0.5759998 S,0,59201,59355,0.5759998,0.3919999 S,0,59355,59509,0.3919999,0.2800001 S,0,59509,59663,0.2800001,0.2080001 S,0,59663,59816,0.2080001,0.1
Sprite,Foreground,Centre,"speedup.png",320,240 S,0,111043,111505,0.1360002,0.44 M,0,111043,113795,320,240 S,0,111505,111966,0.44,0.9760001 S,0,111966,112428,0.9760001,1.536 S,0,112428,112889,1.536,0.7760003 S,0,112889,113351,0.7760003,0.2960003 S,0,113351,113812,0.2960003,0.1
Sprite,Foreground,Centre,"speedup.png",320,240 S,0,48279,48740,0.1759999,0.5599998 M,0,48279,51048,320,240 S,0,48740,49202,0.5599998,0.9439999 S,0,49202,49663,0.9439999,1.408 S,0,49663,50125,1.408,0.8239999 S,0,50125,50586,0.8239999,0.3679998 S,0,50586,51048,0.3679998,0.1
//Storyboard Sound Samples
//Background Colour Transformations
3,100,163,162,255

[TimingPoints]
7655,461.502961310668,4,2,0,49,1,0
51959,-50,4,2,0,49,0,1
66727,-100,4,2,0,49,0,0
114723,-50,4,2,0,49,0,1
127645,-100,4,2,0,49,0,0
129030,-50,4,2,0,49,0,1
144259,-50,4,2,0,49,0,0

[Colours]
Combo1 : 255,128,0
Combo2 : 217,0,0
Combo3 : 192,192,192
Combo4 : 128,128,255

[HitObjects]
96,288,7655,1,0
192,160,8116,2,2,B|208:112|256:112,1,70,0|0
304,160,8578,2,2,B|352:160|368:112,1,70,0|0
416,80,9039,1,0
464,144,9270,1,0
416,208,9501,1,0
304,304,9962,2,0,B|352:304|320:352|368:352,2,70
224,272,10654,1,0
144,288,10885,1,0
128,208,11116,1,4
272,144,11577,6,0,B|288:96|224:64,2,70
240,224,12270,1,0
176,272,12500,1,0
112,224,12731,2,0,B|176:144|64:144|16:64|80:48,1,210
224,80,13885,1,0
272,224,14346,1,0
416,288,14808,1,4
416,128,15269,6,2,B|416:80|352:64,1,70
224,32,15962,1,0
160,64,16192,1,0
96,288,16885,1,0
160,240,17115,1,0
96,288,17346,1,0
32,240,17577,2,2,B|32:192|64:176,1,70
112,128,18038,1,0
176,96,18269,1,4
328,56,18731,5,0
368,120,18961,2,0,B|432:120|416:168,2,70,2|0|2
288,120,19654,2,0,B|224:120|240:168,3,70,0|2|0|2
208,224,20577,5,0
352,288,21038,1,2
400,224,21269,1,0
320,96,21730,1,2
256,64,21961,1,4
112,112,22423,5,0
48,256,22884,2,2,B|16:288|64:336,2,70,0|0|0
160,160,23807,1,2
224,128,24038,1,0
288,160,24269,2,0,B|304:208|272:240,2,70
160,80,25192,1,2
96,128,25422,1,0
80,288,25884,2,0,B|32:288,2,35,0|0|0
144,288,26345,6,0,B|192:240|240:352|272:256,2,140
80,288,27499,2,0,B|20:223|96:145,1,140
80,160,28191,1,0
128,112,28422,2,0,B|192:64|264:112,2,140
80,160,29576,1,4
192,208,30037,6,0,B|208:176,2,35,2|0|2
272,80,30730,1,2
320,144,30960,1,2
96,80,31653,1,2
64,144,31883,1,2
160,272,32345,2,0,B|224:320|304:288,1,140
368,256,33037,1,2
256,160,33499,5,0
176,160,33729,2,0,B|176:192|96:176,2,70,2|0|2
176,80,34422,2,0,B|175:47|256:64,3,70,0|2|0|2
304,64,35345,1,0
432,144,35806,1,2
400,208,36037,1,0
240,208,36498,1,2
208,144,36729,1,4
144,176,36960,6,0,B|112:208|64:192,1,70
64,64,37652,1,8
128,32,37883,2,0,B|176:0,2,46.6666666666667,0|0|0
48,144,38575,1,8
144,272,39037,5,0
224,288,39267,2,0,B|272:304|304:240,1,70,0|8
336,208,39729,1,0
384,144,39960,2,0,B|416:112|446:147,1,70,0|0
480,208,40421,1,8
368,320,40883,5,0
304,272,41113,2,0,B|266:242|224:288,1,70,0|8
176,304,41575,1,0
112,336,41806,2,0,B|80:368|31:324,1,70
32,256,42267,1,8
80,112,42729,5,0
160,32,43190,1,8
224,64,43421,2,0,B|288:48,2,35
80,112,44113,1,8
112,256,44575,6,0,B|176:320|272:272,1,140,0|8
368,192,45498,1,4
272,64,45959,2,0,B|240:32|192:80,2,70,0|8|0
320,128,46652,1,8
240,144,46882,2,0,B|192:160|256:224,1,70,0|8
288,256,47344,1,0
352,208,47575,2,0,B|384:176|432:224,1,70,0|0
480,240,48036,1,12
256,208,50344,12,12,51497
352,112,51959,5,6
432,208,52190,1,2
352,304,52420,2,0,B|304:368|208:320,1,140,0|0
128,256,52882,1,2
64,144,53113,1,2
176,80,53343,2,0,B|208:32|272:128|320:48,2,140,0|0|0
64,144,54036,1,2
128,256,54266,1,2
240,320,54497,2,0,B|272:272|336:368|384:288,1,140
480,80,55189,1,4
240,160,55651,5,2
144,240,55882,1,2
256,304,56112,2,0,B|368:320|368:208,1,140
368,112,56574,1,2
256,64,56805,1,2
128,64,57035,2,0,B|64:80|128:160|48:176,2,140
256,64,57728,1,2
368,112,57958,1,2
400,240,58189,2,0,B|352:288|448:336|384:368,1,140
144,368,58881,1,4
256,176,59343,6,8,B|320:192|336:144|304:48|176:64|128:208|176:272|272:288|416:176|240:176,2,420
256,176,61650,5,2
128,144,61881,2,0,B|112:48|224:48,2,140
128,272,62573,1,2
368,336,63035,1,0
64,176,63669,1,2
416,48,64362,1,0
256,208,65342,12,0,66727
160,144,70419,5,0
272,272,70880,2,2,B|320:304|352:240,1,70
368,192,71342,2,2,B|406:162|441:209,1,70
432,272,71803,1,0
430,196,72034,1,0
432,112,72265,1,0
352,112,72496,2,2,B|320:144|256:112,1,70
144,80,73188,1,0
144,160,73419,1,0
16,128,73880,1,2
16,208,74111,6,0,B|32:224|-16:240|32:304,2,70
112,80,75034,1,0
176,32,75265,1,0
240,80,75495,1,0
176,128,75726,2,2,B|176:224,2,70
304,208,76649,1,0
176,304,77111,1,0
64,208,77572,1,4
256,80,78264,6,0,L|352:80|352:144,1,140
352,208,78957,1,0
352,288,79187,2,0,L|352:320|240:320,1,140
160,320,79880,1,0
80,320,80110,2,0,L|32:320|32:208,1,140
32,144,80803,1,0
80,80,81033,1,0
160,80,81264,2,2,L|208:32,2,35
64,288,82187,6,0,B|64:336|160:240|192:288,1,140
272,288,82879,1,0
272,288,83110,1,8
272,288,83341,1,0
272,208,83572,2,0,B|272:128,1,70,0|8
272,64,84033,2,0,B|352:64,2,70,0|0|0
192,64,84725,1,8
128,112,84956,1,0
192,160,85187,5,4
336,224,85649,1,0
224,320,86110,2,2,B|192:352|144:304,2,70,0|0|0
224,240,86802,1,0
224,160,87033,1,0
288,112,87264,1,0
336,176,87495,2,2,B|352:224|320:256,2,70
288,112,88187,1,0
224,80,88418,2,2,B|182:69|144:112,1,70,2|6
64,208,89110,6,0,B|16:256|128:224|160:304,2,140
112,144,90264,2,0,B|144:80|176:192|256:160,1,140
304,160,90956,1,0
352,224,91187,1,0
304,288,91417,1,0
352,224,91648,1,0
304,160,91879,1,0
176,64,92341,1,4
112,112,92571,5,0
112,192,92802,2,0,B|112:272,3,70
192,240,93725,1,0
256,288,93956,1,0
320,240,94186,1,0
384,192,94417,1,0
336,128,94648,1,0
272,80,94879,1,0
128,128,95340,1,0
128,128,95571,1,8
128,128,95802,1,0
160,192,96032,1,0
208,256,96263,2,0,B|304:272|352:192,1,140,4|0
400,160,96955,5,0
448,96,97186,1,0
400,32,97417,1,0
352,96,97648,1,0
304,32,97878,1,0
256,96,98109,1,0
96,96,98571,5,0
96,96,98801,1,8
96,96,99032,1,0
16,112,99263,1,0
48,176,99494,1,4
96,240,99724,6,0,B|112:272|176:272,1,70
304,288,100416,1,8
368,256,100647,2,0,B|416:224,2,35
224,320,101339,1,8
112,224,101801,5,0
176,176,102031,2,0,B|224:192|240:112,1,70,0|8
256,64,102493,1,0
336,32,102724,2,0,B|362:5|400:32,1,70
464,64,103185,1,8
416,224,103647,5,0
336,256,103877,2,0,B|256:288,1,70,0|8
192,304,104339,1,0
112,320,104570,2,0,B|112:240,1,70
112,176,105031,1,8
256,112,105493,5,0
400,160,105954,1,8
416,80,106185,2,0,B|480:64,2,35
256,112,106877,1,8
160,224,107339,6,0,B|192:192|256:288|288:224,1,140,0|8
320,80,108262,1,2
176,48,108723,2,0,B|138:17|96:64,2,70,0|8|0
176,128,109416,1,0
112,176,109646,2,0,B|65:198|128:256,1,70,0|8
176,272,110108,1,0
240,224,110339,2,0,B|268:192|315:236,1,70,0|0
352,272,110800,1,12
256,208,113108,12,12,114262
80,304,114723,5,2
80,176,114954,1,2
176,96,115184,2,0,B|272:64|320:144,1,140
400,208,115646,1,2
320,304,115877,1,2
192,304,116107,2,0,B|144:256|112:352|32:288,2,140
320,304,116800,1,2
400,208,117030,1,2
288,160,117261,2,0,B|336:112|224:64|320:16,1,140
192,256,117953,1,4
384,80,118415,5,2
256,80,118646,1,2
128,80,118876,2,0,L|80:80|80:192,1,140,0|0
80,304,119338,1,2
192,256,119569,1,2
304,208,119799,2,0,B|384:208|272:304|384:304,2,140
192,160,120492,1,2
80,112,120722,1,2
80,240,120953,2,0,B|32:288|128:336|64:368,1,140
272,224,121645,1,4
448,48,122107,6,6,B|320:128|240:-32|160:64,1,280
112,144,122799,2,2,B|192:96|256:240|384:176,1,280
496,128,123492,1,4
32,336,124415,5,0
160,336,124646,2,0,B|272:352|272:256,1,140,8|0
272,160,125107,1,8
160,96,125338,2,0,B|128:80|144:128|80:128,2,70,8|0|8
272,48,125799,1,0
384,96,126030,1,8
464,192,126261,1,8
416,304,126492,2,0,B|384:352|336:272|256:336,1,140,0|8
32,304,127184,1,6
256,192,127645,1,4
256,208,128107,12,0,129030
112,80,129491,5,2
128,208,129722,2,0,B|224:192|224:320,1,140,2|0
336,224,130184,1,0
256,128,130414,1,2
304,16,130645,1,2
416,80,130876,2,0,B|368:112|480:160|416:224,1,140
336,288,131337,1,2
208,288,131568,1,2
160,176,131799,1,0
272,112,132030,1,0
368,192,132260,2,0,B|368:288|256:288,2,140,2|0|2
160,48,133183,5,2
64,128,133414,2,0,B|32:208|112:256,1,140,2|0
208,320,133876,1,0
103,250,134106,1,2
64,128,134337,1,2
160,48,134568,2,0,B|208:80|240:16|304:48,2,140
32,48,135260,1,2
144,112,135491,1,0
32,176,135722,1,0
144,224,135952,2,0,B|64:256|48:320,2,140,0|2|0
384,128,136875,6,8,B|576:224|496:64|384:304,1,280
272,320,137567,2,8,B|176:352|224:128|80:304|64:176|96:144,1,280
160,32,138260,1,4
416,80,138721,5,8
368,192,138952,2,0,B|416:128|480:208|496:112,2,140
288,288,139644,2,0,B|256:288|272:336|224:336,2,70,8|0|8
256,160,140105,1,8
64,320,140567,1,2
416,192,141260,1,2
64,80,141951,1,6
256,208,142413,12,6,144259
