osu file format v7

[General]
AudioFilename: 06_-_Taylor_Swift_-_You_Belong.mp3
AudioLeadIn: 0
PreviewTime: 51817
Countdown: 1
SampleSet: Soft
StackLeniency: 0.6
Mode: 0
LetterboxInBreaks: 1

[Editor]
DistanceSpacing: 0.899999976158142
BeatDivisor: 4
GridSize: 16

[Metadata]
Title:You Belong With Me
Artist:Taylor Swift
Creator:Selectus
Version:Easy
Source:
Tags:

[Difficulty]
HPDrainRate:1
CircleSize:3
OverallDifficulty:1
SliderMultiplier:1.4
SliderTickRate:2

[Events]
//Background and Video events
0,0,"Taylor-Swift-taylor-swift-5129783-1024-768.jpg"
//Break Periods
2,35085,35513
2,48237,50281
2,64621,68741
2,111001,113045
2,127385,127813
//Storyboard Layer 0 (Background)
//Storyboard Layer 1 (Fail)
//Storyboard Layer 2 (Pass)
//Storyboard Layer 3 (Foreground)
//Storyboard Sound Samples
//Background Colour Transformations
3,100,163,162,255

[TimingPoints]
7655,461.502961310668,4,2,0,49,1,0
51959,-100,4,2,0,49,0,1
64419,-100,4,2,0,49,0,0
114723,-100,4,2,0,49,0,1
127184,-100,4,2,0,49,0,0
129490,461.502961310668,4,2,0,49,1,1
144258,-100,4,2,0,49,0,0

[Colours]
Combo1 : 255,128,0
Combo2 : 217,0,0
Combo3 : 192,192,192
Combo4 : 128,128,255

[HitObjects]
400,288,7655,5,0
310,198,8118,2,0,L|208:91,2,140
400,288,9503,1,0
272,288,9964,2,0,L|112:288,1,140
80,176,10887,2,0,L|240:176,1,140
352,176,11810,5,0
352,48,12272,1,0
224,48,12733,1,0
98,48,13193,2,0,B|32:96|64:192,1,140
96,288,14116,1,0
224,288,14577,1,0
160,176,15041,1,0
208,64,15502,6,0,B|288:64|336:160,1,140
464,336,16887,1,0
336,336,17348,2,0,B|176:336,1,140
128,336,18040,1,0
64,336,18271,1,0
64,208,18733,2,0,B|224:208,1,140
208,80,19656,2,0,B|64:80,1,140
64,208,20579,6,0,B|64:304,2,70
64,80,21502,2,0,B|64:-16,2,70
176,144,22425,5,0
304,144,22886,2,0,B|464:144,1,140
448,272,23809,2,0,B|288:272,1,140
176,272,24732,1,0
48,272,25194,2,0,B|48:352,2,70
48,144,26117,1,0
176,144,26578,6,0,B|224:112|272:176|320:144,1,140
416,80,27501,1,0
416,208,27963,1,0
416,336,28424,2,0,B|320:336,3,70
224,336,29578,1,0
48,288,30270,6,0,B|48:208|128:176,1,140
352,96,31655,1,0
224,128,32116,1,0
112,64,32578,1,0
48,176,33039,1,0
112,288,33501,2,0,B|160:256|224:320|256:272,1,140
320,176,34424,2,0,B|288:144|224:192|160:160,1,140
432,80,37193,6,0,B|400:112|464:176|416:224,1,140,0|8
352,320,38116,2,0,B|256:320,2,70,0|0|8
320,192,39039,6,0,B|256:192|272:128|176:160,1,140,0|8
80,208,39962,2,0,B|16:144,2,70,0|0|8
144,320,40885,6,0,B|176:288|256:352|304:304,1,140,0|8
368,240,41808,2,0,B|448:304,2,70,0|0|8
400,112,42731,6,0,B|336:64|256:118,3,140,0|8|0|8
160,192,44577,5,0
288,224,45038,2,2,B|384:224,2,70,8|0|0
272,352,45961,2,0,B|240:320|144:384|112:336,1,140,8|0
16,320,46884,2,0,B|-16:288|48:192|16:160,1,140,8|0
16,64,47807,2,0,B|96:64,1,70,0|4
384,64,51961,6,0,L|304:64|304:128,1,140
304,256,52884,1,0
208,176,53345,2,0,L|144:128,2,70
304,256,54268,1,0
400,176,54730,2,0,L|464:128,2,70
272,176,55653,6,0,L|128:176,1,140
0,176,56576,1,0
80,80,57037,2,0,L|16:32,2,70
176,160,57960,1,0
272,80,58422,2,0,L|336:32,2,70
368,160,59345,6,0,B|400:224|224:320|128:272,1,280
64,192,60729,2,0,B|16:112,2,70
160,272,61652,1,0
256,192,62114,1,0
352,272,62575,1,0
336,144,63037,2,0,C|336:32|250:67|160:32|160:160,1,420
96,96,70421,5,0
208,160,70882,2,0,C|304:160,2,70
96,224,71805,2,0,B|96:304|192:304,1,140
320,304,72728,1,0
432,240,73190,2,0,B|432:96,2,140
320,176,74574,6,0,B|304:208|224:144|192:160|192:192,1,140
80,96,75497,1,0
192,64,75959,2,0,B|192:16|320:96|320:48,3,140
464,32,77805,1,0
464,160,78266,6,0,B|464:304,1,140
337,300,79189,1,0
210,300,79651,2,0,B|50:300,1,140
70,173,80574,1,0
112,128,80805,1,0
144,80,81035,2,0,B|288:80,1,140
416,80,81958,5,8
368,192,82420,1,0
304,304,82881,1,8
224,208,83343,1,0
160,96,83804,1,8
48,144,84266,2,0,B|48:240,2,70,0|0|8
112,256,85189,5,0
224,320,85651,2,0,B|336:208,1,140
400,128,86574,1,0
288,64,87035,2,0,B|112:64,1,140
16,64,87958,2,0,B|16:160,3,70
16,320,89343,5,0
112,240,89805,2,0,B|272:240,1,140
336,336,90728,1,0
384,224,91189,2,0,B|384:64,1,140
256,80,92112,2,0,B|112:80,1,140
16,144,93035,5,8
240,256,93958,1,8
464,144,94881,1,8
416,256,95342,2,0,B|448:256|448:320|480:320,2,70,0|0|8
224,80,96727,5,8
96,288,97650,1,8
352,288,98573,1,8
352,160,99034,2,0,B|429:103,2,70,0|0|8
240,208,99957,6,0,B|240:128|128:128,1,140,0|8
16,128,100880,2,0,B|16:32,2,70,0|0|8
16,256,101803,6,0,B|160:256,1,140,0|8
288,256,102726,2,0,B|288:336,2,70,0|0|8
272,128,103649,6,0,B|208:64|128:144,1,140,0|8
80,240,104572,2,0,B|-16:240,2,70,0|0|8
208,240,105495,6,0,B|277:272|364:235,3,140,0|8|0|8
432,160,107341,5,0
320,112,107802,2,2,B|320:32,2,70,8|0|0
320,240,108725,2,0,B|288:272|208:208|176:256,1,140,8|0
64,256,109648,2,0,B|32:224|96:128|64:96,1,140,0|0
144,16,110571,2,0,B|224:16,1,70,0|4
384,64,114725,6,0,L|384:128|304:128,1,140
176,128,115648,1,0
72,55,116109,2,0,L|16:0,2,70
176,128,117032,1,0
265,217,117494,2,0,L|329:281,2,70
272,96,118417,6,0,L|336:64|416:112,1,140
448,208,119340,1,0
448,208,119801,2,0,L|448:288,2,70
448,80,120724,1,0
320,80,121186,2,0,L|320:0,2,70
320,208,122109,6,0,B|352:272|176:368|80:320,1,280
64,208,123493,2,0,B|64:128,2,70
144,112,124416,1,0
240,16,124878,1,0
352,80,125339,1,0
416,192,125801,2,0,C|400:320|331:287|256:320|240:176,1,420
384,64,129493,6,0,L|256:160,1,140
176,224,130416,1,0
80,144,130877,2,0,L|24:89,2,70
176,224,131800,1,0
272,304,132262,2,0,L|336:368,2,70
368,224,133185,6,0,L|432:224|368:144,1,140
288,80,134108,1,0
160,80,134569,2,0,L|112:0,2,70
224,192,135492,1,0
272,304,135954,2,0,L|304:368,2,70
368,208,136877,6,0,B|272:144|160:176|142:277,1,280
272,304,138261,2,0,B|368:304,2,70
144,272,139184,1,0
80,160,139646,1,0
160,64,140107,1,0
240,160,140569,2,0,C|352:160|304:240|359:300|224:304,1,420
448,160,142877,6,0,B|448:304,1,140
320,304,143800,2,0,B|224:304,1,70
192,304,144258,1,4
