osu file format v12

[General]
AudioFilename: Happy Birthday Kenezz.mp3
AudioLeadIn: 2000
PreviewTime: 114039
Countdown: 0
SampleSet: Normal
StackLeniency: 0.7
Mode: 1
LetterboxInBreaks: 0

[Editor]
DistanceSpacing: 0
BeatDivisor: 4
GridSize: 8

[Metadata]
Title:You Belong With Me
TitleUnicode:You Belong With Me
Artist:Taylor Swift
ArtistUnicode:Taylor Swift
Creator:ErufenRito
Version:Taiko Oni
Source:
Tags:Verdisphena aabc271 DaxMasterix
BeatmapID:171615
BeatmapSetID:46266

[Difficulty]
HPDrainRate:4
CircleSize:6
OverallDifficulty:5
ApproachRate:7
SliderMultiplier:1.4
SliderTickRate:1

[Events]
//Background and Video events
0,0,"Kenezz so kawaii.jpg",0,0
//Break Periods
//Storyboard Layer 0 (Background)
//Storyboard Layer 1 (Fail)
//Storyboard Layer 2 (Pass)
//Storyboard Layer 3 (Foreground)
//Storyboard Sound Samples
//Background Colour Transformations
3,100,0,0,0

[TimingPoints]
280,461.485213244626,4,2,1,80,1,0
280,-111.111111111111,4,2,1,70,0,0
7663,-100,4,1,1,60,0,0
22431,-100,4,1,1,65,0,0
37198,-100,4,1,1,70,0,0
51966,-90.9090909090909,4,1,1,90,0,1
63041,-90.9090909090909,4,1,1,90,0,0
63272,-100,4,1,1,60,0,0
85193,-100,4,1,1,65,0,0
99960,-100,4,1,1,70,0,0
114728,-90.9090909090909,4,1,1,90,0,1
129495,-90.9090909090909,4,1,1,90,0,1
144263,-90.9090909090909,4,1,1,90,0,0
144724,-92.5925925925926,4,1,1,80,0,0
145186,-94.3396226415094,4,1,1,80,0,0
145417,-95.2380952380952,4,1,1,80,0,0
145647,-96.1538461538461,4,1,1,80,0,0
146109,-98.0392156862745,4,1,1,80,0,0
146570,-100,4,1,1,80,0,0
172183,-100,4,2,1,80,0,0
173106,-100,4,2,1,40,0,0
175644,-111.111111111111,4,2,1,70,0,0
186258,-111.111111111111,4,1,1,90,0,0
190411,-90.9090909090909,4,1,1,90,0,1
205149,461.485213244626,4,1,1,90,1,0
205149,-90.9090909090909,4,1,1,90,0,0
205610,-92.5925925925926,4,1,1,80,0,0
206071,-94.3396226415094,4,1,1,80,0,0
206302,-95.2380952380952,4,1,1,80,0,0
206533,-96.1538461538461,4,1,1,80,0,0
206994,-98.0392156862745,4,1,1,80,0,0
207456,-100,4,1,1,80,0,0
210715,461.485213244626,4,1,1,80,1,0

[Colours]
Combo1 : 68,208,255
Combo2 : 255,66,2

[HitObjects]
256,192,280,1,0,0:0:0:0:
256,192,741,5,2,0:0:0:0:
256,192,1664,1,2,0:0:0:0:
256,192,2587,1,2,0:0:0:0:
256,192,3048,5,0,0:0:0:0:
256,192,3510,5,2,0:0:0:0:
256,192,3971,5,0,0:0:0:0:
256,192,4433,5,2,0:0:0:0:
256,192,5356,1,2,0:0:0:0:
256,192,6279,1,2,0:0:0:0:
256,192,6740,5,0,0:0:0:0:
256,192,7202,5,2,0:0:0:0:
256,192,7663,5,0,0:0:0:0:
256,192,8125,5,8,0:0:0:0:
256,192,8586,5,0,0:0:0:0:
256,192,8817,1,0,0:0:0:0:
256,192,9048,5,8,0:0:0:0:
256,192,9509,5,0,0:0:0:0:
256,192,9971,5,8,0:0:0:0:
256,192,10432,5,0,0:0:0:0:
256,192,10663,5,8,0:0:0:0:
256,192,11124,5,0,0:0:0:0:
256,192,11586,1,0,0:0:0:0:
256,192,11817,5,8,0:0:0:0:
256,192,12278,1,8,0:0:0:0:
256,192,12509,1,8,0:0:0:0:
256,192,12740,5,0,0:0:0:0:
256,192,13201,5,8,0:0:0:0:
256,192,13432,5,0,0:0:0:0:
256,192,13893,1,0,0:0:0:0:
256,192,14355,5,8,0:0:0:0:
256,192,14816,5,0,0:0:0:0:
256,192,15047,1,0,0:0:0:0:
256,192,15509,5,8,0:0:0:0:
256,192,15970,1,8,0:0:0:0:
256,192,16201,5,0,0:0:0:0:
256,192,16431,1,0,0:0:0:0:
256,192,16893,1,0,0:0:0:0:
256,192,17124,5,8,0:0:0:0:
256,192,17354,5,0,0:0:0:0:
256,192,17585,5,8,0:0:0:0:
256,192,18047,1,8,0:0:0:0:
256,192,18277,5,0,0:0:0:0:
256,192,18739,1,0,0:0:0:0:
256,192,19200,5,8,0:0:0:0:
256,192,19662,5,0,0:0:0:0:
256,192,19893,1,0,0:0:0:0:
256,192,20123,5,8,0:0:0:0:
256,192,20585,5,0,0:0:0:0:
256,192,21046,5,8,0:0:0:0:
256,192,21277,5,0,0:0:0:0:
256,192,21392,1,0,0:0:0:0:
256,192,21508,1,0,0:0:0:0:
256,192,21739,5,8,0:0:0:0:
256,192,21969,1,8,0:0:0:0:
256,192,22431,5,0,0:0:0:0:
256,192,22892,5,8,0:0:0:0:
256,192,23123,5,0,0:0:0:0:
256,192,23238,1,0,0:0:0:0:
256,192,23354,1,0,0:0:0:0:
256,192,23815,5,8,0:0:0:0:
256,192,24046,5,0,0:0:0:0:
256,192,24161,1,0,0:0:0:0:
256,192,24277,1,0,0:0:0:0:
256,192,24507,1,0,0:0:0:0:
256,192,24738,5,8,0:0:0:0:
256,192,24969,5,0,0:0:0:0:
256,192,25200,1,0,0:0:0:0:
256,192,25430,5,8,0:0:0:0:
256,192,25661,1,8,0:0:0:0:
256,192,25892,5,0,0:0:0:0:
256,192,26353,1,0,0:0:0:0:
256,192,26584,5,8,0:0:0:0:
256,192,26815,1,8,0:0:0:0:
256,192,26930,1,8,0:0:0:0:
256,192,27046,5,0,0:0:0:0:
256,192,27276,5,8,0:0:0:0:
256,192,27507,5,0,0:0:0:0:
256,192,27969,5,8,0:0:0:0:
256,192,28199,1,8,0:0:0:0:
256,192,28430,5,0,0:0:0:0:
256,192,28661,1,0,0:0:0:0:
256,192,28892,1,0,0:0:0:0:
256,192,29122,5,8,0:0:0:0:
256,192,29238,1,8,0:0:0:0:
256,192,29353,1,8,0:0:0:0:
256,192,29584,5,0,0:0:0:0:
256,192,30045,1,0,0:0:0:0:
256,192,30276,5,8,0:0:0:0:
256,192,30507,1,8,0:0:0:0:
256,192,30622,1,8,0:0:0:0:
256,192,30738,5,0,0:0:0:0:
256,192,30968,5,8,0:0:0:0:
256,192,31199,5,0,0:0:0:0:
256,192,31660,1,0,0:0:0:0:
256,192,31891,5,8,0:0:0:0:
256,192,32122,5,0,0:0:0:0:
256,192,32353,5,8,0:0:0:0:
256,192,32814,1,8,0:0:0:0:
256,192,33045,5,0,0:0:0:0:
256,192,33506,1,0,0:0:0:0:
256,192,33737,1,0,0:0:0:0:
256,192,33853,1,0,0:0:0:0:
256,192,33968,5,8,0:0:0:0:
256,192,34199,5,0,0:0:0:0:
256,192,34429,1,0,0:0:0:0:
256,192,34660,5,8,0:0:0:0:
256,192,34891,5,0,0:0:0:0:
256,192,35122,5,8,0:0:0:0:
256,192,35352,5,0,0:0:0:0:
256,192,35583,1,0,0:0:0:0:
256,192,35698,1,0,0:0:0:0:
256,192,35814,5,8,0:0:0:0:
256,192,36045,1,8,0:0:0:0:
256,192,36275,5,0,0:0:0:0:
256,192,36506,5,8,0:0:0:0:
256,192,36737,1,8,0:0:0:0:
256,192,37198,5,4,0:0:0:0:
256,192,37660,5,8,0:0:0:0:
256,192,37891,5,0,0:0:0:0:
256,192,38121,5,8,0:0:0:0:
256,192,38583,5,0,0:0:0:0:
256,192,39044,1,4,0:0:0:0:
256,192,39506,5,8,0:0:0:0:
256,192,39736,5,0,0:0:0:0:
256,192,39967,5,8,0:0:0:0:
256,192,40198,5,0,0:0:0:0:
256,192,40429,5,8,0:0:0:0:
256,192,40890,5,4,0:0:0:0:
256,192,41352,5,8,0:0:0:0:
256,192,41582,5,0,0:0:0:0:
256,192,41813,5,8,0:0:0:0:
256,192,42044,1,8,0:0:0:0:
256,192,42275,5,0,0:0:0:0:
256,192,42736,5,12,0:0:0:0:
256,192,42967,5,0,0:0:0:0:
256,192,43198,5,8,0:0:0:0:
256,192,43428,1,8,0:0:0:0:
256,192,43659,5,0,0:0:0:0:
256,192,43890,5,8,0:0:0:0:
256,192,44121,5,0,0:0:0:0:
256,192,44582,1,0,0:0:0:0:
256,192,44813,5,8,0:0:0:0:
256,192,44928,1,8,0:0:0:0:
256,192,45044,1,8,0:0:0:0:
256,192,45274,5,0,0:0:0:0:
256,192,45505,5,8,0:0:0:0:
256,192,45967,5,0,0:0:0:0:
256,192,46197,1,0,0:0:0:0:
256,192,46428,1,0,0:0:0:0:
256,192,46659,5,8,0:0:0:0:
256,192,46774,1,8,0:0:0:0:
256,192,46890,5,0,0:0:0:0:
256,192,47120,5,8,0:0:0:0:
256,192,47582,5,0,0:0:0:0:
256,192,47812,5,8,0:0:0:0:
256,192,48043,5,0,0:0:0:0:
256,192,48274,5,12,0:0:0:0:
256,192,48966,5,0,0:0:0:0:
256,192,49197,1,0,0:0:0:0:
256,192,50120,1,0,0:0:0:0:
256,192,51043,1,0,0:0:0:0:
256,192,51274,1,0,0:0:0:0:
256,192,51504,5,8,0:0:0:0:
256,192,51620,1,8,0:0:0:0:
256,192,51735,5,0,0:0:0:0:
256,192,51966,5,12,0:0:0:0:
256,192,52197,5,0,0:0:0:0:
256,192,52312,1,0,0:0:0:0:
256,192,52427,1,0,0:0:0:0:
256,192,52658,5,8,0:0:0:0:
256,192,52889,5,0,0:0:0:0:
256,192,53120,1,0,0:0:0:0:
256,192,53350,5,8,0:0:0:0:
256,192,53466,1,8,0:0:0:0:
256,192,53581,5,0,0:0:0:0:
256,192,53812,1,0,0:0:0:0:
256,192,54043,1,0,0:0:0:0:
256,192,54158,1,0,0:0:0:0:
256,192,54273,5,8,0:0:0:0:
256,192,54504,1,8,0:0:0:0:
256,192,54735,5,0,0:0:0:0:
256,192,54965,1,0,0:0:0:0:
256,192,55196,5,8,0:0:0:0:
256,192,55658,1,8,0:0:0:0:
256,192,55888,5,0,0:0:0:0:
256,192,56004,1,0,0:0:0:0:
256,192,56119,1,0,0:0:0:0:
256,192,56350,5,8,0:0:0:0:
256,192,56581,5,0,0:0:0:0:
256,192,56811,1,0,0:0:0:0:
256,192,57042,5,8,0:0:0:0:
256,192,57158,1,8,0:0:0:0:
256,192,57273,5,0,0:0:0:0:
256,192,57504,1,0,0:0:0:0:
256,192,57734,1,0,0:0:0:0:
256,192,57850,1,0,0:0:0:0:
256,192,57965,5,8,0:0:0:0:
256,192,58196,1,8,0:0:0:0:
256,192,58427,5,0,0:0:0:0:
256,192,58542,1,0,0:0:0:0:
256,192,58657,1,0,0:0:0:0:
256,192,58773,1,0,0:0:0:0:
256,192,58888,5,8,0:0:0:0:
256,192,59350,1,12,0:0:0:0:
256,192,59811,1,8,0:0:0:0:
256,192,60042,5,0,0:0:0:0:
256,192,60503,1,0,0:0:0:0:
256,192,60734,5,8,0:0:0:0:
256,192,61196,5,0,0:0:0:0:
256,192,61426,1,0,0:0:0:0:
256,192,61657,5,8,0:0:0:0:
256,192,61888,1,8,0:0:0:0:
256,192,62119,1,8,0:0:0:0:
256,192,62349,5,0,0:0:0:0:
256,192,62580,1,0,0:0:0:0:
256,192,62811,1,0,0:0:0:0:
256,192,62926,1,0,0:0:0:0:
256,192,63041,5,8,0:0:0:0:
256,192,65810,1,8,0:0:0:0:
256,192,66272,5,0,0:0:0:0:
256,192,66733,1,0,0:0:0:0:
256,192,66964,1,0,0:0:0:0:
256,192,67195,5,8,0:0:0:0:
256,192,67426,1,8,0:0:0:0:
256,192,67656,5,0,0:0:0:0:
256,192,67887,1,0,0:0:0:0:
256,192,68118,5,8,0:0:0:0:
256,192,68349,5,0,0:0:0:0:
256,192,68810,1,0,0:0:0:0:
256,192,69041,5,8,0:0:0:0:
256,192,69272,1,8,0:0:0:0:
256,192,69502,5,0,0:0:0:0:
256,192,69733,1,0,0:0:0:0:
256,192,69964,5,8,0:0:0:0:
256,192,70425,5,0,0:0:0:0:
256,192,70887,5,8,0:0:0:0:
256,192,71117,5,0,0:0:0:0:
256,192,71233,1,0,0:0:0:0:
256,192,71348,1,0,0:0:0:0:
256,192,71810,5,8,0:0:0:0:
256,192,72040,5,0,0:0:0:0:
256,192,72156,1,0,0:0:0:0:
256,192,72271,1,0,0:0:0:0:
256,192,72502,1,0,0:0:0:0:
256,192,72733,5,8,0:0:0:0:
256,192,72963,5,0,0:0:0:0:
256,192,73194,1,0,0:0:0:0:
256,192,73425,5,8,0:0:0:0:
256,192,73656,1,8,0:0:0:0:
256,192,73886,5,0,0:0:0:0:
256,192,74348,1,0,0:0:0:0:
256,192,74579,5,8,0:0:0:0:
256,192,74809,1,8,0:0:0:0:
256,192,74925,1,8,0:0:0:0:
256,192,75040,5,0,0:0:0:0:
256,192,75271,5,8,0:0:0:0:
256,192,75502,5,0,0:0:0:0:
256,192,75732,1,0,0:0:0:0:
256,192,75963,5,8,0:0:0:0:
256,192,76194,5,0,0:0:0:0:
256,192,76655,1,0,0:0:0:0:
256,192,77117,5,8,0:0:0:0:
256,192,77578,5,0,0:0:0:0:
256,192,77809,1,0,0:0:0:0:
256,192,78040,1,0,0:0:0:0:
256,192,78155,1,0,0:0:0:0:
256,192,78271,5,8,0:0:0:0:
256,192,78501,5,0,0:0:0:0:
256,192,78732,5,8,0:0:0:0:
256,192,78963,5,0,0:0:0:0:
256,192,79193,5,8,0:0:0:0:
256,192,79655,1,8,0:0:0:0:
256,192,79886,5,0,0:0:0:0:
256,192,80116,5,8,0:0:0:0:
256,192,80347,5,0,0:0:0:0:
256,192,80463,1,0,0:0:0:0:
256,192,80578,1,0,0:0:0:0:
256,192,80809,1,0,0:0:0:0:
256,192,81039,5,8,0:0:0:0:
256,192,81270,1,8,0:0:0:0:
256,192,81732,5,0,0:0:0:0:
256,192,81962,1,0,0:0:0:0:
256,192,82193,5,8,0:0:0:0:
256,192,82424,1,8,0:0:0:0:
256,192,82655,1,8,0:0:0:0:
256,192,82885,5,0,0:0:0:0:
256,192,83347,2,0,B|256:0|512:0|512:192,1,420
256,192,84962,5,8,0:0:0:0:
256,192,85193,1,12,0:0:0:0:
256,192,85654,5,0,0:0:0:0:
256,192,85885,1,0,0:0:0:0:
256,192,86116,1,0,0:0:0:0:
256,192,86577,1,0,0:0:0:0:
256,192,86808,1,0,0:0:0:0:
256,192,86923,1,0,0:0:0:0:
256,192,87039,5,8,0:0:0:0:
256,192,87269,5,0,0:0:0:0:
256,192,87731,1,0,0:0:0:0:
256,192,87962,1,0,0:0:0:0:
256,192,88192,5,8,0:0:0:0:
256,192,88654,5,0,0:0:0:0:
256,192,89115,1,0,0:0:0:0:
256,192,89346,5,8,0:0:0:0:
256,192,89577,1,8,0:0:0:0:
256,192,89692,1,8,0:0:0:0:
256,192,89808,5,0,0:0:0:0:
256,192,90038,5,8,0:0:0:0:
256,192,90269,5,0,0:0:0:0:
256,192,90500,1,0,0:0:0:0:
256,192,90731,5,8,0:0:0:0:
256,192,91192,5,0,0:0:0:0:
256,192,91423,1,0,0:0:0:0:
256,192,91654,1,0,0:0:0:0:
256,192,91884,5,8,0:0:0:0:
256,192,92000,1,8,0:0:0:0:
256,192,92115,1,8,0:0:0:0:
256,192,92346,5,0,0:0:0:0:
256,192,92807,1,0,0:0:0:0:
256,192,93038,5,8,0:0:0:0:
256,192,93269,5,0,0:0:0:0:
256,192,93384,1,0,0:0:0:0:
256,192,93500,1,0,0:0:0:0:
256,192,93730,1,0,0:0:0:0:
256,192,93961,5,8,0:0:0:0:
256,192,94192,1,8,0:0:0:0:
256,192,94422,5,0,0:0:0:0:
256,192,94653,1,0,0:0:0:0:
256,192,94884,5,8,0:0:0:0:
256,192,95345,1,12,0:0:0:0:
256,192,95807,5,0,0:0:0:0:
256,192,96268,1,0,0:0:0:0:
256,192,96499,1,0,0:0:0:0:
256,192,96615,1,0,0:0:0:0:
256,192,96730,1,0,0:0:0:0:
256,192,96961,5,8,0:0:0:0:
256,192,97191,5,0,0:0:0:0:
256,192,97422,1,0,0:0:0:0:
256,192,97653,5,8,0:0:0:0:
256,192,97884,1,8,0:0:0:0:
256,192,98114,5,0,0:0:0:0:
256,192,98345,1,0,0:0:0:0:
256,192,98460,1,0,0:0:0:0:
256,192,98576,5,8,0:0:0:0:
256,192,99037,1,12,0:0:0:0:
256,192,99499,1,8,0:0:0:0:
256,192,99614,1,8,0:0:0:0:
256,192,99730,5,0,0:0:0:0:
256,192,99960,1,4,0:0:0:0:
256,192,100422,5,8,0:0:0:0:
256,192,100653,5,0,0:0:0:0:
256,192,100883,5,8,0:0:0:0:
256,192,101114,5,0,0:0:0:0:
256,192,101345,5,8,0:0:0:0:
256,192,101806,5,4,0:0:0:0:
256,192,102268,5,8,0:0:0:0:
256,192,102498,5,0,0:0:0:0:
256,192,102614,1,0,0:0:0:0:
256,192,102729,5,8,0:0:0:0:
256,192,102960,5,0,0:0:0:0:
256,192,103191,5,8,0:0:0:0:
256,192,103652,5,4,0:0:0:0:
256,192,104114,5,8,0:0:0:0:
256,192,104344,5,0,0:0:0:0:
256,192,104575,5,8,0:0:0:0:
256,192,104806,5,0,0:0:0:0:
256,192,105037,5,8,0:0:0:0:
256,192,105498,1,12,0:0:0:0:
256,192,105729,5,0,0:0:0:0:
256,192,105844,1,0,0:0:0:0:
256,192,105960,5,8,0:0:0:0:
256,192,106190,1,8,0:0:0:0:
256,192,106421,5,0,0:0:0:0:
256,192,106652,5,8,0:0:0:0:
256,192,106883,5,0,0:0:0:0:
256,192,107344,1,0,0:0:0:0:
256,192,107575,5,8,0:0:0:0:
256,192,107690,1,8,0:0:0:0:
256,192,107806,1,8,0:0:0:0:
256,192,108036,5,0,0:0:0:0:
256,192,108267,5,8,0:0:0:0:
256,192,108729,5,0,0:0:0:0:
256,192,108959,1,0,0:0:0:0:
256,192,109190,1,0,0:0:0:0:
256,192,109421,5,8,0:0:0:0:
256,192,109536,1,8,0:0:0:0:
256,192,109651,5,0,0:0:0:0:
256,192,109882,5,8,0:0:0:0:
256,192,110344,5,0,0:0:0:0:
256,192,110574,5,8,0:0:0:0:
256,192,110805,5,0,0:0:0:0:
256,192,111036,5,12,0:0:0:0:
256,192,111728,5,0,0:0:0:0:
256,192,111959,1,0,0:0:0:0:
256,192,112651,5,8,0:0:0:0:
256,192,113113,1,8,0:0:0:0:
256,192,113343,5,0,0:0:0:0:
256,192,113574,1,0,0:0:0:0:
256,192,113689,1,0,0:0:0:0:
256,192,113805,5,8,0:0:0:0:
256,192,114036,5,0,0:0:0:0:
256,192,114151,1,0,0:0:0:0:
256,192,114266,5,8,0:0:0:0:
256,192,114382,1,8,0:0:0:0:
256,192,114497,5,0,0:0:0:0:
256,192,114728,5,12,0:0:0:0:
256,192,114959,1,8,0:0:0:0:
256,192,115074,1,8,0:0:0:0:
256,192,115189,5,0,0:0:0:0:
256,192,115420,5,8,0:0:0:0:
256,192,115651,1,8,0:0:0:0:
256,192,115882,5,0,0:0:0:0:
256,192,116112,1,0,0:0:0:0:
256,192,116228,1,0,0:0:0:0:
256,192,116343,5,8,0:0:0:0:
256,192,116574,5,0,0:0:0:0:
256,192,116805,1,0,0:0:0:0:
256,192,116920,1,0,0:0:0:0:
256,192,117035,5,8,0:0:0:0:
256,192,117266,1,8,0:0:0:0:
256,192,117497,1,8,0:0:0:0:
256,192,117727,5,0,0:0:0:0:
256,192,117958,1,0,0:0:0:0:
256,192,118420,5,8,0:0:0:0:
256,192,118650,1,8,0:0:0:0:
256,192,118765,1,8,0:0:0:0:
256,192,118880,5,0,0:0:0:0:
256,192,119111,5,8,0:0:0:0:
256,192,119342,1,8,0:0:0:0:
256,192,119573,5,0,0:0:0:0:
256,192,119803,1,0,0:0:0:0:
256,192,119919,1,0,0:0:0:0:
256,192,120034,5,8,0:0:0:0:
256,192,120265,5,0,0:0:0:0:
256,192,120496,1,0,0:0:0:0:
256,192,120611,1,0,0:0:0:0:
256,192,120726,5,8,0:0:0:0:
256,192,120957,1,8,0:0:0:0:
256,192,121188,1,8,0:0:0:0:
256,192,121304,1,8,0:0:0:0:
256,192,121418,5,0,0:0:0:0:
256,192,121535,1,0,0:0:0:0:
256,192,121649,1,0,0:0:0:0:
256,192,122112,5,12,0:0:0:0:
256,192,122573,1,8,0:0:0:0:
256,192,122804,5,0,0:0:0:0:
256,192,123265,1,0,0:0:0:0:
256,192,123496,5,8,0:0:0:0:
256,192,123958,5,0,0:0:0:0:
256,192,124188,5,8,0:0:0:0:
256,192,124419,5,0,0:0:0:0:
256,192,124650,5,8,0:0:0:0:
256,192,124881,1,8,0:0:0:0:
256,192,125111,5,0,0:0:0:0:
256,192,125342,1,0,0:0:0:0:
256,192,125573,1,0,0:0:0:0:
256,192,125688,1,0,0:0:0:0:
256,192,125803,5,8,0:0:0:0:
256,192,126265,1,8,0:0:0:0:
256,192,126496,1,8,0:0:0:0:
256,192,126957,1,8,0:0:0:0:
256,192,127188,5,0,0:0:0:0:
256,192,127649,1,0,0:0:0:0:
256,192,127880,5,8,0:0:0:0:
256,192,128111,1,8,0:0:0:0:
256,192,128342,1,8,0:0:0:0:
256,192,128572,5,0,0:0:0:0:
256,192,128688,1,0,0:0:0:0:
256,192,128803,5,8,0:0:0:0:
256,192,128919,1,8,0:0:0:0:
256,192,129034,1,8,0:0:0:0:
256,192,129265,5,0,0:0:0:0:
256,192,129495,5,12,0:0:0:0:
256,192,129726,5,0,0:0:0:0:
256,192,129841,1,0,0:0:0:0:
256,192,129956,1,0,0:0:0:0:
256,192,130187,5,8,0:0:0:0:
256,192,130418,5,0,0:0:0:0:
256,192,130649,5,8,0:0:0:0:
256,192,130879,5,0,0:0:0:0:
256,192,130995,1,0,0:0:0:0:
256,192,131111,5,8,0:0:0:0:
256,192,131341,5,0,0:0:0:0:
256,192,131572,1,0,0:0:0:0:
256,192,131687,1,0,0:0:0:0:
256,192,131802,5,8,0:0:0:0:
256,192,132033,1,8,0:0:0:0:
256,192,132264,5,0,0:0:0:0:
256,192,132494,1,0,0:0:0:0:
256,192,132725,5,8,0:0:0:0:
256,192,133187,1,8,0:0:0:0:
256,192,133417,5,0,0:0:0:0:
256,192,133533,1,0,0:0:0:0:
256,192,133648,1,0,0:0:0:0:
256,192,133879,5,8,0:0:0:0:
256,192,134110,5,0,0:0:0:0:
256,192,134340,5,8,0:0:0:0:
256,192,134571,5,0,0:0:0:0:
256,192,134687,1,0,0:0:0:0:
256,192,134802,5,8,0:0:0:0:
256,192,135033,5,0,0:0:0:0:
256,192,135263,1,0,0:0:0:0:
256,192,135379,1,0,0:0:0:0:
256,192,135494,5,8,0:0:0:0:
256,192,135725,1,8,0:0:0:0:
256,192,135956,5,0,0:0:0:0:
256,192,136071,1,0,0:0:0:0:
256,192,136186,1,0,0:0:0:0:
256,192,136302,1,0,0:0:0:0:
256,192,136417,5,8,0:0:0:0:
256,192,136879,1,12,0:0:0:0:
256,192,137110,5,0,0:0:0:0:
256,192,137225,1,0,0:0:0:0:
256,192,137341,1,0,0:0:0:0:
256,192,137571,5,8,0:0:0:0:
256,192,138033,5,0,0:0:0:0:
256,192,138264,5,8,0:0:0:0:
256,192,138494,5,0,0:0:0:0:
256,192,138725,1,0,0:0:0:0:
256,192,138956,1,0,0:0:0:0:
256,192,139071,1,0,0:0:0:0:
256,192,139187,5,8,0:0:0:0:
256,192,139417,1,8,0:0:0:0:
256,192,139648,5,0,0:0:0:0:
256,192,139879,1,0,0:0:0:0:
256,192,140110,5,8,0:0:0:0:
256,192,140571,1,12,0:0:0:0:
256,192,140802,5,0,0:0:0:0:
256,192,140917,1,0,0:0:0:0:
256,192,141032,1,0,0:0:0:0:
256,192,141263,5,8,0:0:0:0:
256,192,141725,5,0,0:0:0:0:
256,192,141955,5,8,0:0:0:0:
256,192,142186,5,0,0:0:0:0:
256,192,142417,5,8,0:0:0:0:
256,192,142648,1,8,0:0:0:0:
256,192,142763,1,8,0:0:0:0:
256,192,142878,5,0,0:0:0:0:
256,192,143109,1,0,0:0:0:0:
256,192,143340,5,8,0:0:0:0:
256,192,143571,5,0,0:0:0:0:
256,192,143801,5,8,0:0:0:0:
256,192,144032,1,8,0:0:0:0:
256,192,144148,1,8,0:0:0:0:
256,192,144263,5,0,0:0:0:0:
256,192,144724,1,0,0:0:0:0:
256,192,145186,1,0,0:0:0:0:
256,192,145417,1,0,0:0:0:0:
256,192,145647,5,8,0:0:0:0:
256,192,146109,5,0,0:0:0:0:
256,192,146570,1,0,0:0:0:0:
256,192,146801,5,8,0:0:0:0:
256,192,147031,5,0,0:0:0:0:
256,192,147262,1,0,0:0:0:0:
256,192,147493,1,0,0:0:0:0:
256,192,147955,1,0,0:0:0:0:
256,192,148416,1,0,0:0:0:0:
256,192,148878,1,0,0:0:0:0:
256,192,149108,1,0,0:0:0:0:
256,192,149339,5,8,0:0:0:0:
256,192,149801,5,0,0:0:0:0:
256,192,150262,1,0,0:0:0:0:
256,192,150493,5,8,0:0:0:0:
256,192,150724,1,8,0:0:0:0:
256,192,150954,5,0,0:0:0:0:
256,192,151185,1,0,0:0:0:0:
256,192,151647,5,8,0:0:0:0:
256,192,152108,5,0,0:0:0:0:
256,192,152339,1,0,0:0:0:0:
256,192,152570,1,0,0:0:0:0:
256,192,152800,5,8,0:0:0:0:
256,192,153031,1,8,0:0:0:0:
256,192,153262,1,8,0:0:0:0:
256,192,153493,2,0,B|256:0|512:0|512:192,1,420
256,192,155339,5,0,0:0:0:0:
256,192,155569,5,8,0:0:0:0:
256,192,155800,1,8,0:0:0:0:
256,192,156031,5,0,0:0:0:0:
256,192,156262,1,0,0:0:0:0:
256,192,156492,5,8,0:0:0:0:
256,192,156723,1,8,0:0:0:0:
256,192,156954,5,4,0:0:0:0:
256,192,157646,5,12,0:0:0:0:
256,192,157877,1,12,0:0:0:0:
256,192,158107,1,12,0:0:0:0:
256,192,158338,5,4,0:0:0:0:
256,192,158569,1,4,0:0:0:0:
256,192,159030,1,4,0:0:0:0:
256,192,159261,5,8,0:0:0:0:
256,192,159492,5,0,0:0:0:0:
256,192,159723,1,0,0:0:0:0:
256,192,159953,1,0,0:0:0:0:
256,192,160415,1,0,0:0:0:0:
256,192,160646,1,0,0:0:0:0:
256,192,160876,1,0,0:0:0:0:
256,192,161107,5,8,0:0:0:0:
256,192,161338,5,0,0:0:0:0:
256,192,161569,1,0,0:0:0:0:
256,192,161799,1,0,0:0:0:0:
256,192,162261,1,0,0:0:0:0:
256,192,162492,1,0,0:0:0:0:
256,192,162722,5,8,0:0:0:0:
256,192,162953,1,8,0:0:0:0:
256,192,163184,1,8,0:0:0:0:
256,192,163415,5,0,0:0:0:0:
256,192,163645,1,0,0:0:0:0:
256,192,164107,1,0,0:0:0:0:
256,192,164337,1,0,0:0:0:0:
256,192,164568,1,0,0:0:0:0:
256,192,164799,5,8,0:0:0:0:
256,192,165030,5,0,0:0:0:0:
256,192,165260,1,0,0:0:0:0:
256,192,165491,5,8,0:0:0:0:
256,192,165722,1,8,0:0:0:0:
256,192,165953,1,12,0:0:0:0:
256,192,166183,5,0,0:0:0:0:
256,192,166414,1,0,0:0:0:0:
256,192,166645,5,8,0:0:0:0:
256,192,166760,1,8,0:0:0:0:
256,192,166876,5,0,0:0:0:0:
256,192,167106,1,0,0:0:0:0:
256,192,167337,1,0,0:0:0:0:
256,192,167799,1,0,0:0:0:0:
256,192,168029,1,0,0:0:0:0:
256,192,168260,5,8,0:0:0:0:
256,192,168491,1,8,0:0:0:0:
256,192,168606,1,8,0:0:0:0:
256,192,168722,5,0,0:0:0:0:
256,192,168952,1,0,0:0:0:0:
256,192,169183,1,0,0:0:0:0:
256,192,169645,1,0,0:0:0:0:
256,192,169875,1,0,0:0:0:0:
256,192,170106,5,8,0:0:0:0:
256,192,170337,1,8,0:0:0:0:
256,192,170452,1,8,0:0:0:0:
256,192,170568,1,8,0:0:0:0:
256,192,170798,5,0,0:0:0:0:
256,192,171029,1,0,0:0:0:0:
256,192,171491,1,0,0:0:0:0:
256,192,171721,1,0,0:0:0:0:
256,192,171952,5,12,0:0:0:0:
256,192,172183,5,0,0:0:0:0:
256,192,172413,5,2,0:0:0:0:
256,192,172644,5,0,0:0:0:0:
256,192,172875,5,2,0:0:0:0:
256,192,173106,12,0,174721,0:0:0:0:
256,192,175644,5,0,0:0:0:0:
256,192,176105,5,2,0:0:0:0:
256,192,177028,1,2,0:0:0:0:
256,192,177951,1,2,0:0:0:0:
256,192,178413,5,0,0:0:0:0:
256,192,178874,5,2,0:0:0:0:
256,192,179336,5,0,0:0:0:0:
256,192,179797,5,2,0:0:0:0:
256,192,180720,1,2,0:0:0:0:
256,192,181643,1,2,0:0:0:0:
256,192,182105,5,0,0:0:0:0:
256,192,182566,5,2,0:0:0:0:
256,192,183028,5,4,0:0:0:0:
256,192,186720,5,12,0:0:0:0:
256,192,187181,5,0,0:0:0:0:
256,192,187642,1,0,0:0:0:0:
256,192,188104,1,0,0:0:0:0:
256,192,188565,1,0,0:0:0:0:
256,192,188796,1,0,0:0:0:0:
256,192,189027,5,8,0:0:0:0:
256,192,189258,5,0,0:0:0:0:
256,192,189488,1,0,0:0:0:0:
256,192,189719,1,0,0:0:0:0:
256,192,189835,1,0,0:0:0:0:
256,192,189950,5,8,0:0:0:0:
256,192,190065,1,8,0:0:0:0:
256,192,190181,5,0,0:0:0:0:
256,192,190411,5,12,0:0:0:0:
256,192,190642,1,8,0:0:0:0:
256,192,190758,1,8,0:0:0:0:
256,192,190873,5,0,0:0:0:0:
256,192,191104,5,8,0:0:0:0:
256,192,191334,1,8,0:0:0:0:
256,192,191565,5,0,0:0:0:0:
256,192,191796,1,0,0:0:0:0:
256,192,191911,1,0,0:0:0:0:
256,192,192027,5,8,0:0:0:0:
256,192,192257,1,8,0:0:0:0:
256,192,192488,5,0,0:0:0:0:
256,192,192603,1,0,0:0:0:0:
256,192,192719,5,8,0:0:0:0:
256,192,192950,1,8,0:0:0:0:
256,192,193180,1,12,0:0:0:0:
256,192,193642,5,4,0:0:0:0:
256,192,194103,5,12,0:0:0:0:
256,192,194334,1,8,0:0:0:0:
256,192,194449,1,8,0:0:0:0:
256,192,194565,5,0,0:0:0:0:
256,192,194796,5,8,0:0:0:0:
256,192,195026,1,8,0:0:0:0:
256,192,195257,5,0,0:0:0:0:
256,192,195488,1,0,0:0:0:0:
256,192,195603,1,0,0:0:0:0:
256,192,195718,5,8,0:0:0:0:
256,192,195949,1,8,0:0:0:0:
256,192,196180,1,8,0:0:0:0:
256,192,196295,1,8,0:0:0:0:
256,192,196411,5,0,0:0:0:0:
256,192,196641,1,0,0:0:0:0:
256,192,196872,5,12,0:0:0:0:
256,192,197334,5,4,0:0:0:0:
256,192,197795,5,12,0:0:0:0:
256,192,198257,1,8,0:0:0:0:
256,192,198487,1,8,0:0:0:0:
256,192,198949,1,8,0:0:0:0:
256,192,199180,5,0,0:0:0:0:
256,192,199641,1,0,0:0:0:0:
256,192,199872,5,8,0:0:0:0:
256,192,199987,1,8,0:0:0:0:
256,192,200103,1,8,0:0:0:0:
256,192,200333,1,8,0:0:0:0:
256,192,200564,1,8,0:0:0:0:
256,192,200679,1,8,0:0:0:0:
256,192,200795,5,0,0:0:0:0:
256,192,200910,1,0,0:0:0:0:
256,192,201026,1,0,0:0:0:0:
256,192,201256,1,0,0:0:0:0:
256,192,201487,5,12,0:0:0:0:
256,192,201949,1,8,0:0:0:0:
256,192,202179,5,0,0:0:0:0:
256,192,202641,1,0,0:0:0:0:
256,192,202872,1,0,0:0:0:0:
256,192,203333,1,0,0:0:0:0:
256,192,203564,1,0,0:0:0:0:
256,192,203679,1,0,0:0:0:0:
256,192,203794,5,8,0:0:0:0:
256,192,204025,1,8,0:0:0:0:
256,192,204256,1,8,0:0:0:0:
256,192,204371,1,8,0:0:0:0:
256,192,204487,5,0,0:0:0:0:
256,192,204602,1,0,0:0:0:0:
256,192,204717,1,0,0:0:0:0:
256,192,204948,5,8,0:0:0:0:
256,192,205149,1,12,0:0:0:0:
256,192,205610,1,8,0:0:0:0:
256,192,206071,1,8,0:0:0:0:
256,192,206302,5,0,0:0:0:0:
256,192,206533,5,8,0:0:0:0:
256,192,206994,5,0,0:0:0:0:
256,192,207456,5,8,0:0:0:0:
256,192,207687,1,8,0:0:0:0:
256,192,207917,1,8,0:0:0:0:
256,192,208379,5,0,0:0:0:0:
256,192,208610,1,0,0:0:0:0:
256,192,209071,5,8,0:0:0:0:
256,192,209533,5,0,0:0:0:0:
256,192,209763,1,0,0:0:0:0:
256,192,210225,5,8,0:0:0:0:
256,192,210456,5,0,0:0:0:0:
256,192,210715,5,8,0:0:0:0:
256,192,210945,5,0,0:0:0:0:
256,192,211176,5,8,0:0:0:0:
256,192,211407,5,0,0:0:0:0:
256,192,211637,5,8,0:0:0:0:
256,192,211868,5,0,0:0:0:0:
256,192,212099,1,0,0:0:0:0:
256,192,212560,5,12,0:0:0:0:
256,192,213023,1,8,0:0:0:0:
256,192,213253,1,8,0:0:0:0:
256,192,213714,1,8,0:0:0:0:
256,192,213945,5,0,0:0:0:0:
256,192,214406,1,0,0:0:0:0:
256,192,214868,5,8,0:0:0:0:
256,192,215099,1,8,0:0:0:0:
256,192,215329,1,8,0:0:0:0:
256,192,215560,5,0,0:0:0:0:
256,192,215791,1,0,0:0:0:0:
256,192,216252,5,12,0:0:0:0:
256,192,216714,1,8,0:0:0:0:
256,192,216945,5,0,0:0:0:0:
256,192,217406,1,0,0:0:0:0:
256,192,217637,1,0,0:0:0:0:
256,192,218098,1,0,0:0:0:0:
256,192,218560,5,8,0:0:0:0:
256,192,218790,1,8,0:0:0:0:
256,192,219021,1,8,0:0:0:0:
256,192,219252,5,0,0:0:0:0:
256,192,219483,1,0,0:0:0:0:
256,192,219713,1,0,0:0:0:0:
256,192,219944,1,4,0:0:0:0:
