osu file format v12

[General]
AudioFilename: Happy Birthday Kenezz.mp3
AudioLeadIn: 2000
PreviewTime: 114039
Countdown: 0
SampleSet: Soft
StackLeniency: 0.7
Mode: 0
LetterboxInBreaks: 0

[Editor]
DistanceSpacing: 1.2
BeatDivisor: 4
GridSize: 8

[Metadata]
Title:You Belong With Me
TitleUnicode:You Belong With Me
Artist:Taylor Swift
ArtistUnicode:Taylor Swift
Creator:ErufenRito
Version:Insane
Source:
Tags:Verdisphena aabc271 DaxMasterix
BeatmapID:223490
BeatmapSetID:46266

[Difficulty]
HPDrainRate:7
CircleSize:4
OverallDifficulty:8
ApproachRate:8
SliderMultiplier:1.8
SliderTickRate:2

[Events]
//Background and Video events
Video,-600,"Let's run~~.avi"
0,0,"Kenezz so kawaii.jpg",0,0
//Break Periods
2,66933,68752
2,144462,155339
//Storyboard Layer 0 (Background)
//Storyboard Layer 1 (Fail)
//Storyboard Layer 2 (Pass)
//Storyboard Layer 3 (Foreground)
//Storyboard Sound Samples
//Background Colour Transformations
3,100,0,0,0

[TimingPoints]
280,461.485213244626,4,2,1,80,1,0
2923,-100,4,2,2,50,0,0
3154,-100,4,2,1,70,0,0
6615,-100,4,2,2,50,0,0
6846,-100,4,2,1,70,0,0
10999,-100,4,2,2,50,0,0
11230,-100,4,2,2,70,0,0
11460,-100,4,2,1,70,0,0
14691,-100,4,2,2,50,0,0
14922,-100,4,2,2,70,0,0
15152,-100,4,2,1,70,0,0
16893,-133.333333333333,4,2,1,70,0,0
18613,-133.333333333333,4,2,2,70,0,0
18844,-133.333333333333,4,2,1,70,0,0
19536,-133.333333333333,4,2,2,70,0,0
19767,-133.333333333333,4,2,1,70,0,0
20459,-133.333333333333,4,2,2,50,0,0
20585,-100,4,2,2,50,0,0
20690,-100,4,2,1,70,0,0
21440,-100,4,2,2,50,0,0
21555,-100,4,2,1,70,0,0
23228,-100,4,2,2,50,0,0
23459,-100,4,2,1,70,0,0
25074,-100,4,2,2,50,0,0
25305,-100,4,2,1,70,0,0
25766,-100,4,2,2,50,0,0
25997,-100,4,2,2,70,0,0
26228,-100,4,2,1,70,0,0
26920,-100,4,2,2,50,0,0
27151,-100,4,2,1,70,0,0
28766,-100,4,2,2,50,0,0
28997,-100,4,2,1,70,0,0
29458,-100,4,2,2,50,0,0
29689,-100,4,2,2,70,0,0
29920,-100,4,2,1,70,0,0
30612,-100,4,2,2,50,0,0
30843,-100,4,2,1,70,0,0
31660,-133.333333333333,4,2,1,70,0,0
33381,-100,4,2,2,70,0,0
33612,-133.333333333333,4,2,1,70,0,0
34304,-133.333333333333,4,2,2,70,0,0
34535,-133.333333333333,4,2,1,70,0,0
35227,-133.333333333333,4,2,2,50,0,0
35352,-100,4,2,2,50,0,0
35457,-100,4,2,1,70,0,0
36150,-100,4,2,2,50,0,0
36380,-100,4,2,1,70,0,0
36843,-100,4,2,2,30,0,0
37074,-100,4,2,2,70,0,0
37305,-100,4,2,1,70,0,0
37997,-100,4,2,2,50,0,0
38228,-100,4,2,1,70,0,0
39843,-100,4,2,2,50,0,0
40074,-100,4,2,1,70,0,0
40535,-100,4,2,2,30,0,0
40766,-100,4,2,2,70,0,0
40997,-100,4,2,1,70,0,0
41687,-100,4,2,2,50,0,0
41918,-100,4,2,1,70,0,0
43533,-100,4,2,2,50,0,0
43764,-100,4,2,2,70,0,0
43995,-100,4,2,2,50,0,0
44226,-100,4,2,2,70,0,0
44456,-100,4,2,1,70,0,0
45379,-100,4,2,2,50,0,0
45610,-100,4,2,1,70,0,0
47225,-100,4,2,2,50,0,0
47456,-100,4,2,1,70,0,0
48148,-100,4,2,2,70,0,0
48379,-100,4,2,1,70,0,0
48840,-100,4,2,2,50,0,0
49071,-100,4,2,2,70,0,0
50917,-100,4,2,1,100,0,0
51263,-100,4,2,1,70,0,0
51966,-100,4,1,1,70,0,1
63041,-133.333333333333,4,2,1,70,0,0
64541,-133.333333333333,4,2,1,20,0,0
65234,-133.333333333333,4,2,1,50,0,0
65464,-133.333333333333,4,2,1,70,0,0
66157,-133.333333333333,4,2,1,50,0,0
66387,-133.333333333333,4,2,1,70,0,0
66607,-133.333333333333,4,2,2,70,0,0
66733,-100,4,2,2,70,0,0
66838,-100,4,2,1,70,0,0
70299,-100,4,2,2,50,0,0
70530,-100,4,2,1,70,0,0
73068,-100,4,2,2,50,0,0
73299,-100,4,2,1,70,0,0
73760,-100,4,2,2,50,0,0
73991,-100,4,2,2,70,0,0
74222,-100,4,2,1,70,0,0
77452,-100,4,2,2,50,0,0
77683,-100,4,2,2,70,0,0
77914,-100,4,2,1,70,0,0
80452,-100,4,2,2,100,0,0
80683,-100,4,2,1,70,0,0
82298,-100,4,2,2,50,0,0
82529,-100,4,2,1,70,0,0
83221,-100,4,2,2,60,0,0
83452,-100,4,2,2,40,0,0
83682,-100,4,2,1,70,0,0
84375,-100,4,2,2,50,0,0
84605,-100,4,2,1,70,0,0
86913,-100,4,2,2,50,0,0
87143,-100,4,2,1,70,0,0
88528,-100,4,2,2,50,0,0
88759,-100,4,2,2,70,0,0
88989,-100,4,2,1,70,0,0
90605,-100,4,2,2,50,0,0
90835,-100,4,2,1,70,0,0
91527,-100,4,2,2,50,0,0
91758,-100,4,2,2,30,0,0
91989,-100,4,2,1,70,0,0
92220,-100,4,2,2,50,0,0
92450,-100,4,2,2,70,0,0
92681,-100,4,2,1,70,0,0
94296,-100,4,2,2,50,0,0
94527,-100,4,2,1,70,0,0
95912,-100,4,2,2,50,0,0
96142,-100,4,2,2,70,0,0
96373,-100,4,2,1,70,0,0
97988,-100,4,2,2,70,0,0
98219,-100,4,2,2,50,0,0
98450,-100,4,2,1,70,0,0
99142,-100,4,2,2,30,0,0
99373,-100,4,2,1,70,0,0
99603,-100,4,2,2,50,0,0
99834,-100,4,2,2,70,0,0
100065,-100,4,2,1,70,0,0
100757,-100,4,2,1,50,0,0
100988,-100,4,2,1,70,0,0
101680,-100,4,2,2,50,0,0
101911,-100,4,2,1,70,0,0
102372,-100,4,2,2,50,0,0
102603,-100,4,2,2,70,0,0
102834,-100,4,2,1,70,0,0
103526,-100,4,2,2,50,0,0
103757,-100,4,2,1,70,0,0
104449,-100,4,2,1,50,0,0
104680,-100,4,2,1,70,0,0
105372,-100,4,2,2,70,0,0
105603,-100,4,2,2,50,0,0
105833,-100,4,2,1,70,0,0
106295,-100,4,2,2,70,0,0
106526,-100,4,2,1,70,0,0
107218,-100,4,2,2,50,0,0
107449,-100,4,2,1,70,0,0
108141,-100,4,2,2,50,0,0
108372,-100,4,2,1,70,0,0
109064,-100,4,2,2,50,0,0
109295,-100,4,2,1,70,0,0
109756,-100,4,2,2,50,0,0
109987,-100,4,2,2,70,0,0
110218,-100,4,2,1,70,0,0
110910,-100,4,2,2,70,0,0
112525,-100,4,2,1,70,0,0
113459,-100,4,1,1,70,0,0
114728,-100,4,1,1,70,0,1
128572,-100,4,1,1,70,0,0
129495,-100,4,1,1,70,0,1
142417,-100,4,1,1,70,0,0
155339,-100,4,1,2,70,0,0
157524,-100,4,2,1,70,0,0
157755,-100,4,1,2,50,0,0
158447,-100,4,2,1,70,0,0
158678,-100,4,1,2,70,0,0
159370,-100,4,2,1,70,0,0
159601,-100,4,1,2,70,0,0
161216,-100,4,2,1,70,0,0
161447,-100,4,1,2,70,0,0
163062,-100,4,2,1,70,0,0
163293,-100,4,1,2,70,0,0
164908,-100,4,2,1,70,0,0
165139,-100,4,1,2,70,0,0
165600,-100,4,2,1,70,0,0
166062,-100,4,1,2,70,0,0
166754,-100,4,2,1,70,0,0
166985,-100,4,1,2,70,0,0
168649,-100,4,2,1,70,0,0
168831,-100,4,1,2,70,0,0
170446,-100,4,2,1,70,0,0
170677,-100,4,1,2,70,0,0
171831,-100,4,2,1,70,0,0
173798,-133.333333333333,4,2,1,70,0,0
174715,-133.333333333333,4,1,2,40,0,0
175523,-133.333333333333,4,2,2,40,0,0
175753,-133.333333333333,4,1,2,40,0,0
179215,-133.333333333333,4,2,2,40,0,0
179445,-133.333333333333,4,1,2,40,0,0
186720,-100,4,2,1,70,0,1
189488,-100,4,1,1,70,0,0
190411,-100,4,1,1,70,0,1
205149,461.485213244626,4,1,1,50,1,0
210715,461.485213244626,4,1,1,50,1,0

[Colours]
Combo1 : 250,232,107
Combo2 : 149,186,71
Combo3 : 96,215,227
Combo4 : 255,155,205

[HitObjects]
69,351,280,2,0,B|153:285|98:181,1,180,4|8,0:0|0:0,0:0:0:0:
123,84,972,1,0,0:0:0:0:
217,136,1202,1,2,0:0:0:0:
217,136,1433,1,0,0:0:0:0:
243,31,1664,1,8,0:0:0:0:
434,93,1895,6,0,B|328:106|317:209,1,180,2|0,0:0|0:0,0:0:0:0:
170,208,2587,2,0,B|176:260|228:266,1,90,8|0,0:0|0:0,0:0:0:0:
398,376,3048,2,0,B|346:370|339:317,1,90,8|0,0:0|0:0,0:0:0:0:
317,209,3510,1,8,0:0:0:0:
317,209,3741,1,0,0:0:0:0:
71,145,3971,6,0,B|269:123,1,180,4|8,0:0|0:0,0:0:0:0:
294,26,4664,2,0,B|393:15,1,90,0|2,0:0|0:0,0:0:0:0:
502,160,5125,2,0,B|403:171,1,90,0|8,0:0|0:0,0:0:0:0:
412,169,5587,5,2,0:0:0:0:
381,273,5817,1,0,0:0:0:0:
269,257,6048,1,0,0:0:0:0:
252,141,6279,1,8,0:0:0:0:
349,68,6510,1,0,0:0:0:0:
463,120,6740,1,8,0:0:0:0:
462,250,6971,1,0,0:0:0:0:
368,347,7202,1,8,0:0:0:0:
228,334,7433,1,0,0:0:0:0:
147,215,7663,6,0,B|119:106|30:93,1,180,2|8,0:0|0:0,0:0:0:0:
30,93,8355,1,0,0:0:0:0:
142,9,8586,2,0,B|170:118|258:130,1,180,2|8,0:0|0:0,0:0:0:0:
258,130,9278,1,0,0:0:0:0:
313,24,9509,6,0,B|421:19,1,90,2|0,0:0|0:0,0:0:0:0:
477,98,9971,2,0,B|506:217|424:270,1,180,8|2,0:0|0:0,0:0:0:0:
224,212,10663,1,0,0:0:0:0:
329,239,10894,1,8,0:0:0:0:
292,96,11124,1,8,0:0:0:0:
187,69,11355,5,10,0:0:0:0:
89,114,11586,2,0,B|33:100|20:34,2,90,0|8|0,0:0|0:0|0:0,0:0:0:0:
140,209,12278,1,2,0:0:0:0:
98,309,12509,1,0,0:0:0:0:
194,357,12740,2,0,B|381:372,1,180,8|2,0:0|0:0,0:0:0:0:
411,219,13432,6,0,B|224:204,2,180,2|2|2,0:0|0:0|0:0,0:0:0:0:
464,307,14586,2,0,B|370:299,1,90,8|8,0:0|0:0,0:0:0:0:
163,114,15047,2,0,B|350:129,1,180,10|8,0:0|0:0,0:0:0:0:
433,69,15739,1,0,0:0:0:0:
501,152,15970,1,2,0:0:0:0:
412,214,16201,1,0,0:0:0:0:
412,214,16893,5,2,0:0:0:0:
412,214,17124,1,0,0:0:0:0:
354,157,17585,1,2,0:0:0:0:
279,187,18047,1,2,0:0:0:0:
279,187,18277,2,0,B|231:240|258:320,1,134.999995976687,8|8,0:0|0:0,0:0:0:0:
439,351,19200,2,0,B|487:298|460:218,1,134.999995976687,8|8,0:0|0:0,0:0:0:0:
398,33,20123,1,8,0:0:0:0:
162,158,20585,5,8,0:0:0:0:
69,213,20816,1,0,0:0:0:0:
163,266,21046,1,8,0:0:0:0:
185,118,21277,5,2,0:0:0:0:
185,118,21392,1,0,0:0:0:0:
185,118,21508,1,10,0:0:0:0:
17,217,21739,1,0,0:0:0:0:
187,313,21969,1,8,0:0:0:0:
187,313,22200,1,0,0:0:0:0:
268,242,22431,6,0,B|359:261|383:373,1,180,4|8,0:0|0:0,0:0:0:0:
479,319,23123,1,0,0:0:0:0:
411,235,23354,2,0,B|411:132|520:89,1,180,8|8,0:0|0:0,0:0:0:0:
422,25,24046,1,0,0:0:0:0:
422,25,24277,2,0,B|315:4,1,90,2|0,0:0|0:0,0:0:0:0:
234,50,24738,2,0,B|178:128|203:233,1,180,8|8,0:0|0:0,0:0:0:0:
200,221,25430,1,0,0:0:0:0:
80,315,25661,1,8,0:0:0:0:
200,221,25892,1,8,0:0:0:0:
223,377,26123,1,8,0:0:0:0:
223,377,26353,1,0,0:0:0:0:
223,377,26584,5,8,0:0:0:0:
331,377,26815,1,0,0:0:0:0:
415,310,27046,1,8,0:0:0:0:
404,202,27276,1,0,0:0:0:0:
317,267,27507,1,8,0:0:0:0:
437,342,27738,5,0,0:0:0:0:
420,168,27969,1,2,0:0:0:0:
280,273,28199,1,0,0:0:0:0:
378,259,28430,1,8,0:0:0:0:
378,259,28661,1,0,0:0:0:0:
378,259,28892,5,8,0:0:0:0:
308,175,29122,1,0,0:0:0:0:
348,74,29353,1,8,0:0:0:0:
240,85,29584,1,8,0:0:0:0:
240,85,29815,2,0,B|145:147|53:70,1,180,8|8,0:0|0:0,0:0:0:0:
83,191,30507,2,0,B|50:298,1,90,0|10,0:0|0:0,0:0:0:0:
56,277,30968,1,0,0:0:0:0:
296,298,31660,5,2,0:0:0:0:
296,298,31891,2,0,B|444:287,2,134.999995976687,0|2|0,0:0|0:0|0:0,0:0:0:0:
378,201,33045,2,0,B|526:190,2,134.999995976687,8|8|8,0:0|0:0|0:0,0:0:0:0:
387,120,34429,1,8,0:0:0:0:
339,54,34891,1,8,0:0:0:0:
258,47,35352,5,8,0:0:0:0:
193,95,35583,1,0,0:0:0:0:
187,175,35814,1,8,0:0:0:0:
229,243,36045,1,0,0:0:0:0:
309,247,36275,1,8,0:0:0:0:
376,201,36506,1,0,0:0:0:0:
387,120,36737,1,8,0:0:0:0:
287,146,36968,1,12,0:0:0:0:
79,48,37198,5,12,0:0:0:0:
13,254,37660,1,8,0:0:0:0:
112,211,37891,1,0,0:0:0:0:
172,303,38121,2,0,B|222:389|327:356,2,180,8|8|2,0:0|0:0|0:0,0:0:0:0:
270,257,39275,1,0,0:0:0:0:
219,159,39506,2,0,B|324:126|375:213,2,180,8|8|8,0:0|0:0|0:0,0:0:0:0:
220,160,40659,1,12,0:0:0:0:
389,25,40890,5,12,0:0:0:0:
493,53,41121,1,0,0:0:0:0:
474,159,41352,2,0,B|512:273|419:333,1,180,8|8,0:0|0:0,0:0:0:0:
341,377,42044,1,0,0:0:0:0:
294,279,42275,2,0,B|256:165|349:105,2,180,8|2|8,0:0|0:0|0:0,0:0:0:0:
214,352,43428,5,0,0:0:0:0:
129,285,43659,2,8,B|13:296,1,90,8|0,0:0|0:0,0:0:0:0:
203,159,44121,2,8,B|87:170,1,90,8|0,0:0|0:0,0:0:0:0:
113,167,44582,5,2,0:0:0:0:
17,99,44813,2,0,B|8:49|49:3,2,90,0|8|0,0:0|0:0|0:0,0:0:0:0:
123,82,45505,2,0,B|321:93,1,180,8|8,0:0|0:0,0:0:0:0:
394,35,46197,5,0,0:0:0:0:
469,112,46428,1,2,0:0:0:0:
458,219,46659,1,0,0:0:0:0:
367,278,46890,1,8,0:0:0:0:
264,243,47120,1,0,0:0:0:0:
228,140,47351,1,8,0:0:0:0:
284,48,47582,1,0,0:0:0:0:
351,153,47812,5,8,0:0:0:0:
351,153,48043,1,0,0:0:0:0:
351,153,48274,1,8,0:0:0:0:
351,153,48966,1,8,0:0:0:0:
351,153,49197,1,8,0:0:0:0:
351,153,50120,5,8,0:0:0:0:
351,153,50812,1,8,0:0:0:0:
351,153,51043,1,12,0:0:0:0:
256,384,51504,1,12,0:0:0:0:
160,152,51966,6,0,B|136:258|187:324,1,180,6|8,0:0|0:0,0:0:0:0:
325,324,52658,2,0,B|376:258|352:152,1,180,2|0,0:0|0:0,0:0:0:0:
256,32,53350,1,8,0:0:0:0:
172,220,53581,2,0,B|256:276|340:220,1,180,2|0,0:0|0:0,0:0:0:0:
424,304,54273,1,10,0:0:0:0:
256,368,54504,1,0,0:0:0:0:
88,304,54735,2,0,B|104:208|40:137,1,180,2|8,0:0|0:0,0:0:0:0:
473,137,55658,6,0,B|409:208|424:304,1,180,2|8,0:0|0:0,0:0:0:0:
300,262,56350,2,0,B|364:191|348:96,1,180,2|0,0:0|0:0,0:0:0:0:
256,48,57042,1,8,0:0:0:0:
164,96,57273,2,0,B|149:191|213:262,1,180,2|0,0:0|0:0,0:0:0:0:
89,303,57965,2,0,B|104:208|40:137,2,180,10|2|10,0:0|0:0|0:0,0:0:0:0:
504,96,59350,6,0,B|334:158,1,180,2|8,0:0|0:0,0:0:0:0:
256,248,60042,2,0,B|256:48,1,180,2|0,0:0|0:0,0:0:0:0:
178,158,60734,2,0,B|8:96,2,180,10|0|10,0:0|0:0|0:0,0:0:0:0:
256,16,61888,5,0,0:0:0:0:
256,192,62119,1,2,0:0:0:0:
256,368,62349,1,0,0:0:0:0:
256,368,62465,1,0,0:0:0:0:
256,368,62580,1,10,0:0:0:0:
416,368,63041,5,6,0:0:0:0:
96,368,63734,1,2,0:0:0:0:
256,272,64426,2,0,B|336:160|176:128|256:16,1,269.999991953373,2|2,0:0|0:0,0:0:0:0:
360,32,65580,5,0,0:0:0:0:
432,112,65810,1,4,0:0:0:0:
253,363,66272,1,8,0:0:0:0:
152,352,66503,1,0,0:0:0:0:
80,272,66733,1,4,0:0:0:0:
128,195,69502,6,0,B|161:302|125:384,2,180,4|4|8,0:0|0:0|0:0,0:0:0:0:
234,175,70656,1,0,0:0:0:0:
162,94,70887,2,0,B|178:41|239:29,1,90,8|0,0:0|0:0,0:0:0:0:
330,18,71348,2,0,B|397:86|495:60,1,180,2|8,0:0|0:0,0:0:0:0:
439,225,72040,6,0,B|371:156|273:182,1,180,2|0,0:0|0:0,0:0:0:0:
273,182,72733,2,0,B|174:207|107:139,1,180,8|8,0:0|0:0,0:0:0:0:
13,193,73425,1,0,0:0:0:0:
17,319,73656,1,8,0:0:0:0:
149,376,73886,1,8,0:0:0:0:
280,281,74117,6,0,B|336:192|448:232,1,180,8|8,0:0|0:0,0:0:0:0:
490,134,74809,1,0,0:0:0:0:
399,75,75040,2,0,B|400:22|466:-8,2,90,2|0|8,0:0|0:0|0:0,0:0:0:0:
316,144,75732,1,0,0:0:0:0:
212,115,75963,5,2,0:0:0:0:
212,115,76194,2,0,B|132:68|30:94,2,180,0|2|0,0:0|0:0|0:0,0:0:0:0:
212,115,77348,1,8,0:0:0:0:
16,225,77578,1,8,0:0:0:0:
16,225,77809,2,0,B|96:272|198:246,1,180,8|8,0:0|0:0,0:0:0:0:
278,311,78501,5,0,0:0:0:0:
356,236,78732,2,0,B|348:185|370:149,1,90,2|0,0:0|0:0,0:0:0:0:
475,177,79193,2,0,B|483:228|461:263,1,90,8|0,0:0|0:0,0:0:0:0:
238,263,79655,2,0,B|220:160|264:89,1,180,2|8,0:0|0:0,0:0:0:0:
164,129,80347,1,0,0:0:0:0:
164,129,80578,2,0,B|109:120|97:76,1,90,8|0,0:0|0:0,0:0:0:0:
2,150,81039,1,8,0:0:0:0:
2,150,81270,2,0,B|111:167|135:254,1,180,2|0,0:0|0:0,0:0:0:0:
135,254,81962,1,8,0:0:0:0:
432,240,82193,5,2,0:0:0:0:
336,192,82424,1,8,0:0:0:0:
302,88,82655,1,2,0:0:0:0:
302,88,82885,2,0,B|248:10|140:21,1,180,12|8,0:0|0:0,0:0:0:0:
43,57,83578,1,8,0:0:0:0:
87,155,83808,2,0,B|141:233|249:222,1,180,12|12,0:0|0:0,0:0:0:0:
244,222,84501,1,8,0:0:0:0:
244,222,84962,5,8,0:0:0:0:
323,295,85193,2,0,B|430:281|436:167,1,180,4|8,0:0|0:0,0:0:0:0:
327,181,85885,1,0,0:0:0:0:
505,242,86116,2,8,B|478:338|378:366,1,180,2|8,0:0|0:0,0:0:0:0:
384,364,86808,1,0,0:0:0:0:
276,376,87039,5,8,0:0:0:0:
253,270,87269,2,0,B|262:219|225:190,2,90,0|8|0,0:0|0:0|0:0,0:0:0:0:
253,270,87962,1,2,0:0:0:0:
158,323,88192,5,0,0:0:0:0:
88,240,88423,1,8,0:0:0:0:
12,30,88654,1,8,0:0:0:0:
82,113,88885,1,8,0:0:0:0:
82,113,89115,5,0,0:0:0:0:
156,34,89346,1,8,0:0:0:0:
254,78,89577,1,0,0:0:0:0:
244,185,89808,1,2,0:0:0:0:
138,209,90038,1,0,0:0:0:0:
156,33,90269,1,8,0:0:0:0:
244,185,90500,1,0,0:0:0:0:
343,143,90731,6,0,B|453:146|485:31,1,180,8|8,0:0|0:0,0:0:0:0:
479,47,91423,1,0,0:0:0:0:
342,247,91654,1,8,0:0:0:0:
281,336,91884,1,8,0:0:0:0:
173,330,92115,1,8,0:0:0:0:
281,336,92346,1,8,0:0:0:0:
343,246,92577,2,0,B|447:216|489:313,1,180,8|8,0:0|0:0,0:0:0:0:
293,172,93269,6,0,B|277:120|326:98,1,90,0|2,0:0|0:0,0:0:0:0:
229,236,93730,2,0,B|177:251|155:202,1,90,0|8,0:0|0:0,0:0:0:0:
282,306,94192,2,0,B|297:357|248:379,1,90,0|8,0:0|0:0,0:0:0:0:
145,344,94653,5,0,0:0:0:0:
68,267,94884,2,0,B|96:167|33:83,2,180,8|2|8,0:0|0:0|0:0,0:0:0:0:
68,267,96038,1,8,0:0:0:0:
168,73,96268,2,0,B|140:173|203:257,1,180,8|8,0:0|0:0,0:0:0:0:
189,353,96961,1,0,0:0:0:0:
281,297,97191,2,0,B|330:308|379:273,1,90,2|0,0:0|0:0,0:0:0:0:
442,358,97653,1,8,0:0:0:0:
442,358,97884,1,0,0:0:0:0:
487,78,98114,5,8,0:0:0:0:
487,78,98345,1,8,0:0:0:0:
487,78,98576,2,4,B|445:153|472:253,1,180,12|12,0:0|0:0,0:0:0:0:
421,34,99268,2,0,B|369:53|341:113,1,90,8|12,0:0|0:0,0:0:0:0:
353,90,99730,1,8,0:0:0:0:
217,292,99960,6,0,B|111:335|73:230,1,180,12|8,0:0|0:0,0:0:0:0:
35,130,100653,1,0,0:0:0:0:
128,75,100883,2,0,B|234:32|272:137,1,180,4|8,0:0|0:0,0:0:0:0:
337,221,101576,1,0,0:0:0:0:
423,157,101806,1,8,0:0:0:0:
382,369,102268,5,8,0:0:0:0:
298,300,102498,1,8,0:0:0:0:
198,341,102729,2,0,B|93:383|20:300,2,180,12|8|8,0:0|0:0|0:0,0:0:0:0:
298,300,103883,1,0,0:0:0:0:
261,198,104114,2,0,B|179:142|208:19,1,180,8|4,0:0|0:0,0:0:0:0:
98,15,104806,1,0,0:0:0:0:
38,105,105037,2,0,B|120:161|91:284,1,180,8|8,0:0|0:0,0:0:0:0:
347,337,105729,5,8,0:0:0:0:
347,337,105960,2,0,B|365:227,1,90,8|0,0:0|0:0,0:0:0:0:
348,141,106421,2,0,B|271:83|174:113,2,180,12|12|8,0:0|0:0|0:0,0:0:0:0:
443,90,107575,2,0,B|443:33|396:0,2,90,0|8|0,0:0|0:0|0:0,0:0:0:0:
421,196,108267,2,0,B|393:301|463:383,1,180,12|8,0:0|0:0,0:0:0:0:
341,367,108959,5,0,0:0:0:0:
233,377,109190,1,8,0:0:0:0:
125,384,109421,1,0,0:0:0:0:
283,264,109651,1,8,0:0:0:0:
175,274,109882,1,8,0:0:0:0:
67,281,110113,1,8,0:0:0:0:
67,281,110344,1,0,0:0:0:0:
64,103,110574,6,0,P|97:133|107:181,1,90,12|0,0:0|0:0,0:0:0:0:
107,175,111036,1,8,0:0:0:0:
256,16,111497,1,8,0:0:0:0:
404,175,111959,1,8,0:0:0:0:
160,224,112420,5,0,0:0:0:0:
88,304,112651,1,12,0:0:0:0:
352,224,113113,1,12,0:0:0:0:
424,304,113343,1,4,0:0:0:0:
256,376,113574,1,0,0:0:0:0:
256,376,113689,1,0,0:0:0:0:
256,376,113805,1,0,0:0:0:0:
256,264,114036,1,0,0:0:0:0:
344,112,114266,5,0,0:0:0:0:
304,80,114382,1,0,0:0:0:0:
256,72,114497,1,0,0:0:0:0:
208,80,114612,1,0,0:0:0:0:
168,112,114728,1,6,0:0:0:0:
432,224,115189,5,8,0:0:0:0:
432,224,115420,2,0,B|428:336|323:342,1,180,2|0,0:0|0:0,0:0:0:0:
256,248,116112,1,8,0:0:0:0:
188,342,116343,2,0,B|83:336|80:224,1,180,2|0,0:0|0:0,0:0:0:0:
216,152,117035,2,0,B|256:192|296:152,1,90,10|0,0:0|0:0,0:0:0:0:
340,240,117497,2,0,B|256:296|172:240,2,180,2|8|2,0:0|0:0|0:0,0:0:0:0:
384,104,118650,5,0,0:0:0:0:
256,32,118881,1,8,0:0:0:0:
128,104,119112,2,0,B|128:288,1,180,2|0,0:0|0:0,0:0:0:0:
256,264,119804,1,8,0:0:0:0:
384,284,120035,2,0,B|384:100,1,180,2|0,0:0|0:0,0:0:0:0:
253,179,120727,2,0,B|224:232|256:264|288:296|256:352,2,180,10|2|10,0:0|0:0|0:0,0:0:0:0:
455,113,122112,6,0,B|448:224|354:245,1,180,2|8,0:0|0:0,0:0:0:0:
157,245,122804,2,0,B|64:224|56:112,1,180,2|0,0:0|0:0,0:0:0:0:
256,8,123496,2,0,B|256:200,2,180,10|0|10,0:0|0:0|0:0,0:0:0:0:
376,160,124650,2,0,L|376:256,1,90,0|2,0:0|0:0,0:0:0:0:
136,160,125111,2,0,L|136:256,1,90,0|10,0:0|0:0,0:0:0:0:
344,320,125803,6,0,B|256:288|168:320,1,180,2|8,0:0|0:0,0:0:0:0:
64,248,126496,1,2,0:0:0:0:
168,184,126726,2,0,B|256:216|344:184,1,180,0|2,0:0|0:0,0:0:0:0:
456,120,127419,1,0,0:0:0:0:
344,56,127649,2,0,B|256:24|168:56,2,180,2|8|2,0:0|0:0|0:0,0:0:0:0:
256,136,128803,1,8,0:0:0:0:
256,256,129034,1,8,0:0:0:0:
256,368,129265,1,0,0:0:0:0:
168,304,129495,6,0,B|64:280|64:160,1,180,6|8,0:0|0:0,0:0:0:0:
344,304,130188,2,0,B|448:280|448:160,1,180,2|0,0:0|0:0,0:0:0:0:
256,184,130880,1,8,0:0:0:0:
340,60,131111,2,0,B|256:4|172:60,1,180,2|0,0:0|0:0,0:0:0:0:
176,224,131803,2,0,B|208:264|176:312,1,90,10|0,0:0|0:0,0:0:0:0:
344,176,132264,2,0,B|296:264|344:352,1,180,2|8,0:0|0:0,0:0:0:0:
172,71,133187,6,0,B|256:127|340:71,1,180,2|8,0:0|0:0,0:0:0:0:
392,176,133879,2,0,B|408:271|344:342,1,180,2|0,0:0|0:0,0:0:0:0:
256,248,134572,1,8,0:0:0:0:
169,342,134802,2,0,B|104:271|120:176,1,180,2|0,0:0|0:0,0:0:0:0:
172,70,135495,2,0,B|256:14|340:70,2,180,10|2|10,0:0|0:0|0:0,0:0:0:0:
256,240,136879,6,0,B|272:352|168:384,1,180,2|8,0:0|0:0,0:0:0:0:
297,169,137571,2,0,B|386:99|466:173,1,180,2|0,0:0|0:0,0:0:0:0:
214,168,138264,2,0,B|109:126|133:20,2,180,10|0|10,0:0|0:0|0:0,0:0:0:0:
448,320,139417,5,0,0:0:0:0:
352,264,139648,1,2,0:0:0:0:
64,320,139879,5,0,0:0:0:0:
160,264,140110,1,10,0:0:0:0:
256,32,140571,5,2,0:0:0:0:
16,136,141032,1,8,0:0:0:0:
112,192,141263,1,2,0:0:0:0:
496,136,141725,1,0,0:0:0:0:
400,192,141955,1,10,0:0:0:0:
200,216,142417,5,8,0:0:0:0:
256,312,142648,1,0,0:0:0:0:
312,216,142878,1,0,0:0:0:0:
152,352,143109,5,8,0:0:0:0:
360,352,143340,1,8,0:0:0:0:
328,112,143571,5,0,0:0:0:0:
368,80,143686,1,0,0:0:0:0:
408,48,143801,1,12,0:0:0:0:
184,112,144032,1,4,0:0:0:0:
144,80,144147,1,0,0:0:0:0:
104,48,144262,1,12,0:0:0:0:
32,17,156954,6,0,P|112:97|80:273,1,270,2|8,0:0|0:0,0:0:0:0:
218,257,157877,5,0,0:0:0:0:
299,327,158107,1,8,0:0:0:0:
404,299,158338,1,8,0:0:0:0:
426,192,158569,1,8,0:0:0:0:
47,293,159030,5,2,0:0:0:0:
153,317,159261,1,0,0:0:0:0:
206,222,159492,1,8,0:0:0:0:
134,142,159723,1,0,0:0:0:0:
36,186,159953,5,8,0:0:0:0:
153,317,160184,1,0,0:0:0:0:
134,142,160415,1,8,0:0:0:0:
47,293,160646,1,0,0:0:0:0:
206,222,160876,5,2,0:0:0:0:
304,176,161107,1,0,0:0:0:0:
291,68,161338,1,8,0:0:0:0:
186,46,161569,1,0,0:0:0:0:
134,142,161799,5,8,0:0:0:0:
291,68,162030,1,0,0:0:0:0:
206,222,162261,1,8,0:0:0:0:
186,46,162492,1,0,0:0:0:0:
304,176,162722,5,2,0:0:0:0:
376,256,162953,1,0,0:0:0:0:
325,350,163184,1,8,0:0:0:0:
219,331,163415,1,0,0:0:0:0:
206,222,163645,5,8,0:0:0:0:
325,350,163876,1,0,0:0:0:0:
304,176,164107,1,8,0:0:0:0:
219,331,164337,1,0,0:0:0:0:
376,256,164568,5,2,0:0:0:0:
474,212,164799,1,0,0:0:0:0:
462,104,165030,1,8,0:0:0:0:
355,82,165260,1,0,0:0:0:0:
355,82,165491,5,8,0:0:0:0:
256,304,165722,1,12,0:0:0:0:
157,82,165953,1,12,0:0:0:0:
465,293,166414,5,2,0:0:0:0:
359,317,166645,1,0,0:0:0:0:
306,222,166876,1,8,0:0:0:0:
378,142,167106,1,0,0:0:0:0:
476,186,167337,5,8,0:0:0:0:
359,317,167568,1,0,0:0:0:0:
378,142,167799,1,8,0:0:0:0:
465,293,168029,1,0,0:0:0:0:
306,222,168260,5,2,0:0:0:0:
208,176,168491,1,0,0:0:0:0:
221,68,168722,1,8,0:0:0:0:
326,46,168952,1,0,0:0:0:0:
378,142,169183,5,8,0:0:0:0:
221,68,169414,1,0,0:0:0:0:
306,222,169645,1,8,0:0:0:0:
326,46,169875,1,0,0:0:0:0:
208,176,170106,5,2,0:0:0:0:
136,256,170337,1,0,0:0:0:0:
187,350,170568,1,8,0:0:0:0:
293,331,170798,1,0,0:0:0:0:
306,222,171029,5,8,0:0:0:0:
187,350,171260,1,0,0:0:0:0:
208,176,171491,1,8,0:0:0:0:
293,331,171721,1,0,0:0:0:0:
136,256,171952,5,4,0:0:0:0:
38,212,172413,1,2,0:0:0:0:
50,104,172875,1,0,0:0:0:0:
256,192,172990,12,0,173798,0:0:0:0:
121,189,175182,6,0,B|114:116|137:56,2,134.999995976687,2|8|8,0:0|0:0|0:0,0:0:0:0:
215,209,176336,2,0,B|250:119|239:9,1,202.49999396503,2|8,0:0|0:0,0:0:0:0:
351,62,177259,2,0,B|327:121|334:194,1,134.999995976687,2|0,0:0|0:0,0:0:0:0:
414,209,177951,1,8,0:0:0:0:
451,280,178182,1,0,0:0:0:0:
395,338,178413,1,2,0:0:0:0:
394,337,178874,6,0,B|326:313|261:328,2,134.999995976687,8|8|8,0:0|0:0|0:0,0:0:0:0:
241,231,180028,2,0,B|337:207|441:245,1,202.49999396503,2|8,0:0|0:0,0:0:0:0:
398,42,180951,6,0,B|444:91|452:164,1,134.999995976687,2|0,0:0|0:0,0:0:0:0:
317,35,181643,2,0,B|262:84|250:149,2,134.999995976687,8|2|8,0:0|0:0|0:0,0:0:0:0:
346,194,183028,5,4,0:0:0:0:
346,194,183720,1,2,0:0:0:0:
346,194,184412,1,0,0:0:0:0:
346,194,185335,5,2,0:0:0:0:
271,225,185566,1,0,0:0:0:0:
308,296,185797,2,0,B|348:353|432:346,1,134.999995976687,2|2,0:0|0:0,0:0:0:0:
104,242,186720,5,12,0:0:0:0:
60,143,186950,1,0,0:0:0:0:
107,45,187181,1,8,0:0:0:0:
211,20,187412,1,0,0:0:0:0:
304,75,187642,2,0,B|383:15|480:54,2,180,2|8|2,0:0|0:0|0:0,0:0:0:0:
235,158,188796,1,0,0:0:0:0:
322,222,189027,2,0,B|412:258|492:198,1,180,8|4,0:0|0:0,0:0:0:0:
208,248,189719,5,0,0:0:0:0:
208,248,189835,1,0,0:0:0:0:
208,248,189950,1,0,0:0:0:0:
208,248,190065,1,0,0:0:0:0:
208,248,190181,1,0,0:0:0:0:
208,248,190296,1,0,0:0:0:0:
208,248,190411,6,0,B|191:342,1,90,6|0,0:0|0:0,0:0:0:0:
304,152,190873,1,8,0:0:0:0:
304,152,191104,2,0,B|337:341,1,180,2|0,0:0|0:0,0:0:0:0:
382,89,191796,1,8,0:0:0:0:
382,89,192027,2,0,B|413:270,1,180,2|0,0:0|0:0,0:0:0:0:
462,34,192719,1,10,0:0:0:0:
481,145,192950,1,0,0:0:0:0:
500,255,193180,1,2,0:0:0:0:
462,34,193642,1,8,0:0:0:0:
304,248,194103,6,0,B|320:342,1,90,2|0,0:0|0:0,0:0:0:0:
208,152,194565,1,8,0:0:0:0:
208,152,194796,2,0,B|174:341,1,180,2|0,0:0|0:0,0:0:0:0:
130,89,195488,1,8,0:0:0:0:
130,89,195718,2,0,B|98:270,1,180,2|0,0:0|0:0,0:0:0:0:
50,34,196411,1,10,0:0:0:0:
31,145,196641,1,0,0:0:0:0:
12,255,196872,1,2,0:0:0:0:
50,34,197334,1,8,0:0:0:0:
280,352,197795,6,0,B|96:352,1,180,2|8,0:0|0:0,0:0:0:0:
352,256,198487,1,2,0:0:0:0:
352,256,198718,2,0,B|168:256,1,180,0|8,0:0|0:0,0:0:0:0:
424,160,199410,2,0,B|240:160,1,180,2|0,0:0|0:0,0:0:0:0:
392,64,200103,6,0,B|300:64,1,90,10|0,0:0|0:0,0:0:0:0:
120,320,200564,2,0,B|212:320,1,90,2|0,0:0|0:0,0:0:0:0:
261,71,201026,6,0,B|147:83|140:188,2,180,10|2|8,0:0|0:0|0:0,0:0:0:0:
256,192,202179,1,2,0:0:0:0:
254,313,202410,2,0,B|368:301|375:196,2,180,0|2|8,0:0|0:0|0:0,0:0:0:0:
309,134,203564,5,0,0:0:0:0:
408,89,203794,1,0,0:0:0:0:
203,250,204025,5,8,0:0:0:0:
104,295,204256,1,12,0:0:0:0:
10,142,204487,5,4,0:0:0:0:
59,165,204602,1,0,0:0:0:0:
109,187,204717,1,8,0:0:0:0:
146,43,204948,1,0,0:0:0:0:
196,65,205064,1,0,0:0:0:0:
245,88,205149,1,14,0:0:0:0:
338,33,205379,1,0,0:0:0:0:
415,106,205610,2,0,B|410:204|500:254,2,180,10|2|8,0:0|0:0|0:0,0:0:0:0:
197,333,206764,5,0,0:0:0:0:
92,362,206994,1,0,0:0:0:0:
15,285,207225,1,0,0:0:0:0:
52,183,207456,6,0,B|101:163|92:112,1,90,10|0,0:0|0:0,0:0:0:0:
197,89,207917,2,0,B|283:149|239:247,1,180,2|8,0:0|0:0,0:0:0:0:
381,317,208610,1,0,0:0:0:0:
460,181,208840,2,0,B|374:120|417:23,2,180,2|10|2,0:0|0:0|0:0,0:0:0:0:
140,16,210225,5,10,0:0:0:0:
49,75,210456,1,0,0:0:0:0:
37,182,210715,1,2,0:0:0:0:
104,265,210945,1,0,0:0:0:0:
209,286,211176,2,0,B|310:299|356:378,2,180,10|2|8,0:0|0:0|0:0,0:0:0:0:
308,59,212560,6,0,B|477:118,1,180,6|8,0:0|0:0,0:0:0:0:
204,59,213252,2,0,B|35:118,1,180,6|0,0:0|0:0,0:0:0:0:
256,200,213945,1,8,0:0:0:0:
376,304,214175,2,0,B|252:400|128:304,1,270,2|10,0:0|0:0,0:0:0:0:
152,120,215098,5,0,0:0:0:0:
56,72,215329,1,2,0:0:0:0:
360,64,215560,5,0,0:0:0:0:
456,112,215790,1,10,0:0:0:0:
35,266,216252,6,0,B|204:325,1,180,6|8,0:0|0:0,0:0:0:0:
477,266,216944,2,0,B|308:325,1,180,6|0,0:0|0:0,0:0:0:0:
256,184,217636,1,12,0:0:0:0:
136,80,217867,2,0,B|260:-16|384:80,1,270,2|8,0:0|0:0,0:0:0:0:
408,296,218790,5,0,0:0:0:0:
496,232,219021,1,0,0:0:0:0:
104,296,219252,5,0,0:0:0:0:
16,232,219482,1,8,0:0:0:0:
256,240,219713,5,0,0:0:0:0:
256,240,219944,1,4,0:0:0:0:
