osu file format v12

[General]
AudioFilename: Happy Birthday Kenezz.mp3
AudioLeadIn: 2000
PreviewTime: 114039
Countdown: 0
SampleSet: Normal
StackLeniency: 0.7
Mode: 0
LetterboxInBreaks: 0

[Editor]
Bookmarks: 7684,66725,69492,116795,129484,144300,156943,175633,190400,205167,219938
DistanceSpacing: 1.1
BeatDivisor: 4
GridSize: 8

[Metadata]
Title:You Belong With Me
TitleUnicode:You Belong With Me
Artist:Taylor Swift
ArtistUnicode:Taylor Swift
Creator:ErufenRito
Version:Hard
Source:
Tags:Verdisphena aabc271 DaxMasterix
BeatmapID:156674
BeatmapSetID:46266

[Difficulty]
HPDrainRate:6
CircleSize:4
OverallDifficulty:6
ApproachRate:7
SliderMultiplier:1.6
SliderTickRate:1

[Events]
//Background and Video events
Video,-600,"Let's run~~.avi"
0,0,"Kenezz so kawaii.jpg",0,0
//Break Periods
2,63241,65833
2,144462,155339
//Storyboard Layer 0 (Background)
//Storyboard Layer 1 (Fail)
//Storyboard Layer 2 (Pass)
//Storyboard Layer 3 (Foreground)
//Storyboard Sound Samples
//Background Colour Transformations
3,100,0,0,0

[TimingPoints]
280,461.485213244626,4,2,1,80,1,0
2923,-100,4,2,2,50,0,0
3154,-100,4,2,1,70,0,0
6615,-100,4,2,2,50,0,0
6846,-100,4,2,1,70,0,0
10999,-100,4,2,2,50,0,0
11230,-100,4,2,2,70,0,0
11460,-100,4,2,1,70,0,0
14691,-100,4,2,2,50,0,0
14922,-100,4,2,2,70,0,0
15152,-100,4,2,1,70,0,0
20690,-100,4,2,1,70,0,0
23228,-100,4,2,2,50,0,0
23459,-100,4,2,1,70,0,0
25074,-100,4,2,2,50,0,0
25305,-100,4,2,1,70,0,0
25766,-100,4,2,2,50,0,0
25997,-100,4,2,2,70,0,0
26228,-100,4,2,1,70,0,0
26920,-100,4,2,2,50,0,0
27151,-100,4,2,1,70,0,0
28766,-100,4,2,2,50,0,0
28997,-100,4,2,1,70,0,0
29458,-100,4,2,2,50,0,0
29689,-100,4,2,2,70,0,0
29920,-100,4,2,1,70,0,0
30612,-100,4,2,2,50,0,0
30843,-100,4,2,1,70,0,0
35457,-100,4,2,1,70,0,0
36150,-100,4,2,2,50,0,0
36380,-100,4,2,1,70,0,0
36843,-100,4,2,2,30,0,0
37074,-100,4,2,2,70,0,0
37305,-100,4,2,1,70,0,0
37997,-100,4,2,2,50,0,0
38228,-100,4,2,1,70,0,0
39843,-100,4,2,2,50,0,0
40074,-100,4,2,1,70,0,0
40535,-100,4,2,2,30,0,0
40766,-100,4,2,2,70,0,0
40997,-100,4,2,1,70,0,0
41687,-100,4,2,2,50,0,0
41918,-100,4,2,1,70,0,0
43533,-100,4,2,2,50,0,0
43764,-100,4,2,2,70,0,0
43995,-100,4,2,2,50,0,0
44226,-100,4,2,2,70,0,0
44456,-100,4,2,1,70,0,0
45379,-100,4,2,2,50,0,0
45610,-100,4,2,1,70,0,0
47225,-100,4,2,2,50,0,0
47456,-100,4,2,1,70,0,0
48148,-100,4,2,2,70,0,0
48379,-100,4,2,1,70,0,0
48840,-100,4,2,2,50,0,0
49071,-100,4,2,2,70,0,0
50917,-100,4,2,1,100,0,0
51263,-100,4,2,1,70,0,0
51966,-100,4,1,1,70,0,1
63041,-100,4,2,1,70,0,0
70299,-100,4,2,2,50,0,0
70530,-100,4,2,1,70,0,0
73068,-100,4,2,2,50,0,0
73299,-100,4,2,1,70,0,0
73760,-100,4,2,2,50,0,0
73991,-100,4,2,2,70,0,0
74222,-100,4,2,1,70,0,0
77452,-100,4,2,2,50,0,0
77683,-100,4,2,2,70,0,0
77914,-100,4,2,1,70,0,0
80452,-100,4,2,2,100,0,0
80683,-100,4,2,1,70,0,0
82298,-100,4,2,2,50,0,0
82529,-100,4,2,1,70,0,0
83221,-100,4,2,2,60,0,0
83452,-100,4,2,2,40,0,0
83682,-100,4,2,1,70,0,0
84375,-100,4,2,2,50,0,0
84605,-100,4,2,1,70,0,0
86913,-100,4,2,2,50,0,0
87143,-100,4,2,1,70,0,0
88528,-100,4,2,2,50,0,0
88759,-100,4,2,2,70,0,0
88989,-100,4,2,1,70,0,0
90605,-100,4,2,2,50,0,0
90835,-100,4,2,1,70,0,0
91527,-100,4,2,2,50,0,0
91758,-100,4,2,2,30,0,0
91989,-100,4,2,1,70,0,0
92220,-100,4,2,2,50,0,0
92450,-100,4,2,2,70,0,0
92681,-100,4,2,1,70,0,0
94296,-100,4,2,2,50,0,0
94527,-100,4,2,1,70,0,0
95912,-100,4,2,2,50,0,0
96142,-100,4,2,2,70,0,0
96373,-100,4,2,1,70,0,0
97988,-100,4,2,2,70,0,0
98219,-100,4,2,2,50,0,0
98450,-100,4,2,1,70,0,0
99142,-100,4,2,2,30,0,0
99373,-100,4,2,1,70,0,0
99603,-100,4,2,2,50,0,0
99834,-100,4,2,2,70,0,0
100065,-100,4,2,1,70,0,0
100757,-100,4,2,1,50,0,0
100988,-100,4,2,1,70,0,0
101680,-100,4,2,2,50,0,0
101911,-100,4,2,1,70,0,0
102372,-100,4,2,2,50,0,0
102603,-100,4,2,2,70,0,0
102834,-100,4,2,1,70,0,0
103526,-100,4,2,2,50,0,0
103757,-100,4,2,1,70,0,0
104449,-100,4,2,1,50,0,0
104680,-100,4,2,1,70,0,0
105372,-100,4,2,2,70,0,0
105603,-100,4,2,2,50,0,0
105833,-100,4,2,1,70,0,0
106295,-100,4,2,2,70,0,0
106526,-100,4,2,1,70,0,0
107218,-100,4,2,2,50,0,0
107449,-100,4,2,1,70,0,0
108141,-100,4,2,2,50,0,0
108372,-100,4,2,1,70,0,0
109064,-100,4,2,2,50,0,0
109295,-100,4,2,1,70,0,0
109756,-100,4,2,2,50,0,0
109987,-100,4,2,2,70,0,0
110218,-100,4,2,1,70,0,0
110910,-100,4,2,2,70,0,0
112525,-100,4,2,1,70,0,0
113459,-100,4,1,1,70,0,0
114728,-100,4,1,1,70,0,1
128572,-100,4,1,1,70,0,0
129495,-100,4,1,1,70,0,1
142417,-100,4,1,1,70,0,0
155339,-100,4,1,2,70,0,0
157524,-100,4,2,1,70,0,0
157755,-100,4,1,2,50,0,0
158447,-100,4,2,1,70,0,0
158678,-100,4,1,2,70,0,0
159370,-100,4,2,1,70,0,0
159601,-100,4,1,2,70,0,0
161216,-100,4,2,1,70,0,0
161447,-100,4,1,2,70,0,0
163062,-100,4,2,1,70,0,0
163293,-100,4,1,2,70,0,0
164908,-100,4,2,1,70,0,0
165139,-100,4,1,2,70,0,0
165600,-100,4,2,1,70,0,0
166062,-100,4,1,2,70,0,0
166754,-100,4,2,1,70,0,0
166985,-100,4,1,2,70,0,0
168649,-100,4,2,1,70,0,0
168831,-100,4,1,2,70,0,0
170446,-100,4,2,1,70,0,0
170677,-100,4,1,2,70,0,0
171831,-100,4,2,1,70,0,0
175529,-100,4,2,2,70,0,0
175759,-100,4,1,2,70,0,0
178297,-100,4,2,2,70,0,0
178528,-100,4,1,2,70,0,0
186720,-100,4,1,1,70,0,1
189488,-100,4,1,1,70,0,0
189598,-100,4,1,1,70,0,0
190411,-100,4,1,1,70,0,1
205149,461.485213244626,4,1,1,50,1,0
210715,461.485213244626,4,1,1,50,1,0

[Colours]
Combo1 : 250,232,107
Combo2 : 149,186,71
Combo3 : 96,215,227
Combo4 : 255,155,205

[HitObjects]
48,80,280,2,0,P|104:128|184:112,1,160,4|8,0:0|0:0,0:0:0:0:
128,48,972,1,0,0:0:0:0:
48,80,1202,2,0,L|32:160,2,80,2|0|8,0:0|0:0|0:0,0:0:0:0:
128,48,1895,2,0,P|208:32|264:80,1,160,2|0,0:0|0:0,0:0:0:0:
320,144,2587,1,8,0:0:0:0:
352,64,2818,1,0,0:0:0:0:
408,136,3048,2,0,L|392:216,1,80,8|0,0:0|0:0,0:0:0:0:
495,294,3510,2,0,L|479:215,1,80,8|0,0:0|0:0,0:0:0:0:
408,296,3971,6,0,P|352:344|272:328,1,160,4|8,0:0|0:0,0:0:0:0:
328,264,4663,1,0,0:0:0:0:
408,296,4894,2,0,L|424:376,2,80,2|0|8,0:0|0:0|0:0,0:0:0:0:
328,264,5587,2,0,P|248:248|192:296,1,160,2|0,0:0|0:0,0:0:0:0:
136,360,6278,1,8,0:0:0:0:
104,280,6509,1,0,0:0:0:0:
72,200,6740,1,8,0:0:0:0:
40,120,6971,1,0,0:0:0:0:
8,40,7202,1,8,0:0:0:0:
8,40,7433,1,0,0:0:0:0:
8,40,7663,6,0,P|88:48|128:112,1,160,4|8,0:0|0:0,0:0:0:0:
40,120,8355,1,0,0:0:0:0:
72,200,8586,2,0,P|142:222|209:177,1,160,2|8,0:0|0:0,0:0:0:0:
272,112,9278,1,0,0:0:0:0:
336,48,9509,2,0,P|406:25|473:70,2,160,2|8|2,0:0|0:0|0:0,0:0:0:0:
272,112,10663,2,0,P|201:134|134:89,1,160,2|8,0:0|0:0,0:0:0:0:
56,48,11355,1,8,0:0:0:0:
56,136,11586,1,0,0:0:0:0:
72,224,11817,6,0,P|80:264|104:296,1,80,8|0,0:0|0:0,0:0:0:0:
184,328,12278,2,0,P|224:320|256:296,1,80
288,216,12740,2,0,P|280:176|256:144,1,80,8|0,0:0|0:0,0:0:0:0:
184,104,13201,1,2,0:0:0:0:
184,104,13432,2,0,P|248:64|320:96,1,160,2|0,0:0|0:0,0:0:0:0:
455,87,14355,2,0,P|391:127|319:95,1,160,2|8,0:0|0:0,0:0:0:0:
384,32,15047,1,8,0:0:0:0:
455,87,15278,1,0,0:0:0:0:
472,176,15509,6,0,P|472:256|424:320,1,160,8|2,0:0|0:0,0:0:0:0:
344,288,16201,2,0,P|344:208|392:144,1,160,0|0,0:0|0:0,0:0:0:0:
320,96,16893,1,2,0:0:0:0:
272,168,17124,2,0,P|209:213|129:213,2,160,0|2|0,0:0|0:0|0:0,0:0:0:0:
320,96,18277,1,8,0:0:0:0:
232,88,18508,1,0,0:0:0:0:
184,168,18739,6,0,B|170:64|64:103|24:208|135:215|123:316|123:316|193:242|270:323|339:231|279:115|200:176,1,640,2|2,0:0|0:0,0:0:0:0:
232,88,20816,1,0,0:0:0:0:
320,96,21046,1,8,0:0:0:0:
408,104,21277,1,2,0:0:0:0:
408,104,21392,1,0,0:0:0:0:
408,104,21508,2,0,L|448:176,1,80,2|0,0:0|0:0,0:0:0:0:
368,216,21969,2,0,L|408:288,1,80,8|0,0:0|0:0,0:0:0:0:
328,328,22431,6,0,P|248:304|184:344,1,160,2|8,0:0|0:0,0:0:0:0:
96,336,23123,1,0,0:0:0:0:
96,248,23354,2,0,P|120:168|80:104,1,160,8|8,0:0|0:0,0:0:0:0:
32,184,24046,1,0,0:0:0:0:
32,184,24277,2,0,L|112:176,1,80,2|0,0:0|0:0,0:0:0:0:
224,112,24738,2,0,L|144:104,1,80,8|0,0:0|0:0,0:0:0:0:
32,40,25200,2,0,L|112:32,2,80,8|0|8,0:0|0:0|0:0,0:0:0:0:
144,104,25892,2,0,L|304:120,1,160,8|0,0:0|0:0,0:0:0:0:
392,128,26584,5,8,0:0:0:0:
392,128,26815,1,0,0:0:0:0:
456,192,27046,1,8,0:0:0:0:
456,192,27276,1,0,0:0:0:0:
480,280,27507,2,0,P|440:296|400:296,1,80,8|0,0:0|0:0,0:0:0:0:
272,248,27969,2,0,P|312:232|352:232,1,80,2|0,0:0|0:0,0:0:0:0:
264,328,28430,2,0,P|192:352|104:344,1,160,8|8,0:0|0:0,0:0:0:0:
20,288,29122,2,0,P|92:264|180:272,2,160,2|8|0,0:0|0:0|0:0,0:0:0:0:
110,345,30276,6,0,P|101:269|56:193,1,160,8|8,0:0|0:0,0:0:0:0:
20,288,30968,2,0,P|96:272|168:224,1,160,0|0,0:0|0:0,0:0:0:0:
256,214,31660,1,2,0:0:0:0:
347,227,31891,2,0,P|416:272|492:288,2,160,0|2|0,0:0|0:0|0:0,0:0:0:0:
256,214,33045,1,8,0:0:0:0:
248,56,33506,6,0,B|191:-32|111:47|119:159|223:119|255:215|255:215|287:119|391:160|415:47|311:-32|264:60,1,640,2|2,0:0|0:0,0:0:0:0:
176,224,35814,2,0,P|152:256|96:280,1,80,8|0,0:0|0:0,0:0:0:0:
256,264,36275,2,0,L|256:344,1,80,8|0,0:0|0:0,0:0:0:0:
336,224,36737,2,0,P|360:256|416:280,1,80,8|0,0:0|0:0,0:0:0:0:
336,80,37198,6,0,P|256:64|176:80,1,160,8|8,0:0|0:0,0:0:0:0:
368,272,38121,2,0,P|384:192|368:112,1,160,8|8,0:0|0:0,0:0:0:0:
176,304,39044,2,0,P|256:320|336:304,1,160,4|8,0:0|0:0,0:0:0:0:
144,112,39967,2,0,P|128:192|144:272,1,160,8|8,0:0|0:0,0:0:0:0:
256,288,40659,1,8,0:0:0:0:
369,268,40890,6,0,B|400:296|440:288|440:288|472:264|464:208,1,160,12|8,0:0|0:0,0:0:0:0:
384,184,41582,1,0,0:0:0:0:
320,80,41813,2,0,L|398:99,1,80,8|0,0:0|0:0,0:0:0:0:
256,144,42275,2,0,L|178:125,1,80,8|0,0:0|0:0,0:0:0:0:
96,160,42736,2,0,B|88:211|120:235|120:235|160:243|190:215,1,160,2|8,0:0|0:0,0:0:0:0:
256,272,43428,1,0,0:0:0:0:
321,215,43659,2,0,B|351:243|391:235|391:235|423:211|416:160,1,160,8|8,0:0|0:0,0:0:0:0:
256,80,44582,6,0,P|216:64|176:56,1,80,4|0,0:0|0:0,0:0:0:0:
64,112,45044,2,0,P|104:128|144:136,1,80,8|0,0:0|0:0,0:0:0:0:
224,160,45505,2,0,P|184:216|96:208,1,160,8|8,0:0|0:0,0:0:0:0:
56,288,46197,1,0,0:0:0:0:
128,336,46428,2,0,L|200:288,1,80,4|0,0:0|0:0,0:0:0:0:
280,296,46890,1,8,0:0:0:0:
365,300,47120,2,0,P|432:256|464:184,1,160,2|0,0:0|0:0,0:0:0:0:
456,56,47812,2,0,P|432:88|416:128,1,80,8|0,0:0|0:0,0:0:0:0:
463,185,48274,5,8,0:0:0:0:
376,208,48966,1,8,0:0:0:0:
384,224,49197,1,8,0:0:0:0:
288,230,50120,1,8,0:0:0:0:
200,250,50812,1,8,0:0:0:0:
209,266,51043,1,8,0:0:0:0:
176,347,51274,1,0,0:0:0:0:
88,343,51504,1,8,0:0:0:0:
66,257,51735,1,0,0:0:0:0:
136,208,51966,6,0,B|128:152|128:152|160:96|216:128,1,160,6|8,0:0|0:0,0:0:0:0:
376,208,52658,2,0,B|384:152|384:152|352:96|297:127,1,160,2|0,0:0|0:0,0:0:0:0:
256,208,53350,1,8,0:0:0:0:
312,280,53581,2,0,B|280:334|336:366|336:366|392:358,1,160,2|0,0:0|0:0,0:0:0:0:
200,280,54273,2,0,B|231:334|175:366|175:366|119:358,2,160,10|0|8,0:0|0:0|0:0,0:0:0:0:
256,208,55427,1,0,0:0:0:0:
297,126,55658,6,0,B|336:80|336:80|384:96|432:64,1,160,2|8,0:0|0:0,0:0:0:0:
214,126,56350,2,0,B|176:80|176:80|128:96|80:64,1,160,2|0,0:0|0:0,0:0:0:0:
48,144,57042,1,8,0:0:0:0:
80,224,57273,2,0,B|118:270|118:270|166:254|213:285,1,160,2|0,0:0|0:0,0:0:0:0:
432,224,57965,2,0,B|393:270|393:270|345:254|298:285,2,160,10|0|8,0:0|0:0|0:0,0:0:0:0:
408,136,59119,1,0,0:0:0:0:
344,72,59350,6,0,P|272:32|192:32,1,160,2|8,0:0|0:0,0:0:0:0:
176,112,60042,2,0,P|248:152|328:152,1,160,2|0,0:0|0:0,0:0:0:0:
408,136,60734,2,0,P|384:216|312:240,2,160,10|0|10,0:0|0:0|0:0,0:0:0:0:
344,72,61888,1,0,0:0:0:0:
256,56,62119,1,2,0:0:0:0:
168,72,62349,1,0,0:0:0:0:
168,72,62465,1,0,0:0:0:0:
168,72,62580,1,8,0:0:0:0:
256,192,63041,5,4,0:0:0:0:
48,72,66733,6,0,P|88:88|136:80,1,80,4|0,0:0|0:0,0:0:0:0:
284,84,67195,2,0,P|244:68|208:72,1,80,8|0,0:0|0:0,0:0:0:0:
176,152,67656,1,2,0:0:0:0:
256,184,67887,1,0,0:0:0:0:
336,152,68118,1,8,0:0:0:0:
387,84,68349,1,2,0:0:0:0:
424,160,68579,2,0,L|440:240,1,80,0|0,0:0|0:0,0:0:0:0:
312,320,69041,2,0,L|328:242,1,80,8|0,0:0|0:0,0:0:0:0:
184,242,69502,2,0,L|200:320,1,80,4|0,0:0|0:0,0:0:0:0:
72,238,69964,2,0,L|88:160,1,80,12|0,0:0|0:0,0:0:0:0:
168,128,70425,6,0,P|248:112|288:48,1,160,8|8,0:0|0:0,0:0:0:0:
200,48,71117,1,0,0:0:0:0:
200,48,71348,2,0,L|286:182,1,160,2|8,0:0|0:0,0:0:0:0:
376,200,72040,2,0,P|336:264|256:264,1,160,2|0,0:0|0:0,0:0:0:0:
288,182,72733,2,0,P|328:118|408:118,1,160,8|8,0:0|0:0,0:0:0:0:
376,200,73425,1,0,0:0:0:0:
464,184,73656,1,8,0:0:0:0:
435,268,73886,2,0,P|376:320|296:336,1,160,8|0,0:0|0:0,0:0:0:0:
162,312,74579,6,0,P|194:288|232:280,1,80,8|0,0:0|0:0,0:0:0:0:
80,336,75040,2,0,P|40:344|3:335,1,80,2|0,0:0|0:0,0:0:0:0:
96,176,75502,2,0,P|104:215|96:256,1,80,8|0,0:0|0:0,0:0:0:0:
16,216,75963,1,2,0:0:0:0:
16,128,76194,2,0,P|88:88|160:112,2,160,2|2|0,0:0|0:0|0:0,0:0:0:0:
96,176,77348,1,8,0:0:0:0:
184,192,77579,1,8,0:0:0:0:
272,208,77809,6,0,P|344:248|416:224,1,160,8|8,0:0|0:0,0:0:0:0:
352,160,78501,1,0,0:0:0:0:
272,208,78732,2,0,P|256:168|264:128,1,80,2|0,0:0|0:0,0:0:0:0:
432,112,79193,2,0,P|448:152|440:192,1,80,8|0,0:0|0:0,0:0:0:0:
304,80,79655,2,0,P|344:64|379:69,1,80,2|0,0:0|0:0,0:0:0:0:
400,240,80117,2,0,P|360:256|324:250,1,80,8|0,0:0|0:0,0:0:0:0:
352,160,80578,1,8,0:0:0:0:
304,80,80809,2,0,B|248:40|208:128|152:80,2,160,2|2|0,0:0|0:0|0:0,0:0:0:0:
384,40,81962,1,8,0:0:0:0:
432,112,82193,6,0,L|464:192,2,80,2|8|0,0:0|0:0|0:0,0:0:0:0:
352,160,82885,2,0,L|322:234,1,80,8|0,0:0|0:0,0:0:0:0:
408,264,83347,2,0,P|360:320|280:312,1,160,12|8,0:0|0:0,0:0:0:0:
321,234,84039,1,0,0:0:0:0:
232,240,84270,2,0,P|152:232|104:288,1,160,10|8,0:0|0:0,0:0:0:0:
191,318,84962,1,8,0:0:0:0:
191,318,85193,6,0,L|120:160,1,160,4|8,0:0|0:0,0:0:0:0:
40,192,85885,1,0,0:0:0:0:
40,192,86116,2,0,P|48:120|128:88,1,160,2|8,0:0|0:0,0:0:0:0:
200,128,86808,1,0,0:0:0:0:
279,170,87039,2,0,P|320:200|360:200,2,80,8|0|8,0:0|0:0|0:0,0:0:0:0:
423,143,87731,2,0,P|352:96|280:80,1,160,2|0,0:0|0:0,0:0:0:0:
279,170,88423,1,8,0:0:0:0:
279,259,88654,1,8,0:0:0:0:
192,288,88885,6,0,P|160:256|128:248,1,80,8|0,0:0|0:0,0:0:0:0:
264,344,89346,2,0,P|308:356|340:347,1,80,8|0,0:0|0:0,0:0:0:0:
355,218,89808,2,0,P|389:247|422:252,1,80,2|0,0:0|0:0,0:0:0:0:
279,169,90269,2,0,P|235:157|203:166,1,80,8|0,0:0|0:0,0:0:0:0:
360,128,90731,2,0,P|344:80|248:88,1,160,8|8,0:0|0:0,0:0:0:0:
202,166,91423,1,0,0:0:0:0:
155,247,91654,2,0,B|104:232|80:280|40:248,2,120,8|2|8,0:0|0:0|0:0,0:0:0:0:
200,328,92577,1,8,0:0:0:0:
248,256,92807,1,0,0:0:0:0:
248,256,93038,6,0,L|328:288,1,80,8|0,0:0|0:0,0:0:0:0:
448,216,93500,2,0,L|368:184,1,80,2|0,0:0|0:0,0:0:0:0:
341,102,93961,1,8,0:0:0:0:
288,28,94192,1,0,0:0:0:0:
201,56,94423,1,8,0:0:0:0:
201,147,94653,1,0,0:0:0:0:
288,176,94884,2,0,B|336:240|304:272|352:320,2,160,8|2|8,0:0|0:0|0:0,0:0:0:0:
224,232,96038,1,8,0:0:0:0:
224,232,96268,6,0,P|192:256|152:264,1,80,8|0,0:0|0:0,0:0:0:0:
1,271,96730,2,0,P|33:247|72:240,1,80,8|0,0:0|0:0,0:0:0:0:
224,128,97191,2,0,P|192:152|152:160,1,80,2|0,0:0|0:0,0:0:0:0:
1,167,97653,2,0,P|33:143|71:135,1,80,8|0,0:0|0:0,0:0:0:0:
136,80,98114,1,4,0:0:0:0:
256,208,98575,1,4,0:0:0:0:
376,80,99037,1,4,0:0:0:0:
256,32,99499,1,12,0:0:0:0:
256,120,99730,1,8,0:0:0:0:
256,208,99960,6,0,B|312:200|312:200|336:248|392:264,1,160,4|8,0:0|0:0,0:0:0:0:
256,208,100883,2,0,B|200:200|200:200|176:248|120:264,1,160,2|8,0:0|0:0,0:0:0:0:
344,328,101806,2,0,P|416:344|464:280,1,160,2|8,0:0|0:0,0:0:0:0:
168,328,102729,2,0,P|96:344|48:280,1,160,2|8,0:0|0:0,0:0:0:0:
88,192,103421,1,0,0:0:0:0:
48,101,103652,6,0,B|88:72|88:72|128:104|128:104|184:72,1,160,8|8,0:0|0:0,0:0:0:0:
256,144,104344,1,0,0:0:0:0:
332,74,104575,2,0,B|384:104|384:104|424:72|424:72|463:101,1,160,2|8,0:0|0:0,0:0:0:0:
328,224,105498,2,0,L|312:304,1,80,8|8,0:0|0:0,0:0:0:0:
199,302,105960,2,0,L|184:224,1,80,8|0,0:0|0:0,0:0:0:0:
256,144,106421,1,4,0:0:0:0:
256,144,106883,1,4,0:0:0:0:
408,240,107344,6,0,P|440:264|478:271,1,80,8|0,0:0|0:0,0:0:0:0:
328,224,107806,2,0,P|288:215|250:224,1,80,8|0,0:0|0:0,0:0:0:0:
352,304,108267,1,8,0:0:0:0:
160,304,108729,1,8,0:0:0:0:
184,224,108959,1,0,0:0:0:0:
104,240,109190,2,0,P|56:224|32:200,2,80,8|0|8,0:0|0:0|0:0,0:0:0:0:
128,160,109882,2,0,P|176:144|272:200,1,160,8|0,0:0|0:0,0:0:0:0:
320,264,110574,1,8,0:0:0:0:
372,335,110805,1,0,0:0:0:0:
408,256,111036,5,4,0:0:0:0:
320,264,111497,1,4,0:0:0:0:
232,272,111959,1,4,0:0:0:0:
144,280,112420,2,0,L|56:288,1,80,4|8,0:0|0:0,0:0:0:0:
296,184,112882,2,0,L|208:192,1,80,0|8,0:0|0:0,0:0:0:0:
447,96,113343,2,0,L|368:104,1,80,0|0,0:0|0:0,0:0:0:0:
343,108,113689,1,0,0:0:0:0:
318,110,113805,1,0,0:0:0:0:
230,115,114036,1,0,0:0:0:0:
144,98,114266,2,0,L|88:90,3,40
64,96,114728,6,0,P|40:168|88:232,1,160,6|8,0:0|0:0,0:0:0:0:
188,320,115420,2,0,P|212:248|164:184,1,160,2|0,0:0|0:0,0:0:0:0:
256,144,116112,1,8,0:0:0:0:
346,185,116343,2,0,P|299:248|324:320,1,160,2|0,0:0|0:0,0:0:0:0:
425,231,117035,2,0,P|472:168|447:96,2,160,10|0|8,0:0|0:0|0:0,0:0:0:0:
346,185,118189,1,0,0:0:0:0:
256,144,118420,6,0,B|208:192|144:176|144:176|112:144,1,160,2|8,0:0|0:0,0:0:0:0:
256,144,119112,2,0,B|304:192|368:176|368:176|400:144,1,160,2|0,0:0|0:0,0:0:0:0:
456,216,119804,1,8,0:0:0:0:
440,304,120035,2,0,B|392:256|328:272|328:272|296:304,1,160,2|0,0:0|0:0,0:0:0:0:
72,304,120727,2,0,B|120:256|184:272|184:272|216:304,2,160,10|0|8,0:0|0:0|0:0,0:0:0:0:
56,216,121881,1,0,0:0:0:0:
117,149,122112,6,0,P|168:96|256:112,1,160,2|8,0:0|0:0,0:0:0:0:
280,192,122804,2,0,P|229:245|141:229,1,160,2|0,0:0|0:0,0:0:0:0:
56,216,123496,2,0,P|80:288|152:328,2,160,10|0|10,0:0|0:0|0:0,0:0:0:0:
117,149,124650,1,0,0:0:0:0:
149,235,124881,1,2,0:0:0:0:
232,192,125111,1,0,0:0:0:0:
232,192,125227,1,0,0:0:0:0:
232,192,125342,1,10,0:0:0:0:
312,216,125573,1,0,0:0:0:0:
394,234,125803,6,0,P|344:288|256:272,1,160,2|8,0:0|0:0,0:0:0:0:
232,192,126496,2,0,P|282:138|370:154,1,160,2|0,0:0|0:0,0:0:0:0:
456,168,127188,2,0,P|432:96|360:56,2,160,10|0|8,0:0|0:0|0:0,0:0:0:0:
394,234,128341,1,0,0:0:0:0:
362,148,128572,1,4,0:0:0:0:
280,192,128802,1,0,0:0:0:0:
280,192,128918,1,0,0:0:0:0:
280,192,129033,1,12,0:0:0:0:
200,168,129265,1,0,0:0:0:0:
216,248,129495,6,0,B|192:288|192:288|136:280|88:328,1,160,6|8,0:0|0:0,0:0:0:0:
296,248,130188,2,0,B|320:288|320:288|376:280|424:328,1,160,2|0,0:0|0:0,0:0:0:0:
448,240,130880,1,8,0:0:0:0:
424,152,131111,2,0,B|400:112|400:112|344:120|296:72,1,160,2|0,0:0|0:0,0:0:0:0:
88,152,131803,2,0,B|112:112|112:112|168:120|216:72,2,160,10|0|8,0:0|0:0|0:0,0:0:0:0:
152,208,132956,1,0,0:0:0:0:
216,280,133187,6,0,P|136:296|72:256,1,160,2|8,0:0|0:0,0:0:0:0:
296,280,133879,2,0,P|376:296|440:256,1,160,2|0,0:0|0:0,0:0:0:0:
356,208,134572,1,8,0:0:0:0:
440,160,134802,2,0,P|376:120|296:136,1,160,2|0,0:0|0:0,0:0:0:0:
72,160,135495,2,0,P|136:120|216:136,2,160,10|0|8,0:0|0:0|0:0,0:0:0:0:
156,208,136648,1,0,0:0:0:0:
144,232,136764,1,0,0:0:0:0:
132,256,136879,6,0,L|204:296,1,80,2|0,0:0|0:0,0:0:0:0:
310,294,137341,2,0,L|380:256,1,80,8|0,0:0|0:0,0:0:0:0:
376,168,137802,2,0,L|306:129,1,80,0|0,0:0|0:0,0:0:0:0:
197,129,138264,2,0,L|127:167,1,80,10|0,0:0|0:0,0:0:0:0:
56,216,138725,1,0,0:0:0:0:
132,256,138956,1,0,0:0:0:0:
208,216,139187,1,10,0:0:0:0:
256,288,139417,1,0,0:0:0:0:
304,216,139648,1,10,0:0:0:0:
380,256,139879,1,0,0:0:0:0:
380,256,139994,1,0,0:0:0:0:
380,256,140110,1,10,0:0:0:0:
456,216,140340,1,0,0:0:0:0:
380,176,140571,6,0,L|392:96,1,80,2|0,0:0|0:0,0:0:0:0:
256,40,141032,2,0,L|256:136,1,80,8|0,0:0|0:0,0:0:0:0:
132,176,141494,2,0,L|120:96,2,80,0|0|10,0:0|0:0|0:0,0:0:0:0:
176,264,142186,2,0,L|112:312,2,80,0|0|0,0:0|0:0|0:0,0:0:0:0:
336,264,142878,2,0,L|400:312,1,80,10|0,0:0|0:0,0:0:0:0:
256,120,143340,1,2,0:0:0:0:
368,160,143571,2,0,L|408:136,2,40,0|0|12,0:0|0:0|0:0,0:0:0:0:
144,160,144032,2,0,L|104:136,2,40,0|0|12,0:0|0:0|0:0,0:0:0:0:
60,104,156954,5,0,0:0:0:0:
60,104,157184,2,0,P|116:152|212:144,1,160,2|8,0:0|0:0,0:0:0:0:
353,113,157877,2,0,P|316:104|276:112,2,80,0|8|0,0:0|0:0|0:0,0:0:0:0:
396,192,158569,2,0,P|428:168|444:120,1,80,8|0,0:0|0:0,0:0:0:0:
353,113,159030,5,4,0:0:0:0:
300,184,159261,1,0,0:0:0:0:
396,192,159492,1,8,0:0:0:0:
343,263,159723,1,0,0:0:0:0:
439,271,159953,2,0,P|396:336|316:352,1,160,8|8,0:0|0:0,0:0:0:0:
159,113,160876,5,2,0:0:0:0:
212,184,161107,1,0,0:0:0:0:
116,192,161338,1,8,0:0:0:0:
169,263,161569,1,0,0:0:0:0:
73,271,161799,2,0,P|116:336|196:352,1,160,8|8,0:0|0:0,0:0:0:0:
256,296,162492,1,0,0:0:0:0:
319,239,162722,6,0,P|344:208|360:168,1,80,2|0,0:0|0:0,0:0:0:0:
336,48,163184,2,0,P|311:79|295:119,1,80,8|0,0:0|0:0,0:0:0:0:
193,239,163645,2,0,P|168:208|152:168,1,80,8|0,0:0|0:0,0:0:0:0:
176,48,164107,2,0,P|201:79|217:119,1,80,8|0,0:0|0:0,0:0:0:0:
319,239,164568,2,0,P|360:272|400:280,1,80,2|0,0:0|0:0,0:0:0:0:
193,239,165030,2,0,P|152:272|112:280,1,80,8|0,0:0|0:0,0:0:0:0:
256,136,165491,1,8,0:0:0:0:
319,239,165722,1,4,0:0:0:0:
192,240,165953,1,12,0:0:0:0:
360,144,166183,1,0,0:0:0:0:
360,144,166414,6,0,P|392:168|416:208,1,80,2|0,0:0|0:0,0:0:0:0:
373,297,166876,2,0,P|341:273|320:240,1,80,8|0,0:0|0:0,0:0:0:0:
328,48,167337,2,0,P|256:80|184:48,1,160,8|8,0:0|0:0,0:0:0:0:
152,144,168029,1,0,0:0:0:0:
152,144,168260,2,0,P|120:168|96:208,1,80,2|0,0:0|0:0,0:0:0:0:
139,297,168722,2,0,P|171:273|192:240,1,80,8|0,0:0|0:0,0:0:0:0:
184,48,169183,2,0,P|256:80|328:48,1,160,8|8,0:0|0:0,0:0:0:0:
360,144,169875,1,0,0:0:0:0:
393,238,170106,6,0,P|368:272|328:288,1,80,2|0,0:0|0:0,0:0:0:0:
174,299,170568,2,0,P|211:279|248:280,1,80,8|0,0:0|0:0,0:0:0:0:
360,144,171029,2,0,P|296:192|208:192,1,160,8|8,0:0|0:0,0:0:0:0:
256,112,171721,1,2,0:0:0:0:
360,144,171952,5,2,0:0:0:0:
256,336,172413,1,0,0:0:0:0:
152,144,172875,2,0,B|168:224|256:256|256:256|344:224|360:144,1,320
48,56,175182,5,2,0:0:0:0:
56,80,175413,1,0,0:0:0:0:
64,104,175644,6,0,P|128:144|192:96,1,160,8|8,0:0|0:0,0:0:0:0:
252,33,176336,2,0,P|295:95|255:159,1,160,2|0,0:0|0:0,0:0:0:0:
192,224,177028,1,8,0:0:0:0:
128,288,177259,2,0,P|64:248|0:296,1,160,2|0,0:0|0:0,0:0:0:0:
64,352,177951,1,8,0:0:0:0:
128,288,178182,1,0,0:0:0:0:
208,328,178413,1,8,0:0:0:0:
272,264,178644,1,0,0:0:0:0:
352,304,178874,1,8,0:0:0:0:
408,240,179105,1,0,0:0:0:0:
472,176,179336,6,0,P|416:152|328:192,1,160,2|8,0:0|0:0,0:0:0:0:
272,264,180028,2,0,P|234:177|258:121,1,160,2|0,0:0|0:0,0:0:0:0:
344,96,180720,1,8,0:0:0:0:
280,40,180951,2,0,P|224:16|136:56,1,160,2|0,0:0|0:0,0:0:0:0:
49,52,181643,2,0,P|57:94|107:128,1,80,8|0,0:0|0:0,0:0:0:0:
18,180,182105,2,0,P|15:228|-9:264,1,80,2|0,0:0|0:0,0:0:0:0:
16,341,182566,1,8,0:0:0:0:
96,304,182797,1,0,0:0:0:0:
96,304,183028,6,0,B|208:336|208:336|232:240|88:152|88:152|168:32|256:128|256:128|344:32|424:152|424:152|280:240|304:336|304:336|416:304,1,1120,2|0,0:0|0:0,0:0:0:0:
256,192,186720,12,4,189027,0:0:0:0:
256,40,189488,6,0,L|320:88,1,80,4|0,0:0|0:0,0:0:0:0:
256,152,189950,2,0,L|192:200,1,80,4|0,0:0|0:0,0:0:0:0:
256,272,190411,2,0,B|304:264|304:264|344:304|416:288,1,160,6|8,0:0|0:0,0:0:0:0:
256,272,191104,2,0,B|208:264|208:264|168:304|96:288,1,160,2|0,0:0|0:0,0:0:0:0:
136,208,191796,1,8,0:0:0:0:
64,152,192027,2,0,B|115:112|168:131|168:131|208:103,1,160,2|0,0:0|0:0,0:0:0:0:
448,152,192719,2,0,B|396:112|343:131|343:131|303:103,2,160,10|0|8,0:0|0:0|0:0,0:0:0:0:
376,208,193873,1,0,0:0:0:0:
416,288,194103,6,0,B|392:344|328:360|328:360|288:328,1,160,2|8,0:0|0:0,0:0:0:0:
96,288,194796,2,0,B|120:344|184:360|184:360|224:328,1,160,2|0,0:0|0:0,0:0:0:0:
256,256,195488,1,8,0:0:0:0:
296,176,195718,2,0,B|320:120|384:104|384:104|424:136,1,160,2|0,0:0|0:0,0:0:0:0:
216,176,196411,2,0,B|192:120|128:104|128:104|88:136,2,160,10|0|8,0:0|0:0|0:0,0:0:0:0:
136,208,197564,1,0,0:0:0:0:
56,240,197795,6,0,P|120:288|200:272,1,160,2|8,0:0|0:0,0:0:0:0:
317,275,198487,2,0,P|392:288|456:240,1,160,2|0,0:0|0:0,0:0:0:0:
328,128,199180,2,0,P|256:96|184:128,1,160,10|0,0:0|0:0,0:0:0:0:
317,275,199872,1,0,0:0:0:0:
256,184,200103,1,10,0:0:0:0:
194,275,200333,1,0,0:0:0:0:
256,364,200564,1,2,0:0:0:0:
317,275,200795,2,0,L|384:224,1,80,0|8,0:0|0:0,0:0:0:0:
194,275,201256,2,0,L|128:224,1,80,0|2,0:0|0:0,0:0:0:0:
64,168,201718,5,0,0:0:0:0:
168,72,201949,2,0,L|72:88,1,80,8|2,0:0|0:0,0:0:0:0:
256,192,202410,1,0,0:0:0:0:
360,96,202641,2,0,L|264:112,1,80,0|10,0:0|0:0,0:0:0:0:
344,312,203102,1,0,0:0:0:0:
448,216,203333,2,0,L|352:232,1,80,2|0,0:0|0:0,0:0:0:0:
168,312,203794,1,8,0:0:0:0:
64,216,204025,2,0,L|160:232,1,80,0|8,0:0|0:0,0:0:0:0:
256,184,204487,1,0,0:0:0:0:
256,184,204602,1,0,0:0:0:0:
256,184,204718,1,8,0:0:0:0:
256,72,204948,1,0,0:0:0:0:
256,72,205064,1,0,0:0:0:0:
256,72,205149,6,0,L|336:96,1,80,10|0,0:0|0:0,0:0:0:0:
256,184,205610,2,0,L|176:160,1,80,8|0,0:0|0:0,0:0:0:0:
380,196,206071,2,0,L|460:220,1,80,2|0,0:0|0:0,0:0:0:0:
380,308,206533,2,0,L|298:283,1,80,8|0,0:0|0:0,0:0:0:0:
208,285,206994,6,0,L|132:308,1,80,0|0,0:0|0:0,0:0:0:0:
55,218,207456,2,0,L|132:196,1,80,10|0,0:0|0:0,0:0:0:0:
332,161,207917,2,0,L|256:184,1,80,2|0,0:0|0:0,0:0:0:0:
179,94,208379,2,0,L|256:72,1,80,8|0,0:0|0:0,0:0:0:0:
344,72,208840,6,0,P|408:120|408:208,1,160,2|8,0:0|0:0,0:0:0:0:
332,161,209533,1,0,0:0:0:0:
321,250,209763,2,0,P|257:202|257:114,1,160,2|10,0:0|0:0,0:0:0:0:
170,93,210456,1,0,0:0:0:0:
88,58,210715,2,0,L|64:136,1,80,2|0,0:0|0:0,0:0:0:0:
128,200,211176,2,0,L|206:224,1,80,8|0,0:0|0:0,0:0:0:0:
307,223,211637,2,0,L|384:200,1,80,2|0,0:0|0:0,0:0:0:0:
447,134,212099,2,0,L|424:58,1,80,8|0,0:0|0:0,0:0:0:0:
328,88,212560,6,0,P|257:118|185:86,2,160,6|8|0,0:0|0:0|0:0,0:0:0:0:
256,32,213714,1,0,0:0:0:0:
185,86,213945,2,0,L|160:168,1,80,10|0,0:0|0:0,0:0:0:0:
184,256,214406,2,0,P|255:286|327:254,2,160,2|10|2,0:0|0:0|0:0,0:0:0:0:
256,200,215560,1,0,0:0:0:0:
327,254,215791,2,0,L|352:336,1,80,8|0,0:0|0:0,0:0:0:0:
432,304,216252,5,6,0:0:0:0:
488,232,216483,2,0,L|416:192,1,80,0|8,0:0|0:0,0:0:0:0:
272,328,216945,1,2,0:0:0:0:
328,256,217175,2,0,L|256:216,1,80,0|0,0:0|0:0,0:0:0:0:
112,352,217637,1,8,0:0:0:0:
168,280,217868,2,0,L|96:240,1,80,0|8,0:0|0:0,0:0:0:0:
56,128,218329,2,0,L|128:168,1,80,0|8,0:0|0:0,0:0:0:0:
280,192,218790,2,0,L|208:152,1,80,0|8,0:0|0:0,0:0:0:0:
168,40,219252,2,0,L|240:80,1,80,0|8,0:0|0:0,0:0:0:0:
328,64,219713,1,0,0:0:0:0:
360,144,219944,5,4,0:0:0:0:
