osu file format v12

[General]
AudioFilename: Happy Birthday Kenezz.mp3
AudioLeadIn: 2000
PreviewTime: 114039
Countdown: 0
SampleSet: Normal
StackLeniency: 0.7
Mode: 0
LetterboxInBreaks: 0

[Editor]
DistanceSpacing: 1
BeatDivisor: 4
GridSize: 8

[Metadata]
Title:You Belong With Me
TitleUnicode:You Belong With Me
Artist:Taylor Swift
ArtistUnicode:Taylor Swift
Creator:ErufenRito
Version:Easy
Source:
Tags:Verdisphena aabc271 DaxMasterix
BeatmapID:156833
BeatmapSetID:46266

[Difficulty]
HPDrainRate:2
CircleSize:3
OverallDifficulty:2
ApproachRate:3
SliderMultiplier:1.2
SliderTickRate:1

[Events]
//Background and Video events
Video,-600,"Let's run~~.avi"
0,0,"Kenezz so kawaii.jpg",0,0
//Break Periods
2,66933,68062
2,144463,155339
//Storyboard Layer 0 (Background)
//Storyboard Layer 1 (Fail)
//Storyboard Layer 2 (Pass)
//Storyboard Layer 3 (Foreground)
//Storyboard Sound Samples
//Background Colour Transformations
3,100,0,0,0

[TimingPoints]
280,461.485213244626,4,2,1,80,1,0
2923,-100,4,2,2,50,0,0
3154,-100,4,2,1,70,0,0
6615,-100,4,2,2,50,0,0
6846,-100,4,2,1,70,0,0
10999,-100,4,2,2,50,0,0
11230,-100,4,2,2,70,0,0
11460,-100,4,2,1,70,0,0
14691,-100,4,2,2,50,0,0
14922,-100,4,2,2,70,0,0
15152,-100,4,2,1,70,0,0
16893,-133.333333333333,4,2,1,70,0,0
18613,-133.333333333333,4,2,2,70,0,0
18844,-133.333333333333,4,2,1,70,0,0
19536,-133.333333333333,4,2,2,70,0,0
19767,-133.333333333333,4,2,1,70,0,0
20459,-133.333333333333,4,2,2,50,0,0
20585,-100,4,2,2,50,0,0
20690,-100,4,2,1,70,0,0
23228,-100,4,2,2,50,0,0
23459,-100,4,2,1,70,0,0
25074,-100,4,2,2,50,0,0
25305,-100,4,2,1,70,0,0
25766,-100,4,2,2,50,0,0
25997,-100,4,2,2,70,0,0
26228,-100,4,2,1,70,0,0
26920,-100,4,2,2,50,0,0
27151,-100,4,2,1,70,0,0
28766,-100,4,2,2,50,0,0
28997,-100,4,2,1,70,0,0
29458,-100,4,2,2,50,0,0
29689,-100,4,2,2,70,0,0
29920,-100,4,2,1,70,0,0
30612,-100,4,2,2,50,0,0
30843,-100,4,2,1,70,0,0
31660,-133.333333333333,4,2,1,70,0,0
33381,-100,4,2,2,70,0,0
33612,-133.333333333333,4,2,1,70,0,0
34304,-133.333333333333,4,2,2,70,0,0
34535,-133.333333333333,4,2,1,70,0,0
35227,-133.333333333333,4,2,2,50,0,0
35352,-100,4,2,2,50,0,0
35457,-100,4,2,1,70,0,0
36150,-100,4,2,2,50,0,0
36380,-100,4,2,1,70,0,0
36843,-100,4,2,2,30,0,0
37074,-100,4,2,2,70,0,0
37305,-100,4,2,1,70,0,0
37997,-100,4,2,2,50,0,0
38228,-100,4,2,1,70,0,0
39843,-100,4,2,2,50,0,0
40074,-100,4,2,1,70,0,0
40535,-100,4,2,2,30,0,0
40766,-100,4,2,2,70,0,0
40997,-100,4,2,1,70,0,0
41687,-100,4,2,2,50,0,0
41918,-100,4,2,1,70,0,0
43533,-100,4,2,2,50,0,0
43764,-100,4,2,2,70,0,0
43995,-100,4,2,1,50,0,0
44226,-100,4,2,2,70,0,0
44456,-100,4,2,1,70,0,0
45379,-100,4,2,2,50,0,0
45610,-100,4,2,1,70,0,0
47225,-100,4,2,2,50,0,0
47456,-100,4,2,1,70,0,0
48148,-100,4,2,2,70,0,0
48379,-100,4,2,1,70,0,0
48840,-100,4,2,2,50,0,0
49071,-100,4,2,2,70,0,0
50917,-100,4,2,1,100,0,0
51263,-100,4,2,1,70,0,0
51966,-100,4,1,1,70,0,1
57388,-100,4,1,1,90,0,1
57619,-100,4,1,1,70,0,1
63041,-133.333333333333,4,2,1,70,0,0
66607,-133.333333333333,4,2,2,70,0,0
66733,-100,4,2,2,70,0,0
66838,-100,4,2,1,70,0,0
70299,-100,4,2,2,50,0,0
70530,-100,4,2,1,70,0,0
73068,-100,4,2,2,50,0,0
73299,-100,4,2,1,70,0,0
73760,-100,4,2,2,50,0,0
73991,-100,4,2,2,70,0,0
74222,-100,4,2,1,70,0,0
77452,-100,4,2,2,50,0,0
77683,-100,4,2,2,70,0,0
77914,-100,4,2,1,70,0,0
80452,-100,4,2,2,100,0,0
80683,-100,4,2,1,70,0,0
82298,-100,4,2,2,50,0,0
82529,-100,4,2,1,70,0,0
83221,-100,4,2,2,60,0,0
83452,-100,4,2,2,40,0,0
83682,-100,4,2,1,70,0,0
84375,-100,4,2,2,50,0,0
84605,-100,4,2,1,70,0,0
86913,-100,4,2,2,50,0,0
87143,-100,4,2,1,70,0,0
88528,-100,4,2,2,50,0,0
88759,-100,4,2,2,70,0,0
88989,-100,4,2,1,70,0,0
90605,-100,4,2,2,50,0,0
90835,-100,4,2,1,70,0,0
91527,-100,4,2,2,50,0,0
91758,-100,4,2,2,30,0,0
91989,-100,4,2,1,70,0,0
92220,-100,4,2,2,50,0,0
92450,-100,4,2,2,70,0,0
92681,-100,4,2,1,70,0,0
94296,-100,4,2,2,50,0,0
94527,-100,4,2,1,70,0,0
95912,-100,4,2,2,50,0,0
96142,-100,4,2,2,70,0,0
96373,-100,4,2,1,70,0,0
97988,-100,4,2,2,70,0,0
98219,-100,4,2,2,50,0,0
98450,-100,4,2,1,70,0,0
99142,-100,4,2,2,30,0,0
99373,-100,4,2,1,70,0,0
99603,-100,4,2,2,50,0,0
99834,-100,4,2,2,70,0,0
100065,-100,4,2,1,70,0,0
100757,-100,4,2,1,50,0,0
100988,-100,4,2,1,70,0,0
101680,-100,4,2,2,50,0,0
101911,-100,4,2,1,70,0,0
102372,-100,4,2,2,50,0,0
102603,-100,4,2,2,70,0,0
102834,-100,4,2,1,70,0,0
103526,-100,4,2,2,50,0,0
103757,-100,4,2,1,70,0,0
104449,-100,4,2,1,50,0,0
104680,-100,4,2,1,70,0,0
105372,-100,4,2,2,70,0,0
105603,-100,4,2,2,50,0,0
105833,-100,4,2,1,70,0,0
106295,-100,4,2,2,70,0,0
106526,-100,4,2,1,70,0,0
107218,-100,4,2,2,50,0,0
107449,-100,4,2,1,70,0,0
108141,-100,4,2,2,50,0,0
108372,-100,4,2,1,70,0,0
109064,-100,4,2,2,50,0,0
109295,-100,4,2,1,70,0,0
109756,-100,4,2,2,50,0,0
109987,-100,4,2,2,70,0,0
110218,-100,4,2,1,70,0,0
110910,-100,4,2,2,70,0,0
112525,-100,4,2,1,70,0,0
113459,-100,4,1,1,70,0,0
114728,-100,4,1,1,70,0,1
128572,-100,4,1,1,70,0,0
129495,-100,4,1,1,70,0,1
142417,-100,4,1,1,70,0,0
155339,-100,4,1,2,70,0,0
157524,-100,4,2,1,70,0,0
157755,-100,4,1,2,50,0,0
158447,-100,4,2,1,70,0,0
158678,-100,4,1,2,70,0,0
159370,-100,4,2,1,70,0,0
159601,-100,4,1,2,70,0,0
161216,-100,4,2,1,70,0,0
161447,-100,4,1,2,70,0,0
163062,-100,4,2,1,70,0,0
163293,-100,4,1,2,70,0,0
164908,-100,4,2,1,70,0,0
165139,-100,4,1,2,70,0,0
165600,-100,4,2,1,70,0,0
166062,-100,4,1,2,70,0,0
166754,-100,4,2,1,70,0,0
166985,-100,4,1,2,70,0,0
168649,-100,4,2,1,70,0,0
168831,-100,4,1,2,70,0,0
170446,-100,4,2,1,70,0,0
170677,-100,4,1,2,70,0,0
171831,-100,4,2,1,70,0,0
173798,-133.333333333333,4,2,1,70,0,0
174715,-133.333333333333,4,1,2,40,0,0
175523,-133.333333333333,4,2,2,40,0,0
175753,-133.333333333333,4,1,2,40,0,0
179215,-133.333333333333,4,2,2,40,0,0
179445,-133.333333333333,4,1,2,40,0,0
186720,-100,4,2,1,70,0,1
189488,-100,4,1,1,70,0,0
190411,-100,4,1,1,70,0,1
205149,461.485213244626,4,1,1,50,1,0
210715,461.485213244626,4,1,1,50,1,0

[Colours]
Combo1 : 250,232,107
Combo2 : 149,186,71
Combo3 : 96,215,227
Combo4 : 255,155,205

[HitObjects]
33,322,280,2,0,B|70:269|56:208,1,120,4|8,0:0|0:0,0:0:0:0:
176,208,1202,2,0,B|120:287|140:378,2,180,0|2|8,0:0|0:0|0:0,0:0:0:0:
144,88,3048,1,8,0:0:0:0:
240,16,3510,1,8,0:0:0:0:
344,80,3971,6,0,B|408:88|455:47,1,120,2|8,0:0|0:0,0:0:0:0:
512,152,4894,2,0,B|416:140|344:200,2,180,0|2|8,0:0|0:0|0:0,0:0:0:0:
464,264,6740,1,8,0:0:0:0:
504,376,7202,1,8,0:0:0:0:
384,360,7663,6,0,B|336:336|264:344,1,120,4|8,0:0|0:0,0:0:0:0:
311,231,8586,2,0,B|215:159|82:174,1,240,0|2,0:0|0:0,0:0:0:0:
32,64,9971,1,8,0:0:0:0:
152,40,10432,2,0,B|223:93|322:82,2,180,0|2|8,0:0|0:0|0:0,0:0:0:0:
96,144,12278,5,0,0:0:0:0:
152,248,12740,1,8,0:0:0:0:
272,224,13201,2,0,B|360:272|359:370,1,180,2|2,0:0|0:0,0:0:0:0:
472,336,14355,1,0,0:0:0:0:
456,216,14816,6,0,B|368:168|368:69,1,180,2|8,0:0|0:0,0:0:0:0:
256,24,15970,1,2,0:0:0:0:
176,184,16893,2,0,B|320:232,2,134.999995976687,0|2|8,0:0|0:0|0:0,0:0:0:0:
176,272,18739,6,0,B|348:329,1,179.999994635582,8|8,0:0|0:0,0:0:0:0:
440,320,20123,1,8,0:0:0:0:
488,240,20585,1,8,0:0:0:0:
88,352,22431,6,0,B|152:328|152:259,1,120,4|8,0:0|0:0,0:0:0:0:
40,224,23354,2,0,B|39:88|169:42,1,240,8|2,0:0|0:0,0:0:0:0:
200,160,24738,1,8,0:0:0:0:
288,80,25200,2,0,B|359:133|458:122,2,180,8|2|8,0:0|0:0|0:0,0:0:0:0:
176,48,27046,5,8,0:0:0:0:
72,104,27507,1,8,0:0:0:0:
104,224,27969,2,0,B|72:280|87:339,1,120,2|8,0:0|0:0,0:0:0:0:
200,376,28892,2,0,B|264:264|233:144,1,240,8|2,0:0|0:0,0:0:0:0:
248,24,30276,5,8,0:0:0:0:
368,56,30738,2,0,P|417:96|496:91,1,120,8|8,0:0|0:0,0:0:0:0:
507,185,31660,2,0,B|539:257|477:308,2,134.999995976687,2|0|8,0:0|0:0|0:0,0:0:0:0:
478,68,33506,5,2,0:0:0:0:
379,129,33968,2,0,B|299:194|342:291,1,179.999994635582,8|8,0:0|0:0,0:0:0:0:
255,373,35352,2,0,B|119:335|118:198,1,240,8|8,0:0|0:0,0:0:0:0:
8,152,36737,1,8,0:0:0:0:
80,56,37198,6,0,B|208:96|309:25,2,240,4|8|4,0:0|0:0|0:0,0:0:0:0:
8,152,39506,1,8,0:0:0:0:
120,192,39967,2,0,B|144:248|119:309,1,120,8|8,0:0|0:0,0:0:0:0:
240,320,40890,6,0,B|192:208|240:84,2,240,4|8|2,0:0|0:0|0:0,0:0:0:0:
345,378,43198,2,0,B|409:386|462:358,1,120,8|8,0:0|0:0,0:0:0:0:
487,241,44121,1,8,0:0:0:0:
371,271,44582,6,0,B|243:255|137:311,2,240,4|8|2,0:0|0:0|0:0,0:0:0:0:
336,155,46890,1,8,0:0:0:0:
377,42,47351,1,8,0:0:0:0:
491,77,47812,1,8,0:0:0:0:
456,192,48274,5,12,0:0:0:0:
256,56,49197,1,8,0:0:0:0:
56,192,50120,1,8,0:0:0:0:
256,328,51043,1,12,0:0:0:0:
256,208,51504,6,0,B|256:72,1,120,12|6,0:0|0:0,0:0:0:0:
144,40,52427,2,0,B|128:167|5:221,2,240,2|2|2,0:0|0:0|0:0,0:0:0:0:
264,8,54735,1,0,0:0:0:0:
376,40,55196,1,8,0:0:0:0:
448,136,55658,5,2,0:0:0:0:
440,256,56119,2,0,B|288:272|224:376,2,240,2|2|2,0:0|0:0|0:0,0:0:0:0:
400,144,58427,1,0,0:0:0:0:
320,56,58888,1,8,0:0:0:0:
216,120,59350,6,0,B|144:191|188:285,2,180,2|2|2,0:0|0:0|0:0,0:0:0:0:
160,16,61196,1,0,0:0:0:0:
48,56,61657,2,0,B|106:181|10:276,1,240,2|8,0:0|0:0,0:0:0:0:
88,320,63041,6,0,B|168:312|216:376,1,134.999995976687,4|0,0:0|0:0,0:0:0:0:
176,232,64426,2,0,B|280:160|448:184,1,269.999991953373,2|4,0:0|0:0,0:0:0:0:
480,104,66272,1,8,0:0:0:0:
432,24,66733,1,4,0:0:0:0:
328,128,69502,6,0,B|320:48|376:0,2,120,4|4|8,0:0|0:0|0:0,0:0:0:0:
445,107,70887,5,8,0:0:0:0:
485,220,71348,2,0,B|356:243|296:353,1,240,2|0,0:0|0:0,0:0:0:0:
177,338,72733,1,8,0:0:0:0:
243,238,73194,2,0,B|287:155|384:138,2,180,8|8|8,0:0|0:0|0:0,0:0:0:0:
184,133,75040,5,2,0:0:0:0:
65,148,75502,1,8,0:0:0:0:
28,262,75963,2,0,B|124:281|158:376,1,180,0|2,0:0|0:0,0:0:0:0:
275,354,77117,1,0,0:0:0:0:
286,234,77578,2,0,B|190:215|156:120,1,180,2|8,0:0|0:0,0:0:0:0:
256,55,78732,6,0,B|278:117|341:130,1,120,2|8,0:0|0:0,0:0:0:0:
444,193,79655,2,0,B|465:253|423:305,1,120,2|8,0:0|0:0,0:0:0:0:
305,325,80578,2,0,B|274:232|177:211,2,180,2|2|8,0:0|0:0|0:0,0:0:0:0:
416,368,82424,1,8,0:0:0:0:
503,285,82885,5,8,0:0:0:0:
475,169,83347,2,0,B|344:139|303:16,2,240,2|8|6,0:0|0:0|0:0,0:0:0:0:
456,287,85654,5,8,0:0:0:0:
336,277,86116,2,0,B|201:267|126:372,1,240,2|8,0:0|0:0,0:0:0:0:
16,323,87500,1,8,0:0:0:0:
89,228,87962,2,0,B|190:235|245:156,2,180,2|8|8,0:0|0:0|0:0,0:0:0:0:
24,126,89808,5,2,0:0:0:0:
111,43,90269,2,0,B|242:47,1,120,8|8,0:0|0:0,0:0:0:0:
346,13,91192,1,8,0:0:0:0:
346,132,91654,2,0,B|367:262|514:274,1,240,8|8,0:0|0:0,0:0:0:0:
456,384,93038,5,8,0:0:0:0:
352,328,93500,2,0,B|208:344,1,120,2|8,0:0|0:0,0:0:0:0:
160,248,94422,2,0,B|304:232,1,120,8|8,0:0|0:0,0:0:0:0:
336,128,95345,2,0,B|200:143|123:44,1,240,2|8,0:0|0:0,0:0:0:0:
16,104,96730,5,8,0:0:0:0:
0,224,97191,1,2,0:0:0:0:
96,296,97653,1,8,0:0:0:0:
208,264,98114,1,8,0:0:0:0:
312,328,98576,2,12,B|368:296|432:312,2,120,8|12|12,0:0|0:0|0:0,0:0:0:0:
264,216,99960,6,0,B|136:176|35:247,2,240,12|4|8,0:0|0:0|0:0,0:0:0:0:
352,296,102268,1,8,0:0:0:0:
440,216,102729,2,0,B|482:172|480:106,1,120,4|8,0:0|0:0,0:0:0:0:
384,32,103652,6,0,B|296:112|156:82,2,240,8|4|8,0:0|0:0|0:0,0:0:0:0:
392,152,105960,2,0,B|450:179|509:169,2,120,8|4|8,0:0|0:0|0:0,0:0:0:0:
296,224,107344,6,0,B|179:169|61:189,2,240,2|4|8,0:0|0:0|0:0,0:0:0:0:
304,344,109651,1,8,0:0:0:0:
424,376,110113,1,8,0:0:0:0:
504,288,110574,1,8,0:0:0:0:
424,200,111036,6,0,B|440:136|500:113,1,120,12|8,0:0|0:0,0:0:0:0:
408,40,111959,2,0,B|384:136|293:169,1,180,8|12,0:0|0:0,0:0:0:0:
200,88,113113,2,0,B|105:108|68:200,1,180,12|0,0:0|0:0,0:0:0:0:
56,320,114266,1,0,0:0:0:0:
159,381,114728,5,6,0:0:0:0:
268,331,115189,2,0,B|404:307|508:379,2,240,2|2|2,0:0|0:0|0:0,0:0:0:0:
308,219,117497,1,0,0:0:0:0:
252,115,117958,1,8,0:0:0:0:
132,115,118420,5,2,0:0:0:0:
94,228,118881,2,0,B|238:236|286:364,2,240,2|2|2,0:0|0:0|0:0,0:0:0:0:
78,108,121189,1,0,0:0:0:0:
178,41,121650,1,8,0:0:0:0:
283,97,122112,6,0,B|252:193|335:255,2,180,2|2|2,0:0|0:0|0:0,0:0:0:0:
390,149,123958,1,0,0:0:0:0:
412,32,124419,2,0,P|496:100|480:224,1,240,2|8,0:0|0:0,0:0:0:0:
366,247,125803,6,0,B|299:184|198:200,1,180,2|0,0:0|0:0,0:0:0:0:
164,21,127188,2,0,B|364:-13|500:114,1,360,2|0,0:0|0:0,0:0:0:0:
398,179,129034,1,0,0:0:0:0:
382,298,129495,5,2,0:0:0:0:
490,349,129957,1,2,0:0:0:0:
499,119,130880,1,2,0:0:0:0:
261,84,131803,2,0,B|191:91|153:39,2,120,2|8|0,0:0|0:0|0:0,0:0:0:0:
302,197,133187,5,2,0:0:0:0:
198,263,133649,1,2,0:0:0:0:
366,91,134572,1,2,0:0:0:0:
399,328,135495,2,0,B|465:321|513:358,2,120,2|8|0,0:0|0:0|0:0,0:0:0:0:
300,259,136879,6,0,B|255:340|141:342,2,180,2|0|2,0:0|0:0|0:0,0:0:0:0:
208,32,139187,2,0,B|198:108|258:129,2,120,8|0|8,0:0|0:0|0:0,0:0:0:0:
106,94,140571,2,0,B|32:168|95:257,2,180,2|0|2,0:0|0:0|0:0,0:0:0:0:
175,191,142417,5,0,0:0:0:0:
203,307,142878,1,8,0:0:0:0:
322,317,143340,1,0,0:0:0:0:
418,245,143801,1,8,0:0:0:0:
390,128,144263,1,4,0:0:0:0:
328,208,156954,6,0,B|304:312|409:351,1,180,0|8,0:0|0:0,0:0:0:0:
496,270,158107,2,0,B|427:243|443:175,1,120,0|8,0:0|0:0,0:0:0:0:
432,56,159030,5,4,0:0:0:0:
320,8,159492,1,8,0:0:0:0:
224,80,159953,2,0,B|160:192|16:161,1,240,8|0,0:0|0:0,0:0:0:0:
0,280,161338,5,8,0:0:0:0:
96,352,161799,2,0,B|160:240|305:270,1,240,8|0,0:0|0:0,0:0:0:0:
416,232,163184,5,8,0:0:0:0:
320,152,163645,2,0,B|173:139|145:13,1,240,8|0,0:0|0:0,0:0:0:0:
24,40,165030,5,8,0:0:0:0:
64,152,165491,2,0,B|32:272,1,120,4|4,0:0|0:0,0:0:0:0:
129,344,166414,6,0,B|272:368|335:258,1,240,8|0,0:0|0:0,0:0:0:0:
424,184,167799,1,8,0:0:0:0:
312,136,168260,6,0,B|167:127|128:0,1,240,8|0,0:0|0:0,0:0:0:0:
16,56,169645,1,8,0:0:0:0:
96,144,170106,6,0,B|120:296|-24:360,1,240,8|0,0:0|0:0,0:0:0:0:
120,376,171491,1,8,0:0:0:0:
216,304,171952,6,0,B|296:312|328:384,1,120,4|0,0:0|0:0,0:0:0:0:
424,312,172875,2,0,B|328:224|376:90,1,240,2|2,0:0|0:0,0:0:0:0:
496,336,175182,5,0,0:0:0:0:
432,272,175644,2,0,B|432:200|504:168,2,134.999995976687,8|0|8,0:0|0:0|0:0,0:0:0:0:
360,328,177490,1,0,0:0:0:0:
272,336,177951,1,8,0:0:0:0:
208,280,178413,1,0,0:0:0:0:
224,192,178874,1,8,0:0:0:0:
152,144,179336,6,0,B|80:152|26:106,2,134.999995976687,8|2|8,0:0|0:0|0:0,0:0:0:0:
192,64,181182,1,0,0:0:0:0:
272,32,181643,1,8,0:0:0:0:
352,64,182105,1,0,0:0:0:0:
376,152,182566,1,8,0:0:0:0:
456,192,183028,6,0,B|448:272|386:301,2,134.999995976687,2|0|2,0:0|0:0|0:0,0:0:0:0:
288,248,185335,2,0,B|272:200|223:190,2,89.9999973177911,2|0|2,0:0|0:0|0:0,0:0:0:0:
184,304,186720,6,0,B|-8:296,1,180,12|0,0:0|0:0,0:0:0:0:
80,128,188104,2,0,B|272:136,1,180,12|0,0:0|0:0,0:0:0:0:
376,272,189488,1,12,0:0:0:0:
464,192,189950,1,4,0:0:0:0:
400,88,190411,5,2,0:0:0:0:
288,112,190873,2,0,B|224:224|76:184,1,240,2|2,0:0|0:0,0:0:0:0:
256,352,192719,1,2,0:0:0:0:
142,313,193180,1,0,0:0:0:0:
144,192,193642,1,8,0:0:0:0:
259,157,194103,5,2,0:0:0:0:
327,255,194565,1,2,0:0:0:0:
186,60,195488,2,0,B|142:186|3:192,1,240,2|2,0:0|0:0,0:0:0:0:
3,312,196872,1,0,0:0:0:0:
103,376,197334,1,8,0:0:0:0:
205,313,197795,6,0,B|310:305|362:382,2,180,2|0|2,0:0|0:0|0:0,0:0:0:0:
381,150,200103,1,8,0:0:0:0:
416,264,200564,1,0,0:0:0:0:
304,304,201026,1,8,0:0:0:0:
267,189,201487,6,0,B|158:186|130:89,1,180,2|0,0:0|0:0,0:0:0:0:
0,216,202872,2,0,B|144:219|182:349,1,240,2|8,0:0|0:0,0:0:0:0:
296,368,204256,1,0,0:0:0:0:
413,343,204717,1,12,0:0:0:0:
402,223,205149,6,0,B|435:109,1,120,6|8,0:0|0:0,0:0:0:0:
338,38,206071,2,0,B|305:152,1,120,0|8,0:0|0:0,0:0:0:0:
185,151,206994,1,0,0:0:0:0:
269,235,207456,2,0,B|209:345|67:335,1,240,2|8,0:0|0:0,0:0:0:0:
110,223,208840,6,0,B|77:109,1,120,0|8,0:0|0:0,0:0:0:0:
174,38,209763,2,0,B|207:152,1,120,0|8,0:0|0:0,0:0:0:0:
327,151,210715,1,2,0:0:0:0:
242,235,211176,2,0,B|302:346|445:336,1,240,8|8,0:0|0:0,0:0:0:0:
455,216,212560,6,0,P|417:144|312:168,2,180,2|0|2,0:0|0:0|0:0,0:0:0:0:
319,33,214868,1,8,0:0:0:0:
205,71,215329,1,0,0:0:0:0:
178,188,215791,1,8,0:0:0:0:
250,283,216252,6,0,B|199:365|93:345,2,180,2|0|2,0:0|0:0|0:0,0:0:0:0:
256,192,218098,12,4,219944,0:0:0:0:
