osu file format v14

[General]
AudioFilename: Taylor Swift - Welcome To New York.mp3
AudioLeadIn: 0
PreviewTime: -1
Countdown: 1
SampleSet: Normal
StackLeniency: 0.7
Mode: 0
LetterboxInBreaks: 1
WidescreenStoryboard: 0

[Editor]
DistanceSpacing: 0.8
BeatDivisor: 4
GridSize: 32
TimelineZoom: 1

[Metadata]
Title:Welcome To New York
TitleUnicode:Welcome To New York
Artist:Taylor Swift
ArtistUnicode:Taylor Swift
Creator:Great Ball
Version:Packing to travel
Source:The Secret Life Of Pets
Tags:
BeatmapID:1017278
BeatmapSetID:476233

[Difficulty]
HPDrainRate:2
CircleSize:2
OverallDifficulty:3
ApproachRate:5
SliderMultiplier:1.5
SliderTickRate:1

[Events]
//Background and Video events
0,0,"o-TAYLOR-SWIFT-facebook.jpg",0,0
//Break Periods
2,87281,94599
2,144716,152035
//Storyboard Layer 0 (Background)
//Storyboard Layer 1 (Fail)
//Storyboard Layer 2 (Pass)
//Storyboard Layer 3 (Foreground)
//Storyboard Sound Samples

[TimingPoints]
13748,512.820512820513,4,1,0,100,1,0
77363,-100,4,1,0,100,0,1
86023,-100,4,1,0,100,0,0
104133,-100,4,1,0,100,0,1
120463,-100,4,1,0,100,0,0
136773,-100,4,1,0,100,0,1
145074,-100,4,1,0,100,0,0
165534,-100,4,1,0,100,0,1
181964,-100,4,1,0,100,0,0

[HitObjects]
256,192,11696,12,0,15286,0:0:0:0:
256,192,16312,12,0,19389,0:0:0:0:
256,192,20414,12,0,23491,0:0:0:0:
256,192,24517,12,0,27081,0:0:0:0:
64,160,28106,5,0,0:0:0:0:
160,96,28619,2,0,P|224:64|320:96,1,150
384,160,29645,1,0,0:0:0:0:
320,256,30158,1,0,0:0:0:0:
224,320,30671,2,0,P|128:288|96:224,1,150
32,160,32209,5,0,0:0:0:0:
128,96,32722,2,0,L|288:96,1,150
288,192,33747,1,0,0:0:0:0:
288,320,34260,2,0,L|352:256,2,75
224,320,35286,2,0,P|160:320|160:224,1,150
64,96,36312,5,0,0:0:0:0:
128,160,36824,2,0,P|160:192|256:160,1,150
320,96,37850,1,0,0:0:0:0:
416,160,38363,2,0,P|480:224|448:288,1,150
384,352,39389,2,0,L|288:352,2,75,8|0|0,0:0|0:0|0:0,0:0:0:0:
64,320,40414,5,0,0:0:0:0:
128,256,40927,1,0,0:0:0:0:
192,192,41440,1,0,0:0:0:0:
256,256,41953,2,0,L|320:192|384:128,2,150
320,320,43491,2,0,P|384:288|416:288,2,75
128,192,44517,6,0,B|96:128|160:64|160:64|224:224|224:224|288:160|256:96,1,450
384,64,46568,1,0,0:0:0:0:
448,160,47081,1,0,0:0:0:0:
384,256,47594,2,0,P|320:320|288:288,1,150
192,320,48619,2,0,L|96:320,4,75
128,224,50158,5,0,0:0:0:0:
160,128,50671,2,0,P|224:192|224:256,1,150
288,128,51696,2,0,L|352:64,2,75
32,224,52722,5,0,0:0:0:0:
96,288,53235,2,0,L|256:288,1,150
320,224,54260,1,0,0:0:0:0:
448,224,54773,1,0,0:0:0:0:
448,96,55286,2,0,L|288:96,1,150
128,96,56312,1,0,0:0:0:0:
64,192,56824,2,0,P|32:256|32:288,4,75
160,256,58363,2,0,L|256:256,4,75
256,192,59901,12,0,60927,0:0:0:0:
160,64,61440,6,0,L|192:224,1,150
352,320,62465,2,0,L|320:160,1,150
256,192,63491,1,0,0:0:0:0:
256,96,64004,2,0,P|288:64|320:64,2,75
256,288,65030,2,0,B|128:256|128:256|128:320|128:320|0:288,1,300
96,160,66568,1,0,0:0:0:0:
224,128,67081,2,0,B|320:96|320:96|416:128|416:128|448:224,1,300
416,288,68619,1,0,0:0:0:0:
320,288,69132,1,0,0:0:0:0:
224,352,69645,6,0,P|160:320|192:256,1,150
256,192,70671,1,0,0:0:0:0:
288,32,71183,2,0,P|352:64|320:128,1,150
256,192,72209,1,0,0:0:0:0:
128,160,72722,2,0,P|64:128|32:192,1,150
384,224,73748,2,0,P|448:256|480:192,1,150
256,192,75286,12,0,76824,0:0:0:0:
128,192,77337,6,0,L|32:192,4,75
192,160,78619,1,0,0:0:0:0:
256,128,78876,2,0,L|256:32,2,75
320,160,79645,1,0,0:0:0:0:
384,192,79901,2,0,L|480:192,4,75
320,224,81183,1,0,0:0:0:0:
256,256,81440,2,0,L|256:352,4,75
192,192,82978,2,0,P|128:224|160:96,1,300
288,96,84517,2,0,L|384:96,2,75
288,192,85542,2,0,L|448:192,1,150
288,288,86824,1,8,0:0:0:0:
288,288,87081,1,8,0:0:0:0:
128,192,95799,5,0,0:0:0:0:
224,192,96312,2,0,L|352:288,1,150
416,224,97337,1,0,0:0:0:0:
480,160,97850,2,0,L|352:64,1,150
256,128,98876,1,0,0:0:0:0:
160,96,99389,2,0,P|96:128|96:224,1,150
96,288,100414,2,0,P|192:320|224:288,1,150
288,224,101440,2,0,P|320:128|288:96,3,150
192,96,103491,2,0,L|96:96,2,75
256,192,104517,5,0,0:0:0:0:
352,224,105030,2,0,P|320:288|224:288,1,150
128,288,106055,1,0,0:0:0:0:
64,192,106568,5,0,0:0:0:0:
128,160,107081,1,0,0:0:0:0:
192,128,107594,1,0,0:0:0:0:
320,128,108106,2,0,L|416:128,4,75
320,224,109645,2,0,L|416:224,4,75
320,320,111183,2,0,P|256:352|160:320,1,150
96,256,112209,5,0,0:0:0:0:
96,160,112722,2,0,P|128:96|224:96,1,150
256,160,113748,1,0,0:0:0:0:
256,256,114260,2,0,P|320:320|384:288,1,150
448,224,115286,2,0,P|384:160|320:160,1,150
224,128,116312,1,0,0:0:0:0:
128,192,116824,2,0,P|64:256|96:320,1,150
256,192,117850,12,0,119901,0:0:0:0:
256,192,120927,5,0,0:0:0:0:
352,224,121440,1,0,0:0:0:0:
448,192,121953,1,0,0:0:0:0:
448,352,122465,2,0,L|288:352,1,150
192,352,123491,2,0,L|32:352,1,150
128,256,124517,2,0,B|64:192|64:192|192:192|192:192|128:128|128:128|128:128,1,300
256,128,126055,1,0,0:0:0:0:
384,128,126568,2,0,B|320:192|320:192|448:192|448:192|384:256|384:256,1,300
256,288,128106,2,0,L|256:128,1,150
64,128,129132,5,0,0:0:0:0:
64,224,129645,2,0,P|128:256|224:224,1,150
320,224,130671,1,0,0:0:0:0:
416,288,131183,2,0,P|480:224|448:160,1,150
384,128,132209,1,0,0:0:0:0:
288,96,132722,2,0,P|224:64|128:96,2,150
256,192,134773,12,0,136312,0:0:0:0:
256,160,136824,6,0,P|288:128|320:160,4,75
384,160,138363,1,0,0:0:0:0:
384,288,138876,1,0,0:0:0:0:
256,288,139389,2,0,P|224:320|192:288,5,75
128,320,140927,2,0,P|96:288|128:256,4,75
96,192,142465,2,0,B|160:160|224:224|288:160|352:224|416:160,2,300
32,320,153235,5,0,0:0:0:0:
128,224,153748,2,0,B|160:160|256:128|256:256|352:224|384:160,1,300
384,32,155286,1,0,0:0:0:0:
320,96,155799,2,0,B|256:128|224:224|352:224|320:320|256:352|224:352,1,300
160,352,157337,1,0,0:0:0:0:
64,256,157850,1,0,0:0:0:0:
64,128,158363,1,0,0:0:0:0:
160,32,158876,1,0,0:0:0:0:
288,32,159389,2,0,P|416:192|384:288,2,300
256,192,161953,12,0,165030,0:0:0:0:
96,128,165542,5,0,0:0:0:0:
256,160,166055,1,0,0:0:0:0:
416,128,166568,1,0,0:0:0:0:
224,32,167081,2,0,L|320:32,2,75
416,256,168106,5,0,0:0:0:0:
256,224,168619,1,0,0:0:0:0:
96,256,169132,1,0,0:0:0:0:
224,352,169645,2,0,L|320:352,4,75
160,352,171183,2,0,L|160:256,4,75
32,320,172722,5,0,0:0:0:0:
64,192,173235,1,0,0:0:0:0:
160,96,173748,2,0,P|224:64|256:64,4,75
352,96,175286,1,0,0:0:0:0:
448,192,175799,1,0,0:0:0:0:
416,320,176312,2,0,L|320:320,5,75
256,320,177850,2,0,P|224:288|224:256,4,75
256,192,179389,12,0,181953,0:0:0:0:
256,96,182465,5,0,0:0:0:0:
192,160,182978,2,0,B|128:192|128:192|192:256,1,150
320,160,184004,2,0,B|384:192|384:192|320:256,1,150
256,320,185030,1,0,0:0:0:0:
384,320,185542,1,0,0:0:0:0:
512,320,186055,2,0,L|512:160,1,150
416,96,187081,1,0,0:0:0:0:
288,64,187594,1,0,0:0:0:0:
160,64,188106,2,0,P|96:96|64:192,1,150
96,288,189132,1,0,0:0:0:0:
224,352,189645,1,0,0:0:0:0:
416,320,190158,6,0,L|352:256,4,75
480,224,191696,1,0,0:0:0:0:
416,128,192209,1,0,0:0:0:0:
320,64,192722,1,0,0:0:0:0:
192,64,193235,2,0,L|96:64,3,75
192,128,194260,2,0,L|192:224,4,75
96,256,195799,1,0,0:0:0:0:
96,352,196312,1,0,0:0:0:0:
192,352,196824,1,0,0:0:0:0:
192,256,197337,2,0,L|320:128,1,150
352,96,198363,2,0,P|384:96|416:128,4,75
416,224,199901,6,0,B|384:256|352:224|320:256|288:224|256:256,1,150
96,224,200927,2,0,B|128:256|160:224|192:256|224:224|256:256,1,150
96,160,201953,2,0,B|128:128|160:160|192:128|224:160|256:128|256:128,1,150
416,160,202978,2,0,B|384:128|352:160|320:128|288:160|256:128,1,150
256,192,205542,12,0,206568,0:0:0:0:
