osu file format v12

[General]
AudioFilename: never getting back together.mp3
AudioLeadIn: 0
PreviewTime: 39644
Countdown: 1
SampleSet: Normal
StackLeniency: 0.7
Mode: 0
LetterboxInBreaks: 1

[Editor]
Bookmarks: 6156,28481,39644,61969,67551,78714,89876,123365,168016,190342
DistanceSpacing: 1
BeatDivisor: 4
GridSize: 4

[Metadata]
Title:We Are Never Ever Getting Back Together
TitleUnicode:We Are Never Ever Getting Back Together
Artist:Taylor Swift
ArtistUnicode:Taylor Swift
Creator:MMzz
Version:Normal
Source:
Tags:CheeseWarlock red
BeatmapID:208089
BeatmapSetID:72807

[Difficulty]
HPDrainRate:4
CircleSize:3
OverallDifficulty:4
ApproachRate:5
SliderMultiplier:1.8
SliderTickRate:2

[Events]
//Background and Video events
0,0,"bg.jpg",0,0
Video,-3306,"Taylor Swift - We Are Never Ever Getting Back Together.flv"
//Break Periods
2,62169,66351
2,123565,141700
//Storyboard Layer 0 (Background)
//Storyboard Layer 1 (Fail)
//Storyboard Layer 2 (Pass)
//Storyboard Layer 3 (Foreground)
//Storyboard Sound Samples
//Background Colour Transformations
3,100,163,162,255

[TimingPoints]
6156,697.674418604651,4,2,0,60,1,0
28481,-100,4,2,0,70,0,0
39644,-100,4,1,0,65,0,1
60923,-100,4,2,0,60,0,0
78714,-100,4,2,0,70,0,0
89876,-100,4,1,0,60,0,1
111155,-100,4,2,0,60,0,0
112202,-100,4,1,0,60,0,1
123365,-100,4,2,0,60,0,0
144818,-100,4,2,0,15,0,0
145690,-100,4,1,0,60,0,1
184760,-100,4,1,0,60,0,0
189295,-100,4,2,0,50,0,0

[Colours]
Combo1 : 242,239,196
Combo2 : 243,1,62
Combo3 : 10,16,92
Combo4 : 176,230,15

[HitObjects]
48,272,6156,2,0,P|116:328|196:300,1,180,0|2,0:0|0:0,0:0:0:0:
172,212,7202,1,0,0:0:0:0:
144,128,7551,1,0,0:0:0:0:
304,48,8249,1,2,0:0:0:0:
456,140,8946,6,0,P|496:224|452:296,1,180,0|2,0:0|0:0,0:0:0:0:
372,332,9993,1,0,0:0:0:0:
284,308,10342,1,0,0:0:0:0:
108,340,11039,2,0,L|28:296,1,90,2|0,0:0|0:0,0:0:0:0:
92,232,11737,6,0,P|64:144|120:84,1,180,0|2,0:0|0:0,0:0:0:0:
196,124,12783,1,0,0:0:0:0:
276,84,13132,1,0,0:0:0:0:
448,32,13830,2,0,P|464:76|448:120,1,90,2|0,0:0|0:0,0:0:0:0:
380,168,14528,5,0,0:0:0:0:
444,336,15225,1,2,0:0:0:0:
264,308,15923,2,0,L|84:328,1,180,0|8,0:0|0:0,0:0:0:0:
20,160,17318,5,0,0:0:0:0:
68,84,17667,1,0,0:0:0:0:
112,164,18016,2,0,P|204:180|256:116,1,180,2|0,0:0|0:0,0:0:0:0:
420,48,19411,1,2,0:0:0:0:
368,220,20109,5,0,0:0:0:0:
428,288,20458,1,0,0:0:0:0:
340,308,20807,2,0,P|256:348|192:300,1,180,2|0,0:0|0:0,0:0:0:0:
32,220,22202,2,0,P|84:228|116:208,1,90,2|0,0:0|0:0,0:0:0:0:
64,136,22900,6,0,P|124:84|216:112,1,180,0|2,0:0|0:0,0:0:0:0:
284,164,23946,1,0,0:0:0:0:
372,140,24295,1,0,0:0:0:0:
444,304,24993,2,0,P|400:292|352:308,1,90,2|0,0:0|0:0,0:0:0:0:
256,192,25690,12,2,27783,0:0:0:0:
48,296,28481,6,0,P|112:348|200:316,1,180,0|2,0:0|0:0,0:0:0:0:
256,252,29528,1,0,0:0:0:0:
336,288,29876,2,0,L|428:292,2,90,0|0|2,0:0|0:0|0:0,0:0:0:0:
452,148,31272,6,0,P|384:192|300:152,1,180,0|2,0:0|0:0,0:0:0:0:
256,76,32318,1,0,0:0:0:0:
210,153,32667,2,0,P|128:192|60:148,1,180,0|2,0:0|0:0,0:0:0:0:
44,328,34062,6,0,L|232:344,1,180,0|2,0:0|0:0,0:0:0:0:
304,304,35109,1,0,0:0:0:0:
384,344,35458,2,0,P|432:356|472:336,2,90,0|0|2,0:0|0:0|0:0,0:0:0:0:
440,172,36853,5,0,0:0:0:0:
468,84,37202,1,0,0:0:0:0:
380,104,37551,2,0,P|316:56|228:84,1,180,2|0,0:0|0:0,0:0:0:0:
52,124,38946,1,2,0:0:0:0:
32,304,39644,5,4,0:0:0:0:
112,348,39993,1,0,0:0:0:0:
108,256,40342,2,0,P|192:224|260:276,1,180,8|0,0:0|0:0,0:0:0:0:
280,360,41388,1,0,0:0:0:0:
344,300,41737,1,8,0:0:0:0:
472,172,42435,6,0,L|480:80,1,90
384,120,43132,2,0,P|308:164|236:116,1,180,8|0,0:0|0:0,0:0:0:0:
84,24,44528,1,8,0:0:0:0:
4,184,45225,6,0,P|84:144|152:196,1,180,0|8,0:0|0:0,0:0:0:0:
116,276,46272,1,0,0:0:0:0:
172,348,46621,2,0,L|352:340,1,180,0|8,0:0|0:0,0:0:0:0:
472,208,48016,5,0,0:0:0:0:
440,124,48365,1,0,0:0:0:0:
384,196,48714,1,8,0:0:0:0:
280,48,49411,2,0,L|144:60,1,135
116,96,50109,1,8,0:0:0:0:
64,168,50458,1,0,0:0:0:0:
12,244,50807,6,0,P|0:288|16:328,1,90,4|0,0:0|0:0,0:0:0:0:
100,292,51504,2,0,P|180:336|252:296,1,180,8|0,0:0|0:0,0:0:0:0:
224,212,52551,1,0,0:0:0:0:
312,228,52900,1,8,0:0:0:0:
460,332,53597,6,0,L|516:260,1,90
452,196,54295,2,0,P|488:108|440:44,1,180,8|0,0:0|0:0,0:0:0:0:
284,128,55690,1,8,0:0:0:0:
120,56,56388,5,0,0:0:0:0:
72,132,56737,1,0,0:0:0:0:
160,136,57086,1,8,0:0:0:0:
124,304,57783,5,0,0:0:0:0:
200,352,58132,1,0,0:0:0:0:
204,260,58481,1,8,0:0:0:0:
376,312,59179,5,0,0:0:0:0:
464,332,59528,1,0,0:0:0:0:
436,248,59876,1,8,0:0:0:0:
360,84,60574,5,0,0:0:0:0:
360,84,60923,1,0,0:0:0:0:
256,192,61969,5,0,0:0:0:0:
440,272,67551,6,0,P|360:316|288:272,1,180,0|2,0:0|0:0,0:0:0:0:
320,192,68597,1,0,0:0:0:0:
352,108,68946,1,0,0:0:0:0:
184,40,69644,1,2,0:0:0:0:
36,140,70342,6,0,P|4:224|56:288,1,180,0|2,0:0|0:0,0:0:0:0:
144,312,71388,1,0,0:0:0:0:
228,280,71737,1,0,0:0:0:0:
400,336,72435,2,0,L|492:328,1,90,2|0,0:0|0:0,0:0:0:0:
492,232,73132,6,0,P|520:144|468:80,1,180,0|2,0:0|0:0,0:0:0:0:
400,140,74179,1,0,0:0:0:0:
380,52,74528,1,0,0:0:0:0:
212,116,75225,1,2,0:0:0:0:
256,192,75923,12,2,78016,0:0:0:0:
220,80,78714,6,0,P|136:48|68:100,1,180,0|2,0:0|0:0,0:0:0:0:
44,184,79760,1,0,0:0:0:0:
20,272,80109,2,0,L|32:364,2,90,0|0|2,0:0|0:0|0:0,0:0:0:0:
200,252,81504,6,0,P|288:280|348:228,1,180,0|2,0:0|0:0,0:0:0:0:
268,188,82551,1,0,0:0:0:0:
184,152,82900,2,0,P|244:100|332:128,1,180,0|2,0:0|0:0,0:0:0:0:
500,60,84295,6,0,L|492:240,1,180,0|2,0:0|0:0,0:0:0:0:
404,264,85342,1,0,0:0:0:0:
363,349,85690,2,0,P|404:360|448:344,2,90,0|0|2,0:0|0:0|0:0,0:0:0:0:
208,280,87086,5,0,0:0:0:0:
140,336,87435,1,0,0:0:0:0:
124,248,87783,2,0,P|72:172|104:92,1,180,2|0,0:0|0:0,0:0:0:0:
276,52,89179,1,2,0:0:0:0:
440,124,89876,5,4,0:0:0:0:
376,188,90225,1,0,0:0:0:0:
464,212,90574,2,0,P|492:300|436:364,1,180,8|0,0:0|0:0,0:0:0:0:
352,340,91621,1,0,0:0:0:0:
264,316,91969,1,8,0:0:0:0:
88,356,92667,6,0,L|-4:320,1,90
48,244,93365,2,0,P|140:252|192:184,1,180,8|0,0:0|0:0,0:0:0:0:
60,64,94760,1,8,0:0:0:0:
232,112,95458,6,0,P|296:56|384:76,1,180,0|8,0:0|0:0,0:0:0:0:
456,128,96504,1,0,0:0:0:0:
500,208,96853,2,0,B|484:296|484:296|404:344,1,180,0|8,0:0|0:0,0:0:0:0:
236,284,98249,5,0,0:0:0:0:
160,332,98597,1,0,0:0:0:0:
156,240,98946,1,8,0:0:0:0:
24,116,99644,2,0,P|88:136|144:104,1,135
160,64,100342,1,8,0:0:0:0:
244,28,100690,1,0,0:0:0:0:
320,80,101039,6,0,P|364:100|416:88,1,90,4|0,0:0|0:0,0:0:0:0:
452,16,101737,2,0,P|500:88|456:172,1,180,8|0,0:0|0:0,0:0:0:0:
380,196,102783,1,0,0:0:0:0:
448,256,103132,1,8,0:0:0:0:
288,336,103830,6,0,L|200:364,1,90
148,292,104528,2,0,P|64:312|0:240,1,180,8|0,0:0|0:0,0:0:0:0:
128,124,105923,1,8,0:0:0:0:
272,16,106621,5,0,0:0:0:0:
360,32,106969,1,0,0:0:0:0:
404,112,107318,1,8,0:0:0:0:
504,260,108016,5,0,0:0:0:0:
428,312,108365,1,0,0:0:0:0:
344,276,108714,1,8,0:0:0:0:
184,360,109411,5,0,0:0:0:0:
140,280,109760,1,0,0:0:0:0:
188,204,110109,1,8,0:0:0:0:
332,100,110807,5,0,0:0:0:0:
332,100,111155,1,0,0:0:0:0:
64,52,112202,6,0,P|140:104|128:192,1,180,4|8,0:0|0:0,0:0:0:0:
32,332,113597,2,0,P|80:348|120:336,1,90
184,276,114295,1,8,0:0:0:0:
324,160,114993,6,0,P|292:248|348:308,1,180,0|8,0:0|0:0,0:0:0:0:
472,180,116388,1,0,0:0:0:0:
468,92,116737,1,0,0:0:0:0:
392,44,117086,1,8,0:0:0:0:
212,44,117783,6,0,L|32:80,1,180,0|8,0:0|0:0,0:0:0:0:
20,260,119179,1,0,0:0:0:0:
84,324,119528,2,0,L|176:336,1,90,0|8,0:0|0:0,0:0:0:0:
348,292,120574,5,0,0:0:0:0:
432,328,120923,1,0,0:0:0:0:
420,240,121272,2,0,P|440:200|432:156,1,90,8|0,0:0|0:0,0:0:0:0:
472,76,121969,2,0,P|424:64|384:80,1,90
340,156,122667,1,8,0:0:0:0:
168,228,123365,5,0,0:0:0:0:
256,192,142900,12,0,144993,0:0:0:0:
40,124,145690,6,0,P|108:160|160:144,1,135,4|0,0:0|0:0,0:0:0:0:
192,112,146388,1,8,0:0:0:0:
268,160,146737,1,0,0:0:0:0:
276,72,147086,2,0,P|356:32|428:80,1,180,0|8,0:0|0:0,0:0:0:0:
472,252,148481,6,0,L|332:272,1,135
312,308,149179,1,8,0:0:0:0:
232,348,149528,1,0,0:0:0:0:
148,316,149876,1,0,0:0:0:0:
40,172,150574,1,8,0:0:0:0:
220,168,151272,6,0,P|288:188|344:152,1,135
356,116,151969,1,8,0:0:0:0:
296,48,152318,1,0,0:0:0:0:
384,28,152667,2,0,P|444:76|436:172,1,180,0|8,0:0|0:0,0:0:0:0:
508,336,154062,6,0,P|444:288|352:328,1,180,0|8,0:0|0:0,0:0:0:0:
276,284,155109,1,0,0:0:0:0:
192,316,155458,2,0,L|104:344,1,90
104,252,156155,2,0,L|12:240,1,90,8|0,0:0|0:0,0:0:0:0:
12,136,156853,6,0,P|92:164|160:108,1,180,4|8,0:0|0:0,0:0:0:0:
96,44,157900,1,0,0:0:0:0:
96,44,158249,1,0,0:0:0:0:
276,60,158946,1,8,0:0:0:0:
456,40,159644,6,0,P|492:124|448:192,1,180,0|8,0:0|0:0,0:0:0:0:
376,136,160690,1,0,0:0:0:0:
376,136,161039,1,0,0:0:0:0:
436,308,161737,1,8,0:0:0:0:
260,268,162435,6,0,P|192:316|104:288,1,180,0|8,0:0|0:0,0:0:0:0:
24,128,163830,1,0,0:0:0:0:
96,184,164179,1,0,0:0:0:0:
108,96,164528,1,8,0:0:0:0:
280,144,165225,6,0,L|368:160,1,90
432,96,165923,2,0,P|476:172|444:256,1,180,8|0,0:0|0:0,0:0:0:0:
356,248,166969,1,0,0:0:0:0:
396,328,167318,1,8,0:0:0:0:
216,312,168016,6,0,P|160:344|92:328,1,135,4|0,0:0|0:0,0:0:0:0:
60,300,168714,1,8,0:0:0:0:
128,240,169062,1,0,0:0:0:0:
44,212,169411,2,0,B|16:124|16:124|72:44,1,180,0|8,0:0|0:0,0:0:0:0:
244,92,170807,6,0,L|380:104,1,135
416,76,171504,1,8,0:0:0:0:
460,156,171853,1,0,0:0:0:0:
380,196,172202,2,0,L|196:180,1,180,0|8,0:0|0:0,0:0:0:0:
108,336,173597,6,0,P|172:360|232:324,1,135
248,292,174295,1,8,0:0:0:0:
336,320,174644,1,0,0:0:0:0:
420,352,174993,2,0,P|472:280|440:200,1,180,0|8,0:0|0:0,0:0:0:0:
500,32,176388,6,0,P|424:88|348:56,1,180,0|8,0:0|0:0,0:0:0:0:
172,40,177783,2,0,P|232:108|212:196,1,180,0|8,0:0|0:0,0:0:0:0:
68,292,179179,5,4,0:0:0:0:
128,360,179528,1,0,0:0:0:0:
164,276,179876,2,0,P|208:268|252:292,1,90,8|0,0:0|0:0,0:0:0:0:
316,348,180574,2,0,P|404:372|464:316,1,180,0|8,0:0|0:0,0:0:0:0:
480,136,181969,6,0,L|388:152,1,90
324,88,182667,2,0,P|240:56|168:108,1,180,8|0,0:0|0:0,0:0:0:0:
264,256,184062,1,8,0:0:0:0:
460,252,184760,5,0,0:0:0:0:
488,336,185108,1,0,0:0:0:0:
400,316,185457,1,8,0:0:0:0:
228,264,186155,5,0,0:0:0:0:
224,356,186504,1,0,0:0:0:0:
148,308,186853,1,8,0:0:0:0:
184,140,187550,5,0,0:0:0:0:
96,136,187900,1,0,0:0:0:0:
144,60,188248,1,8,0:0:0:0:
384,88,188946,5,0,0:0:0:0:
384,88,189295,1,0,0:0:0:0:
256,192,190342,5,2,0:0:0:0:
