osu file format v12

[General]
AudioFilename: never getting back together.mp3
AudioLeadIn: 0
PreviewTime: 39644
Countdown: 1
SampleSet: Normal
StackLeniency: 0.7
Mode: 0
LetterboxInBreaks: 1

[Editor]
Bookmarks: 6156,28481,39644,61969,67551,78714,89876,123365,168016,190342
DistanceSpacing: 0.8
BeatDivisor: 4
GridSize: 4

[Metadata]
Title:We Are Never Ever Getting Back Together
TitleUnicode:We Are Never Ever Getting Back Together
Artist:Taylor Swift
ArtistUnicode:Taylor Swift
Creator:MMzz
Version:Easy
Source:
Tags:CheeseWarlock red
BeatmapID:207851
BeatmapSetID:72807

[Difficulty]
HPDrainRate:2
CircleSize:2
OverallDifficulty:3
ApproachRate:3
SliderMultiplier:1.6
SliderTickRate:2

[Events]
//Background and Video events
0,0,"bg.jpg",0,0
Video,-3306,"Taylor Swift - We Are Never Ever Getting Back Together.flv"
//Break Periods
2,62169,66111
2,123565,141460
//Storyboard Layer 0 (Background)
//Storyboard Layer 1 (Fail)
//Storyboard Layer 2 (Pass)
//Storyboard Layer 3 (Foreground)
//Storyboard Sound Samples
//Background Colour Transformations
3,100,163,162,255

[TimingPoints]
6156,697.674418604651,4,2,0,60,1,0
28481,-100,4,2,0,70,0,0
39644,-100,4,1,0,65,0,1
60923,-100,4,2,0,60,0,0
78714,-100,4,2,0,70,0,0
89876,-100,4,1,0,60,0,1
111155,-100,4,2,0,60,0,0
112202,-100,4,1,0,60,0,1
123365,-100,4,2,0,60,0,0
144818,-100,4,2,0,15,0,0
145690,-100,4,1,0,60,0,1
184760,-100,4,1,0,60,0,0
189295,-100,4,2,0,50,0,0

[Colours]
Combo1 : 242,239,196
Combo2 : 243,1,62
Combo3 : 10,16,92
Combo4 : 176,230,15

[HitObjects]
320,284,6156,2,0,P|392:324|468:296,2,160,0|2|0,0:0|0:0|0:0,0:0:0:0:
404,188,8249,1,2,0:0:0:0:
332,84,8946,2,0,P|268:44|188:68,1,160,0|2,0:0|0:0,0:0:0:0:
204,192,10342,1,0,0:0:0:0:
88,144,11039,1,2,0:0:0:0:
60,268,11737,6,0,B|116:328|116:328|196:336,1,160,0|2,0:0|0:0,0:0:0:0:
320,336,13132,2,0,B|397:328|397:328|453:268,1,160,0|2,0:0|0:0,0:0:0:0:
436,140,14528,1,0,0:0:0:0:
340,56,15225,1,2,0:0:0:0:
308,180,15923,2,0,P|248:232|168:220,1,160,0|8,0:0|0:0,0:0:0:0:
198,91,17318,6,0,P|124:72|60:116,2,160,0|2|0,0:0|0:0|0:0,0:0:0:0:
148,208,19411,1,2,0:0:0:0:
100,328,20109,2,0,L|260:328,1,160,0|2,0:0|0:0,0:0:0:0:
356,244,21504,1,0,0:0:0:0:
456,324,22202,1,2,0:0:0:0:
476,196,22900,6,0,P|504:120|464:52,1,160,0|2,0:0|0:0,0:0:0:0:
364,128,24295,2,0,P|288:148|224:104,1,160,0|2,0:0|0:0,0:0:0:0:
256,192,25690,12,2,27783,0:0:0:0:
48,320,28481,6,0,P|104:268|184:288,1,160,0|2,0:0|0:0,0:0:0:0:
304,308,29876,1,0,0:0:0:0:
368,320,30225,1,0,0:0:0:0:
432,332,30574,1,2,0:0:0:0:
488,216,31272,2,0,P|512:136|468:76,1,160,0|2,0:0|0:0,0:0:0:0:
372,160,32667,2,0,L|212:160,1,160,0|2,0:0|0:0,0:0:0:0:
152,48,34062,6,0,P|72:44|20:100,1,160,0|2,0:0|0:0,0:0:0:0:
96,204,35458,1,0,0:0:0:0:
68,260,35807,1,0,0:0:0:0:
40,316,36156,1,2,0:0:0:0:
164,348,36853,2,0,L|324:348,1,160,0|2,0:0|0:0,0:0:0:0:
384,236,38249,2,0,P|304:244|252:192,1,160,0|2,0:0|0:0,0:0:0:0:
352,112,39644,5,4,0:0:0:0:
240,52,40342,1,8,0:0:0:0:
128,112,41039,2,0,L|68:56,2,80,0|0|8,0:0|0:0|0:0,0:0:0:0:
48,212,42435,1,0,0:0:0:0:
64,272,42783,1,0,0:0:0:0:
80,332,43132,1,8,0:0:0:0:
200,288,43830,2,0,P|272:256|344:296,1,160,0|8,0:0|0:0,0:0:0:0:
448,360,45225,6,0,P|476:280|440:216,1,160,0|8,0:0|0:0,0:0:0:0:
384,104,46621,2,0,L|428:32,2,80,0|0|8,0:0|0:0|0:0,0:0:0:0:
256,116,48016,1,0,0:0:0:0:
192,124,48365,1,0,0:0:0:0:
128,132,48714,1,8,0:0:0:0:
52,236,49411,1,0,0:0:0:0:
136,332,50109,1,8,0:0:0:0:
256,288,50807,6,0,L|420:300,1,160,4|8,0:0|0:0,0:0:0:0:
480,188,52202,2,0,P|508:108|464:44,1,160,0|8,0:0|0:0,0:0:0:0:
364,116,53597,2,0,L|320:184,2,80,0|0|8,0:0|0:0|0:0,0:0:0:0:
256,48,54993,1,0,0:0:0:0:
148,116,55690,1,8,0:0:0:0:
40,184,56388,5,0,0:0:0:0:
52,248,56737,1,0,0:0:0:0:
64,312,57086,1,8,0:0:0:0:
180,264,57783,5,0,0:0:0:0:
232,300,58132,1,0,0:0:0:0:
284,336,58481,1,8,0:0:0:0:
356,232,59179,5,0,0:0:0:0:
416,212,59528,1,0,0:0:0:0:
476,192,59876,1,8,0:0:0:0:
408,84,60574,5,0,0:0:0:0:
408,84,60923,1,0,0:0:0:0:
256,192,61969,5,0,0:0:0:0:
36,168,67551,6,0,P|116:200|176:168,2,160,0|2|0,0:0|0:0|0:0,0:0:0:0:
108,60,69644,1,2,0:0:0:0:
236,72,70342,2,0,L|400:72,1,160,0|2,0:0|0:0,0:0:0:0:
488,160,71737,1,0,0:0:0:0:
368,208,72435,1,2,0:0:0:0:
456,300,73132,6,0,P|392:348|316:324,1,160,0|2,0:0|0:0,0:0:0:0:
192,328,74528,2,0,P|120:348|56:300,1,160,0|2,0:0|0:0,0:0:0:0:
256,192,75923,12,2,78016,0:0:0:0:
476,104,78714,6,0,P|408:148|336:120,1,160,0|2,0:0|0:0,0:0:0:0:
232,56,80109,1,0,0:0:0:0:
168,68,80458,1,0,0:0:0:0:
104,84,80807,1,2,0:0:0:0:
36,192,81504,2,0,B|20:272|20:272|64:340,1,160,0|2,0:0|0:0,0:0:0:0:
168,264,82900,2,0,B|220:324|220:324|300:324,1,160,0|2,0:0|0:0,0:0:0:0:
424,320,84295,6,0,P|464:244|436:180,1,160,0|2,0:0|0:0,0:0:0:0:
364,76,85690,1,0,0:0:0:0:
300,92,86039,1,0,0:0:0:0:
240,112,86388,1,2,0:0:0:0:
128,52,87086,2,0,P|96:120|136:192,1,160,0|2,0:0|0:0,0:0:0:0:
104,316,88481,2,0,P|178:325|234:269,1,160,0|2,0:0|0:0,0:0:0:0:
352,316,89876,5,4,0:0:0:0:
464,256,90574,1,8,0:0:0:0:
448,128,91272,2,0,L|500:64,2,80,0|0|8,0:0|0:0|0:0,0:0:0:0:
332,72,92667,1,0,0:0:0:0:
268,64,93016,1,0,0:0:0:0:
204,56,93365,1,8,0:0:0:0:
76,36,94062,2,0,P|40:100|76:176,1,160,0|8,0:0|0:0,0:0:0:0:
24,292,95458,6,0,P|96:264|164:308,1,160,0|8,0:0|0:0,0:0:0:0:
288,332,96853,2,0,L|360:368,2,80,0|0|8,0:0|0:0|0:0,0:0:0:0:
396,260,98249,1,0,0:0:0:0:
424,204,98597,1,0,0:0:0:0:
452,144,98946,1,8,0:0:0:0:
396,28,99644,1,0,0:0:0:0:
268,48,100342,1,8,0:0:0:0:
200,156,101039,6,0,P|120:124|56:164,1,160,4|8,0:0|0:0,0:0:0:0:
60,284,102435,2,0,P|140:316|204:276,1,160,0|8,0:0|0:0,0:0:0:0:
324,312,103830,2,0,L|408:324,2,80,0|0|8,0:0|0:0|0:0,0:0:0:0:
344,184,105225,1,0,0:0:0:0:
448,108,105923,1,8,0:0:0:0:
328,60,106621,5,0,0:0:0:0:
264,48,106969,1,0,0:0:0:0:
200,36,107318,1,8,0:0:0:0:
244,156,108016,5,0,0:0:0:0:
180,144,108364,1,0,0:0:0:0:
116,132,108713,1,8,0:0:0:0:
164,252,109411,5,0,0:0:0:0:
100,240,109759,1,0,0:0:0:0:
36,228,110108,1,8,0:0:0:0:
92,344,110807,5,0,0:0:0:0:
92,344,111155,1,0,0:0:0:0:
284,328,112202,6,0,P|368:348|420:300,1,160,4|8,0:0|0:0,0:0:0:0:
420,176,113597,2,0,P|464:104|436:32,1,160,0|8,0:0|0:0,0:0:0:0:
324,92,114993,1,0,0:0:0:0:
212,28,115690,1,8,0:0:0:0:
208,156,116388,2,0,L|44:168,1,160,0|8,0:0|0:0,0:0:0:0:
32,296,117783,6,0,P|100:344|168:324,1,160,0|8,0:0|0:0,0:0:0:0:
284,272,119179,2,0,P|352:252|420:300,1,160,0|8,0:0|0:0,0:0:0:0:
492,192,120574,1,0,0:0:0:0:
452,72,121272,1,8,0:0:0:0:
344,140,121969,2,0,P|272:168|200:132,1,160,0|8,0:0|0:0,0:0:0:0:
108,44,123365,5,0,0:0:0:0:
256,192,142900,12,0,144993,0:0:0:0:
244,288,145690,5,4,0:0:0:0:
364,328,146388,1,8,0:0:0:0:
464,248,147086,2,0,L|508:324,2,80,0|0|8,0:0|0:0|0:0,0:0:0:0:
400,136,148481,1,0,0:0:0:0:
364,84,148830,1,0,0:0:0:0:
328,32,149179,1,8,0:0:0:0:
256,140,149876,2,0,P|176:168|112:120,1,160,0|8,0:0|0:0,0:0:0:0:
16,52,151272,6,0,P|-16:124|16:196,1,160,0|8,0:0|0:0,0:0:0:0:
100,288,152667,2,0,L|112:368,2,80,0|0|8,0:0|0:0|0:0,0:0:0:0:
224,316,154062,1,0,0:0:0:0:
288,324,154411,1,0,0:0:0:0:
352,332,154760,1,8,0:0:0:0:
464,272,155458,1,0,0:0:0:0:
356,200,156155,1,8,0:0:0:0:
480,168,156853,6,0,P|508:100|468:28,1,160,4|8,0:0|0:0,0:0:0:0:
356,80,158249,2,0,P|276:116|216:76,1,160,0|8,0:0|0:0,0:0:0:0:
100,56,159644,2,0,L|12:68,2,80,0|0|8,0:0|0:0|0:0,0:0:0:0:
152,172,161039,1,0,0:0:0:0:
80,276,161737,1,8,0:0:0:0:
192,340,162435,6,0,P|264:364|332:320,1,160,0|8,0:0|0:0,0:0:0:0:
456,352,163830,2,0,P|464:272|412:216,1,160,0|8,0:0|0:0,0:0:0:0:
288,192,165225,2,0,L|208:212,2,80,0|0|8,0:0|0:0|0:0,0:0:0:0:
372,96,166621,1,0,0:0:0:0:
256,44,167318,1,8,0:0:0:0:
140,100,168016,6,0,P|64:128|-4:72,1,160,4|8,0:0|0:0,0:0:0:0:
20,216,169411,2,0,P|12:292|72:344,1,160,0|8,0:0|0:0,0:0:0:0:
192,304,170807,2,0,L|252:356,2,80,0|0|8,0:0|0:0|0:0,0:0:0:0:
316,268,172202,1,0,0:0:0:0:
440,240,172900,1,8,0:0:0:0:
468,116,173597,6,0,P|392:144|328:96,1,160,0|8,0:0|0:0,0:0:0:0:
212,52,174993,2,0,L|40:72,1,160,0|8,0:0|0:0,0:0:0:0:
24,196,176388,2,0,L|108:188,2,80,0|0|8,0:0|0:0|0:0,0:0:0:0:
20,324,177783,1,0,0:0:0:0:
144,348,178481,1,8,0:0:0:0:
256,284,179179,6,0,P|336:256|400:300,1,160,4|8,0:0|0:0,0:0:0:0:
472,188,180574,2,0,P|500:112|456:44,1,160,0|8,0:0|0:0,0:0:0:0:
360,124,181969,2,0,L|324:200,2,80,0|0|8,0:0|0:0|0:0,0:0:0:0:
252,56,183365,1,0,0:0:0:0:
144,124,184062,1,8,0:0:0:0:
40,200,184760,5,0,0:0:0:0:
52,264,185109,1,0,0:0:0:0:
64,328,185458,1,8,0:0:0:0:
180,280,186155,5,0,0:0:0:0:
232,316,186504,1,0,0:0:0:0:
284,352,186853,1,8,0:0:0:0:
356,248,187551,5,0,0:0:0:0:
416,228,187900,1,0,0:0:0:0:
476,208,188248,1,8,0:0:0:0:
408,100,188946,5,0,0:0:0:0:
408,100,189295,1,0,0:0:0:0:
256,192,190341,5,2,0:0:0:0:
