osu file format v12

[General]
AudioFilename: 08 We Are Never Ever Getting Back Together.mp3
AudioLeadIn: 0
PreviewTime: -1
Countdown: 0
SampleSet: Soft
StackLeniency: 0.7
Mode: 0
LetterboxInBreaks: 1
WidescreenStoryboard: 1

[Editor]
Bookmarks: 5815,16978,28141,39303,50466,61629,62327,63024,63722,64420,65117,65815,66513,67210,78373,89536,100699,111861,123024,134187,134885,135582,136280,136978,137675,138373,139071,139768,140466,141164,141861,142559,143257,143954,144652,145350,156513,167675,178838,190001
DistanceSpacing: 1.2
BeatDivisor: 4
GridSize: 4

[Metadata]
Title:We Are Never Ever Getting Back Together
TitleUnicode:We Are Never Ever Getting Back Together
Artist:Taylor Swift
ArtistUnicode:Taylor Swift
Creator:Lissette
Version:Normal
Source:
Tags:lizbeth gabe collab collaboration red
BeatmapID:210131
BeatmapSetID:73703

[Difficulty]
HPDrainRate:4
CircleSize:3
OverallDifficulty:5
ApproachRate:5
SliderMultiplier:1.4
SliderTickRate:1

[Events]
//Background and Video events
0,0,"wide-bg.jpg",0,0
//Break Periods
2,61850,66032
//Storyboard Layer 0 (Background)
//Storyboard Layer 1 (Fail)
//Storyboard Layer 2 (Pass)
//Storyboard Layer 3 (Foreground)
//Storyboard Sound Samples
//Background Colour Transformations
3,100,163,162,255

[TimingPoints]
5837,697.674418604651,4,2,1,50,1,0
39325,-100,4,2,1,50,0,1
60604,-100,4,2,1,50,0,0
89557,-100,4,2,1,50,0,1
111709,-100,4,2,1,50,0,0
111883,-100,4,2,1,50,0,1
111970,-100,4,2,1,50,0,0
145371,-100,4,2,1,50,0,1
167523,-100,4,2,1,50,0,0
167697,-100,4,2,1,50,0,1
167871,-100,4,2,1,50,0,1
190023,-100,4,2,1,50,0,0

[Colours]
Combo1 : 94,187,0
Combo2 : 255,136,17
Combo3 : 255,51,153

[HitObjects]
56,64,5837,1,0,0:0:0:0:
216,8,6534,1,0,0:0:0:0:
376,64,7232,2,0,P|364:144|412:212,1,140
448,352,8627,5,0,0:0:0:0:
292,288,9325,1,0,0:0:0:0:
136,348,10023,2,0,P|128:276|48:228,1,140
220,144,11418,5,0,0:0:0:0:
380,96,12116,1,0,0:0:0:0:
432,256,12813,1,0,0:0:0:0:
272,304,13511,1,0,0:0:0:0:
104,296,14209,6,0,P|64:232|96:148,1,140
160,28,15604,2,0,P|200:92|168:176,1,140
264,300,16999,6,0,L|420:280,1,140
480,132,18395,1,0,0:0:0:0:
324,76,19092,2,0,L|300:16,1,35
184,56,19790,6,0,L|36:84,1,140
12,248,21185,1,0,0:0:0:0:
168,312,21883,2,0,L|220:344,1,35
324,320,22581,6,0,L|344:232,1,70
300,176,23278,2,0,L|316:92,1,70
272,32,23976,1,0,0:0:0:0:
436,64,24674,6,0,L|480:96,1,35
428,204,25371,2,0,L|460:256,1,35
344,308,26069,2,0,L|356:360,1,35
228,316,26767,2,0,L|212:372,1,35
128,264,27464,2,0,L|80:288,1,35
116,156,28162,6,0,P|192:164|228:220,1,140
308,228,29209,1,0,0:0:0:0:
308,228,29383,2,0,P|352:232|400:208,2,70
216,40,30953,6,0,L|120:52,1,70
132,132,31650,2,0,L|228:120,1,70
244,120,32174,2,0,L|268:192,2,70
244,120,33046,1,0,0:0:0:0:
304,60,33395,1,0,0:0:0:0:
304,60,33743,6,0,P|376:44|448:88,1,140
436,156,34790,1,0,0:0:0:0:
436,156,34964,2,0,L|436:232,2,70
436,156,35837,1,0,0:0:0:0:
228,120,36534,6,0,P|152:128|104:188,1,140
180,324,37930,2,0,P|256:316|304:256,1,140
388,132,39325,6,0,P|444:176|444:256,1,140
368,220,40371,1,0,0:0:0:0:
368,220,40720,2,0,L|272:228,1,70
224,184,41418,2,0,L|144:188,1,70
83,152,42116,6,0,P|100:122|132:108,2,70
0,308,43511,1,0,0:0:0:0:
164,340,44209,1,0,0:0:0:0:
328,296,44906,6,0,P|316:232|352:156,1,140
428,164,45953,1,0,0:0:0:0:
388,88,46302,2,0,P|344:72|304:88,1,70
264,136,46999,2,0,P|216:136|184:108,1,70
156,52,47697,6,0,L|64:60,2,70
324,32,49092,1,0,0:0:0:0:
468,120,49790,1,0,0:0:0:0:
320,196,50488,6,0,L|328:280,1,70
308,348,51185,1,0,0:0:0:0:
224,204,51883,6,0,L|232:288,1,70
212,356,52580,1,0,0:0:0:0:
132,208,53278,6,0,L|140:292,1,70
120,360,53975,1,0,0:0:0:0:
120,360,53976,2,0,P|64:324|64:232,2,140
228,232,56069,6,0,P|288:192|372:216,1,140
436,216,57116,1,0,0:0:0:0:
444,132,57464,2,0,L|432:56,1,70
352,80,58162,2,0,L|296:24,1,70
232,76,58860,2,0,L|160:44,1,70
140,128,59557,2,0,P|68:120|8:156,1,140
96,296,60953,5,0,0:0:0:0:
96,296,61650,1,0,0:0:0:0:
256,188,67232,5,0,0:0:0:0:
