osu file format v9

[General]
AudioFilename: Taylor Swift - The Story Of Us.mp3
AudioLeadIn: 1500
PreviewTime: 58553
Countdown: 0
SampleSet: Soft
StackLeniency: 0.7
Mode: 0
LetterboxInBreaks: 1

[Editor]
DistanceSpacing: 1
BeatDivisor: 4
GridSize: 4

[Metadata]
Title:The Story Of Us
Artist:Taylor Swift
Creator:12BARRY21
Version:Happy Ending
Source:
Tags:Speak Now 0OoMickeyoO0

[Difficulty]
HPDrainRate:7
CircleSize:4
OverallDifficulty:7
ApproachRate:8
SliderMultiplier:1.92
SliderTickRate:2

[Events]
//Background and Video events
0,0,"Taylor Swift.jpg"
Video,-320,"Taylor Swift - The Story Of Us.flv"
//Break Periods
2,86214,92122
2,161656,173780
//Storyboard Layer 0 (Background)
//Storyboard Layer 1 (Fail)
//Storyboard Layer 2 (Pass)
//Storyboard Layer 3 (Foreground)
//Storyboard Sound Samples
//Background Colour Transformations
3,100,163,162,255

[TimingPoints]
285,428.647972852295,4,2,2,45,1,0
499,-100,4,2,1,20,0,0
713,-100,4,2,1,45,0,0
927,-100,4,2,1,20,0,0
1142,-100,4,2,2,45,0,0
1356,-100,4,2,1,20,0,0
1570,-100,4,2,1,45,0,0
1785,-100,4,2,1,20,0,0
1999,-100,4,2,2,45,0,0
2213,-100,4,2,1,20,0,0
2428,-100,4,2,1,45,0,0
2642,-100,4,2,1,20,0,0
2856,-100,4,2,2,45,0,0
3071,-100,4,2,1,20,0,0
3714,-100,4,2,1,70,0,1
3821,-100,4,2,1,70,0,0
16787,-100,4,1,1,75,0,0
17430,-153.846153846154,4,2,1,40,0,0
17538,-153.846153846154,4,2,2,45,0,0
31147,-153.846153846154,4,2,1,40,0,0
31254,-153.846153846154,4,2,2,45,0,0
44864,-125,4,2,1,45,0,0
44971,-125,4,2,2,50,0,0
51722,-125,4,2,1,45,0,0
51829,-125,4,2,2,50,0,0
55151,-125,4,2,2,60,0,0
56866,-125,4,2,2,65,0,0
57723,-125,4,2,1,65,0,0
57938,-125,4,2,2,80,0,0
58152,-125,4,2,1,65,0,0
58366,-125,4,2,2,80,0,0
58581,-90.9090909090909,4,2,1,75,0,1
72190,-90.9090909090909,4,2,1,75,0,0
72297,-90.9090909090909,4,2,1,80,0,1
84514,-200,4,2,1,80,0,1
85157,-90.9090909090909,4,2,1,80,0,1
85371,-90.9090909090909,4,2,2,65,0,1
85585,-90.9090909090909,4,2,1,80,0,1
85800,-90.9090909090909,4,2,2,65,0,1
86014,-100,4,2,1,80,0,0
92872,-100,4,2,1,50,0,0
104875,-100,4,2,1,55,0,0
105732,-100,4,2,1,50,0,0
119449,-100,4,1,1,60,0,0
120306,-100,4,2,1,55,0,0
127164,-100,4,2,1,60,0,0
130593,-100,4,1,1,35,0,0
130808,-100,4,1,1,40,0,0
131022,-100,4,1,1,45,0,0
131236,-100,4,1,1,50,0,0
131451,-100,4,1,1,55,0,0
131665,-100,4,1,1,60,0,0
131879,-100,4,1,1,65,0,0
132094,-100,4,1,1,70,0,0
132308,-100,4,1,1,75,0,0
134023,-90.9090909090909,4,2,1,75,0,1
147632,-90.9090909090909,4,2,1,75,0,0
147739,-90.9090909090909,4,2,1,80,0,1
160170,-90.9090909090909,4,2,1,80,0,1
160599,-90.9090909090909,4,2,1,80,0,1
160813,-90.9090909090909,4,2,2,70,0,1
161027,-90.9090909090909,4,2,1,80,0,1
161242,-90.9090909090909,4,2,2,70,0,1
161456,-100,4,2,1,80,0,0
174530,-100,4,2,1,60,0,0
174959,-100,4,2,1,50,0,0
175173,-200,4,2,1,55,0,1
175280,-200,4,2,2,15,0,0
178602,-133.333333333333,4,2,1,35,0,0
178709,-133.333333333333,4,2,2,50,0,0
182031,-133.333333333333,4,2,1,45,0,0
182138,-133.333333333333,4,2,2,50,0,0
183746,-133.333333333333,4,2,2,60,0,0
183853,-133.333333333333,4,2,2,50,0,0
185460,-133.333333333333,4,2,1,40,0,0
185568,-133.333333333333,4,2,2,30,0,0
188890,-133.333333333333,4,1,2,45,0,0
188997,-133.333333333333,4,2,2,55,0,0
189318,-133.333333333333,4,1,2,40,0,0
189533,-133.333333333333,4,1,2,50,0,0
189961,-133.333333333333,4,1,2,40,0,0
190176,-133.333333333333,4,1,2,50,0,0
190390,-133.333333333333,4,2,1,55,0,0
191033,-133.333333333333,4,1,2,40,0,0
191247,-133.333333333333,4,1,2,50,0,0
191461,-133.333333333333,4,2,1,55,0,0
191676,-133.333333333333,4,1,2,40,0,0
191890,-133.333333333333,4,1,2,50,0,0
192319,-133.333333333333,4,1,2,45,0,0
192747,-133.333333333333,4,1,2,40,0,0
192962,-133.333333333333,4,1,2,50,0,0
193390,-133.333333333333,4,1,2,40,0,0
193605,-133.333333333333,4,1,2,45,0,0
193819,-133.333333333333,4,2,1,55,0,0
194462,-133.333333333333,4,1,2,40,0,0
194676,-133.333333333333,4,1,2,50,0,0
194891,-133.333333333333,4,2,1,55,0,0
195105,-133.333333333333,4,1,2,40,0,0
195319,-133.333333333333,4,1,2,50,0,0
195534,-133.333333333333,4,2,2,55,0,0
195748,-133.333333333333,4,2,1,45,0,0
196177,-133.333333333333,4,1,2,40,0,0
196391,-133.333333333333,4,1,2,50,0,0
196820,-133.333333333333,4,1,2,40,0,0
197034,-133.333333333333,4,1,2,50,0,0
197463,-133.333333333333,4,1,2,50,0,0
197891,-133.333333333333,4,1,2,40,0,0
198106,-133.333333333333,4,1,2,50,0,0
198534,-133.333333333333,4,1,2,40,0,0
198749,-133.333333333333,4,1,2,50,0,0
199177,-133.333333333333,4,2,1,45,0,0
199284,-133.333333333333,4,2,2,35,0,0
202606,-133.333333333333,4,1,1,30,0,0
203464,-133.333333333333,4,1,1,35,0,0
204321,-133.333333333333,4,1,1,40,0,0
205178,-133.333333333333,4,1,1,45,0,0
206036,-133.333333333333,4,1,1,55,0,0
206893,-133.333333333333,4,1,1,65,0,0
207321,-133.333333333333,4,1,1,70,0,0
207750,-133.333333333333,4,1,1,75,0,0
208179,-133.333333333333,4,2,1,25,0,0
209465,-100,4,1,1,80,0,0
210108,-100,4,2,1,35,0,0
211179,-100,4,1,1,80,0,0
211822,-100,4,2,1,35,0,0
212894,-80,4,2,1,65,0,0
214394,-200,4,1,1,30,0,0
214608,-200,4,1,1,40,0,0
214823,-200,4,1,1,50,0,0
215037,-200,4,1,1,60,0,0
215251,-200,4,1,1,70,0,0
215466,-200,4,1,1,80,0,0
215680,-100,4,1,1,75,0,0
216323,-83.3333333333333,4,2,1,75,0,1
223074,-83.3333333333333,4,2,1,75,0,0
223181,-83.3333333333333,4,2,1,80,0,1
233469,-83.3333333333333,4,1,1,75,0,1
233898,-83.3333333333333,4,2,1,80,0,1
234112,-83.3333333333333,4,1,1,75,0,1
234326,-83.3333333333333,4,1,1,75,0,1
234755,-83.3333333333333,4,2,1,80,0,1
234969,-83.3333333333333,4,1,1,75,0,1
235612,-83.3333333333333,4,1,1,80,0,1
236041,-83.3333333333333,4,1,1,85,0,1
236470,-83.3333333333333,4,1,1,90,0,1
236684,-83.3333333333333,4,1,1,75,0,1
236791,-83.3333333333333,4,1,1,75,0,0
236898,-76.9230769230769,4,1,1,85,0,1
240327,-76.9230769230769,4,2,1,80,0,1
248900,-76.9230769230769,4,1,1,80,0,1
250508,-76.9230769230769,4,1,1,80,0,0
250615,-76.9230769230769,4,2,1,85,0,1
256830,-76.9230769230769,4,2,1,85,0,1
256937,-76.9230769230769,4,1,1,80,0,1
257045,-76.9230769230769,4,2,1,85,0,1
257152,-76.9230769230769,4,1,1,70,0,1
257473,-76.9230769230769,4,2,1,85,0,1
261117,-76.9230769230769,4,1,1,85,0,1
261331,-76.9230769230769,4,2,1,85,0,1
261545,-76.9230769230769,4,1,1,85,0,1
261760,-76.9230769230769,4,2,1,85,0,1
261974,-76.9230769230769,4,1,1,85,0,1
262188,-76.9230769230769,4,2,1,85,0,1
262403,-76.9230769230769,4,1,1,85,0,1
262617,-76.9230769230769,4,1,1,85,0,0

[Colours]
Combo1 : 29,149,248
Combo2 : 155,102,244
Combo3 : 253,77,209
Combo4 : 255,140,26
Combo5 : 235,214,61

[HitObjects]
210,158,285,2,0,B|190:113|199:63,1,96,8|4
301,225,713,2,0,B|321:270|312:320,1,96,8|4
289,146,1142,2,0,B|334:126|384:135,1,96,8|4
222,237,1570,2,0,B|177:257|127:248,1,96,8|4
198,64,1999,5,8
383,134,2213,1,4
313,319,2428,1,8
128,249,2642,1,4
198,64,2856,1,8
313,319,3071,5,12
313,319,3714,6,0,B|324:268|376:252|376:252|384:204|432:180,1,192,4|8
468,268,4357,1,0
244,176,4571,2,0,B|232:80,1,96,0|0
356,28,5000,2,0,B|344:124,1,96,8|0
140,212,5428,6,0,B|84:212|48:172|36:124|56:72,1,192,2|8
144,116,6071,1,0
172,308,6286,2,0,B|124:320|76:308,1,96,2|0
344,328,6714,2,0,B|296:316|248:328,1,96,8|0
424,344,7143,6,0,B|464:256|456:156,1,192,4|8
456,156,7786,1,0
289,50,8000,5,2
210,197,8214,1,0
360,124,8429,1,8
196,95,8643,1,0
312,215,8857,2,0,B|332:264|324:312,1,96,2|0
136,348,9286,2,0,B|116:299|124:251,1,96,8|0
224,284,9715,1,2
72,156,9929,5,0
72,132,10036,1,0
76,108,10143,1,8
212,72,10358,1,8
212,96,10465,1,8
208,120,10572,6,0,B|272:104|352:116,1,144,4|0
372,124,11001,2,0,B|396:168|392:216,1,96,8|0
356,308,11429,1,0
452,300,11644,1,0
332,340,11858,1,8
477,327,12072,1,0
332,340,12287,6,0,B|260:348|260:348|192:332,1,144,2|0
168,320,12715,2,0,B|148:228,1,96,8|0
40,64,13144,2,0,B|60:156,1,96,2|0
52,252,13573,1,8
156,132,13787,1,0
316,96,14001,6,0,B|332:140|332:192,1,96,4|0
460,184,14430,2,0,B|416:200|364:200,1,96,8|0
380,328,14859,2,0,B|364:284|364:232,1,96,2|0
236,240,15287,2,0,B|280:224|332:224,1,96,8|0
256,356,15716,5,2
144,340,15930,1,0
52,268,16144,1,8
36,156,16359,2,0,B|36:108|64:64,1,96
63,65,16787,1,0
256,20,17002,5,0
256,20,17430,6,0,B|252:92|188:120,1,124.79999428711,4|8
256,168,18073,1,0
256,20,18288,2,0,B|260:92|324:120,1,124.79999428711,8|8
256,168,18931,1,0
120,236,19145,6,0,B|108:296,1,62.3999971435548,12|0
188,296,19574,2,0,B|192:360,1,62.3999971435548,8|0
392,236,20002,2,0,B|404:296,1,62.3999971435548,8|0
324,296,20431,2,0,B|320:360,1,62.3999971435548,8|0
196,136,20860,6,0,B|228:144|256:124|256:124|284:144|316:136,2,124.79999428711,12|8|8
168,68,21931,1,0
96,40,22146,1,8
24,56,22360,1,0
8,236,22574,5,8
12,260,23003,1,8
16,284,23431,2,0,B|28:344,1,62.3999971435548,8|0
152,356,23860,2,0,B|216:360|260:304,1,124.79999428711,8|12
416,120,24717,5,8
344,132,24932,1,0
392,188,25146,1,8
368,64,25360,5,0
320,200,25575,1,8
464,176,25789,1,0
368,64,26003,6,0,B|308:40|244:48,1,124.79999428711,12|8
136,72,26646,1,0
76,168,26861,2,0,B|72:200|84:228,1,62.3999971435548,8|0
136,328,27289,2,0,B|200:312|260:336,1,124.79999428711,8|12
256,192,27825,12,8,30719
192,48,31147,6,0,B|124:36|72:72,1,124.79999428711,4|8
44,140,31790,1,0
44,140,32004,2,0,B|56:200,1,62.3999971435548,8|0
248,252,32433,2,0,B|236:192,1,62.3999971435548,8|0
176,268,32862,6,0,B|184:304|212:324|240:332|273:322,1,124.79999428711,8|8
396,304,33505,1,0
396,304,33719,2,0,B|404:244,1,62.3999971435548,8|0
320,148,34148,2,0,B|312:88,1,62.3999971435548,8|0
188,72,34576,6,0,B|155:71|133:44|133:44|100:56|72:40,2,124.79999428711,8|8|8
224,192,35648,1,0
188,312,35862,2,0,B|155:312|133:339|133:339|100:327|72:343,2,124.79999428711,8|8|8
280,324,36934,1,0
392,336,37148,1,8
280,324,37363,1,0
392,336,37577,1,8
280,324,37791,1,0
392,336,38006,6,0,B|456:328|484:260,1,124.79999428711,8|8
468,168,38648,1,0
468,168,38863,2,0,B|460:136|472:108,1,62.3999971435548,8|0
384,76,39291,2,0,B|393:44|417:26,1,62.3999971435548,8|0
316,104,39720,6,0,B|192:116,1,124.79999428711,8|8
92,192,40363,1,0
192,268,40577,2,0,B|316:280,2,124.79999428711,8|8|8
256,192,41542,12,8,44435
184,84,44864,6,0,B|256:64|256:64|332:84,1,153.6,4|8
348,168,45507,1,0
164,168,45721,2,0,B|120:168|88:152,1,76.8,8|0
348,168,46150,2,0,B|392:168|424:152,1,76.8,8|0
480,212,46578,6,0,B|448:240|412:248|376:254|336:251,1,153.6,12|8
256,276,47221,1,0
240,360,47436,1,12
320,336,47650,1,0
335,250,47864,1,8
256,276,48079,1,0
112,192,48293,5,12
400,192,48722,1,8
27,192,49150,5,8
484,192,49579,1,8
256,48,50008,6,0,B|220:88|228:152|256:192|256:192|280:228|292:296|256:336,2,307.2,12|0|4
328,120,51937,1,0
184,264,52151,1,8
328,120,52365,2,0,B|372:120|408:148|424:184|420:224,2,153.6
208,140,53437,5,8
196,112,53865,1,8
184,84,54294,1,8
172,56,54723,1,8
100,192,55151,6,0,B|88:228|92:268,1,76.8,8|0
412,192,55580,2,0,B|424:228|420:268,1,76.8,8|0
172,244,56009,2,0,B|169:281|183:319,1,76.8,8|0
340,244,56437,2,0,B|342:281|328:319,1,76.8,8|0
256,272,56866,5,0
256,168,57080,1,0
256,264,57295,5,0
256,140,57509,1,0
256,256,57723,5,8
256,112,57938,1,8
256,248,58152,5,8
256,84,58366,1,8
56,56,58581,6,0,B|28:164|60:264,1,211.200006445313,4|8
164,288,59224,1,0
228,204,59438,1,0
272,300,59652,1,0
272,300,59759,1,0
272,300,59867,2,0,B|324:308|324:308|368:336,1,105.600003222656,8|0
444,260,60295,6,0,B|412:217|412:217|401:166,1,105.600003222656,2|0
432,64,60724,1,8
332,28,60938,1,0
300,128,61153,1,0
144,144,61367,5,0
140,124,61474,1,0
136,104,61581,2,0,B|88:80|32:88,1,105.600003222656,8|0
32,296,62010,2,0,B|88:304|136:280,1,105.600003222656,2|0
228,232,62438,1,8
332,236,62653,2,0,B|360:336,1,105.600003222656
432,208,63081,2,0,B|460:308,1,105.600003222656,0|8
448,108,63510,5,0
448,108,63724,2,0,B|376:104|376:104|332:48|256:43,1,211.200006445313,2|8
256,164,64367,1,0
64,108,64582,2,0,B|136:104|136:104|180:48|256:43,1,211.200006445313,2|8
256,164,65225,5,8
252,184,65332,1,8
240,200,65439,2,0,B|196:228|140:228,1,105.600003222656,4|0
68,356,65868,2,0,B|112:328|168:328,1,105.600003222656,8|0
272,336,66296,1,0
372,304,66511,1,0
416,208,66725,2,0,B|424:152|396:104,1,105.600003222656,8|0
300,64,67154,6,0,B|248:84|248:84|196:64|144:64|96:96,1,211.200006445313,2|8
68,196,67797,1,0
68,196,68011,2,0,B|60:248,2,52.8000016113282
188,240,68440,1,8
144,360,68654,1,0
268,344,68868,2,0,B|364:300|476:300,1,211.200006445313,2|8
464,196,69511,5,0
464,196,69725,2,0,B|492:152|488:96,1,105.600003222656
388,124,70154,2,0,B|390:71|358:25,1,105.600003222656,8|0
284,100,70583,2,0,B|259:53|209:29,1,105.600003222656,2|0
184,132,71011,2,0,B|139:104|83:107,1,105.600003222656,8|0
108,212,71440,5,2
108,212,71547,1,0
108,212,71654,2,0,B|100:264|100:264|72:308,1,105.600003222656,0|8
404,212,72083,5,8
404,212,72190,1,8
404,212,72297,2,0,B|412:264|412:264|440:308,2,105.600003222656,4|0|8
292,184,72940,1,0
429,176,73155,1,0
284,140,73369,1,0
456,140,73583,1,8
276,96,73798,6,0,B|188:40|72:52,1,211.200006445313
24,144,74441,2,0,B|4:248,1,105.600003222656,8|0
100,208,74869,2,0,B|98:313,1,105.600003222656,2|0
184,252,75298,2,0,B|200:356,1,105.600003222656,10|0
352,308,75727,6,0,B|360:268|392:244|436:244|436:244|456:204,1,158.400004833985,4|0
456,184,76155,2,0,B|460:132|448:80,1,105.600003222656,10|0
328,12,76584,2,0,B|324:64|336:116,1,105.600003222656,2|0
56,184,77012,2,0,B|52:132|64:80,1,105.600003222656,10|0
184,12,77441,2,0,B|188:64|175:116,1,105.600003222656,2|0
64,79,77870,5,8
175,116,78084,1,0
240,212,78298,1,0
236,328,78513,2,0,B|208:328|184:336,2,52.8000016113282,0|0|8
392,336,78941,5,8
400,316,79049,1,8
416,304,79156,2,0,B|452:268|460:208,1,105.600003222656,4|0
440,108,79584,1,8
440,108,79799,2,0,B|336:84|336:84|252:24,1,211.200006445313
128,56,80442,1,8
68,168,80656,5,0
68,168,80763,1,0
68,168,80870,2,0,B|80:224|60:272,1,105.600003222656,2|0
164,196,81299,2,0,B|146:250|105:282,1,105.600003222656,8|0
232,268,81728,2,0,B|189:306|137:313,1,105.600003222656,2|0
256,364,82156,2,0,B|200:376|152:356,1,105.600003222656,8|0
412,280,82585,5,0
448,180,82799,1,0
328,48,83014,1,8
340,152,83228,1,0
100,280,83442,5,0
64,180,83656,1,0
184,48,83871,1,8
172,152,84085,1,0
256,216,84300,5,0
256,216,84514,2,0,B|256:360,1,144,0|8
172,264,85371,5,8
256,124,85585,1,8
340,264,85800,1,8
256,216,86014,1,4
188,248,92872,6,0,B|212:204|212:204|256:224|300:204|300:204|324:248,1,192,4|8
256,132,93515,2,0,B|276:88|324:68,1,96
256,132,93944,2,0,B|236:88|188:68,1,96,0|8
84,84,94373,6,0,B|72:152|72:152|36:192|36:192|24:260,1,192
100,332,95016,1,8
156,244,95230,1,0
216,332,95444,2,0,B|264:320|316:328,1,96
432,296,95873,5,8
432,296,96087,2,0,B|460:108,1,192,2|0
460,106,96623,1,0
460,106,96730,1,8
360,268,96945,6,0,B|388:80,1,192,2|0
388,78,97481,1,0
388,78,97588,1,8
288,244,97802,6,0,B|316:56,1,192,2|0
316,54,98338,1,0
316,54,98445,1,8
184,32,98659,6,0,B|139:58|134:111,1,96
181,205,99088,2,0,B|180:154|136:124,1,96,0|8
33,117,99517,2,0,B|76:141|125:119,1,96,0|4
424,324,100159,5,8
328,316,100374,1,0
336,220,100588,1,0
432,228,100803,1,0
328,316,101017,1,8
196,324,101231,6,0,B|116:272|116:272|20:252,1,192,2|2
20,156,101874,2,0,B|11:108|40:63,1,96,8|0
154,87,102303,2,0,B|162:134|133:179,2,96,0|0|8
264,52,102946,5,0
264,52,103053,1,0
264,52,103160,2,0,B|360:40,1,96,0|2
380,224,103589,2,0,B|284:236,1,96,8|2
328,136,104017,2,0,B|424:124,1,96,0|2
444,308,104446,2,0,B|348:320,1,96,8|2
204,304,104875,5,0
216,208,105089,1,2
120,196,105303,1,8
108,292,105517,1,2
223,329,105732,5,0
241,188,105946,1,2
100,170,106160,1,8
82,311,106374,1,2
96,156,106589,6,0,B|76:110|88:62,1,96,4|0
87,62,106911,1,0
87,62,107018,1,8
204,20,107232,2,0,B|224:66|212:114,1,96
304,140,107661,1,0
432,96,107875,1,8
304,140,108089,6,0,B|320:236|320:236|376:312,1,192
380,236,108732,2,0,B|320:236|304:288,1,96,8|0
196,320,109161,1,0
84,300,109375,1,0
56,188,109590,2,0,B|52:92,1,96,8|0
152,36,110018,5,0
256,92,110233,1,0
256,92,110340,1,0
256,92,110447,2,0,B|260:188,1,96,8|0
364,136,110876,1,0
452,100,111090,1,0
372,44,111304,1,8
444,192,111519,6,0,B|460:268|420:320|420:320|364:332,1,192
268,328,112162,2,0,B|256:232,1,96,8|0
256,232,112483,1,0
256,232,112590,1,0
160,248,112805,1,0
104,324,113019,1,8
60,240,113233,1,0
160,248,113448,6,0,B|168:172|124:112,1,144,4|0
36,84,113876,2,0,B|68:120|124:112,1,96,8|0
224,56,114305,1,0
340,72,114519,2,0,B|384:96|384:96|404:140,1,96,0|8
432,248,114948,1,0
376,348,115162,6,0,B|304:372|236:336,1,144
232,244,115591,2,0,B|256:288|236:336,1,96,8|0
140,352,116019,1,0
48,320,116234,1,0
32,224,116448,2,0,B|24:172|48:132,1,96,8|0
116,64,116877,6,0,B|220:80|300:24,1,192,0|8
372,148,117520,1,0
412,236,117734,1,0
316,224,117948,1,0
372,148,118163,6,0,B|384:100|428:72,1,96,8|0
412,236,118591,2,0,B|447:270|449:322,1,96
316,224,119020,2,0,B|268:237|222:213,1,96,8|0
152,100,119449,5,0
148,80,119556,1,0
36,156,119770,5,0
40,176,119877,1,0
44,196,119984,1,0
48,216,120092,1,0
80,328,120306,6,0,B|128:312|176:308|224:320|264:348,1,192,4|8
356,320,120949,1,0
448,288,121163,2,0,B|443:240|467:193,1,96
408,72,121592,2,0,B|412:119|388:166,1,96,8|0
296,184,122021,6,0,B|224:172|224:172|168:128,1,144
160,112,122449,2,0,B|152:64|176:20,1,96,8|0
248,84,122878,1,0
72,52,123092,1,0
248,84,123306,1,8
72,52,123521,1,0
248,84,123735,6,0,B|276:44|328:28|380:32|424:52,1,192,0|8
264,300,124592,2,0,B|236:340|184:356|132:352|88:332,1,192,0|8
394,209,125450,6,0,B|434:237|446:293|442:337,2,144,0|8|0
292,196,126307,1,8
272,93,126521,1,0
362,44,126736,1,8
438,114,126950,1,0
292,196,127164,6,0,B|248:216|196:204,1,96,4|0
128,128,127593,1,8
128,128,127807,2,0,B|80:140|56:192|72:264|132:276,1,192
124,274,128450,2,0,B|76:296|76:352,1,96,8|0
192,368,128879,5,0
300,332,129093,1,0
416,348,129308,1,8
416,348,129522,2,0,B|424:252,1,96
384,164,129951,1,0
384,164,130058,1,0
384,164,130165,2,0,B|376:68,1,96,8|0
195,62,130593,5,0
180,229,130808,1,0
263,110,131022,1,0
111,181,131236,1,0
255,192,131451,1,0
118,97,131665,1,0
180,229,131879,1,0
195,62,132094,1,0
187,146,132308,1,0
164,340,134023,6,0,B|224:352|256:304|256:304|288:352|348:340,1,211.200006445313,4|8
196,164,134666,2,0,B|168:212|188:268,1,105.600003222656
324,265,135094,1,0
324,265,135201,1,0
324,265,135309,2,0,B|344:212|316:164,1,105.600003222656,8|0
256,76,135737,5,2
152,48,135952,1,0
48,72,136166,2,0,B|28:120|36:176,1,105.600003222656,8|0
64,276,136595,1,0
156,328,136809,1,0
156,328,136916,1,0
156,328,137023,2,0,B|200:300|200:300|256:296,1,105.600003222656,8|0
376,336,137452,6,0,B|412:332|444:296|444:248|424:208,1,158.400004833985,2|0
424,192,137880,2,0,B|444:88,1,105.600003222656,8|0
316,36,138309,2,0,B|296:140,1,105.600003222656,0|0
200,180,138738,1,8
100,152,138952,5,0
100,152,139059,1,0
100,152,139166,2,0,B|60:184|48:248|72:300,1,158.400004833985,2|0
84,312,139595,2,0,B|136:300|188:316,1,105.600003222656,8|0
312,344,140024,1,2
436,332,140238,2,0,B|448:280|444:224,1,105.600003222656,0|8
424,92,140667,5,8
424,92,140774,1,8
424,92,140881,2,0,B|320:100|320:100|224:52,1,211.200006445313,4|0
120,68,141524,1,0
64,156,141738,2,0,B|48:208|68:260,1,105.600003222656
67,259,142060,1,0
67,259,142167,1,8
172,332,142381,5,0
200,208,142596,1,2
244,324,142810,1,0
272,200,143024,1,8
372,280,143239,1,0
404,272,143346,1,0
432,256,143453,1,0
452,232,143560,1,0
460,200,143667,2,0,B|468:96,2,105.600003222656,0|8|0
356,128,144310,6,0,B|356:72|316:32,1,105.600003222656,2|0
200,80,144739,2,0,B|200:136|240:176,1,105.600003222656,8|0
239,175,145168,6,0,B|183:175|143:215,1,105.600003222656
191,331,145597,2,0,B|247:331|287:291,1,105.600003222656,8|0
392,204,146025,6,0,B|448:208|472:252|472:252|456:192|496:144,1,211.200006445313,2|8
424,52,146668,1,0
424,52,146775,1,0
424,52,146882,1,2
268,36,147096,5,8
112,72,147311,1,8
56,220,147525,1,8
56,220,147632,1,8
56,220,147739,2,0,B|60:276|96:316,1,105.600003222656,4|0
200,336,148168,5,8
228,236,148382,1,0
304,312,148597,2,0,B|348:284|348:284|400:280,1,105.600003222656
420,272,148918,1,0
432,256,149025,2,0,B|444:152,1,105.600003222656,8|0
328,80,149454,2,0,B|340:184,1,105.600003222656,2|0
240,152,149883,2,0,B|200:120|144:112,1,105.600003222656,8|0
124,108,150204,2,0,B|108:88|108:56,3,52.8000016113282,0|2|0|0
12,128,150740,5,10
32,252,150954,1,0
140,320,151169,2,0,B|184:288|240:288|292:304,1,158.400004833985,4|0
312,308,151597,2,0,B|340:264|332:204,1,105.600003222656,10|0
304,104,152026,1,2
408,80,152240,1,0
436,184,152455,1,10
332,206,152669,1,0
304,104,152883,6,0,B|228:88|228:88|168:36,2,158.400004833985,2|8|0
236,184,153740,2,0,B|184:172|184:172|140:132,1,105.600003222656,8|0
64,72,154169,1,8
44,176,154383,5,8
40,196,154491,1,8
36,216,154598,2,0,B|64:268|56:320,1,105.600003222656,4|0
180,344,155026,1,8
180,344,155241,2,0,B|238:361|274:316|274:316|302:366|363:360,1,211.200006445313
464,320,155884,6,0,B|476:268|452:216,1,105.600003222656,8|0
452,216,156205,1,0
452,216,156312,1,2
348,204,156527,1,0
256,52,156741,2,0,B|256:156,1,105.600003222656,8|0
59,216,157170,5,2
164,204,157385,1,0
256,52,157599,2,0,B|256:156,1,105.600003222656,8|0
256,336,158027,6,0,B|200:340|156:308,1,105.600003222656
256,336,158456,2,0,B|312:340|356:308,1,105.600003222656,8|0
256,232,158884,1,0
256,120,159099,1,0
256,232,159313,1,8
256,120,159528,1,0
356,92,159742,5,0
376,84,159849,1,0
396,76,159956,1,0
156,148,160170,5,8
136,140,160277,1,0
116,132,160384,1,0
360,204,160599,5,8
380,196,160706,1,0
400,188,160813,1,8
156,252,161027,5,8
136,244,161134,1,0
116,236,161241,1,8
96,228,161349,1,0
76,220,161456,1,4
44,40,174530,5,8
48,60,174637,1,8
52,80,174744,1,8
56,100,174851,1,8
60,120,174959,1,8
64,140,175066,1,8
68,160,175173,6,0,B|124:152|152:200,1,96,4|0
164,276,175816,1,0
241,285,176030,1,0
275,216,176245,1,0
219,160,176459,1,0
150,196,176673,1,0
275,216,176887,6,0,B|328:216|356:264|356:264|360:208|388:168|432:148|484:160,1,288
484,160,178602,6,0,B|464:124|476:84,1,72.0000027465821,4|0
380,140,179031,2,0,B|380:98|411:70,1,72.0000027465821,8|0
300,68,179459,2,0,B|321:32|361:23,2,72.0000027465821,8|0|8
216,88,180102,1,0
216,88,180317,2,0,B|148:76|148:76|88:32,2,144.000005493164,8|8|8
220,176,181388,1,0
160,240,181603,2,0,B|124:232|88:252,1,72.0000027465821,8|0
68,336,182031,6,0,B|144:352|208:316,1,144.000005493164,4|8
292,300,182674,2,0,B|308:372,1,72.0000027465821,0|8
376,288,183103,2,0,B|360:216,1,72.0000027465821,0|8
456,268,183532,5,0
456,268,183746,2,0,B|492:244|496:180|480:136,1,144.000005493164,12|8
392,124,184389,1,0
392,124,184603,2,0,B|360:142|323:140,1,72.0000027465821,8|0
301,55,185032,2,0,B|332:37|369:38,1,72.0000027465821,8|0
456,52,185460,1,4
256,192,185568,12,8,188461
88,60,188890,6,0,B|60:84|49:124|64:168|100:184,1,144.000005493164,4|0
136,120,189533,2,0,B|168:136|185:180|172:220|140:244,1,144.000005493164,8|0
176,312,190176,2,0,B|204:288|244:296,1,72.0000027465821,8|0
328,272,190604,5,0
332,200,190819,1,0
404,204,191033,1,0
400,276,191248,1,8
332,200,191461,2,0,B|336:128,1,72.0000027465821
400,276,191890,2,0,B|396:348,1,72.0000027465821,8|0
488,232,192319,6,0,B|492:180|492:180|472:148|472:148|476:96,1,144.000005493164,4|0
392,68,192962,2,0,B|316:80|252:40,1,144.000005493164,8|0
168,52,193605,1,8
220,120,193819,1,0
136,132,194033,2,0,B|132:168|112:200,1,72.0000027465821
172,280,194462,2,0,B|176:244|196:212,1,72.0000027465821,0|8
376,132,194891,2,0,B|380:168|400:200,1,72.0000027465821
340,280,195320,2,0,B|336:244|316:212,1,72.0000027465821,8|0
256,44,195748,5,4
112,112,196177,1,0
112,112,196391,1,8
112,272,196820,1,0
112,272,197034,1,8
256,340,197463,5,4
400,272,197892,1,0
400,272,198106,1,8
400,112,198535,1,0
400,112,198749,1,8
256,44,199177,5,4
256,192,199284,12,8,202178
241,183,202606,6,0,B|224:150|231:111,1,72.0000027465821,4|0
264,177,203035,2,0,B|297:160|336:167,1,72.0000027465821
270,200,203464,2,0,B|287:233|280:272,1,72.0000027465821
247,206,203893,2,0,B|214:223|175:216,1,72.0000027465821
132,120,204321,6,0,B|140:48,1,72.0000027465821
328,68,204750,2,0,B|400:76,1,72.0000027465821
380,264,205178,2,0,B|372:336,1,72.0000027465821
184,316,205607,2,0,B|112:308,1,72.0000027465821
112,76,206036,6,0,B|184:68,1,72.0000027465821
140,336,206464,2,0,B|132:264,1,72.0000027465821
400,308,206894,2,0,B|328:316,1,72.0000027465821
372,48,207322,2,0,B|380:120,1,72.0000027465821
256,192,207750,5,0
256,220,208179,1,8
256,248,208607,1,8
256,276,209036,1,8
80,244,209465,5,0
56,28,209679,1,0
256,304,210108,2,0,B|256:328,4,24
432,244,211179,5,0
456,28,211394,1,0
256,304,211822,2,0,B|256:328,4,24
112,208,212894,6,0,B|328:256|392:200|392:88|360:16|256:-16|152:16|120:88|120:200|184:256|400:208,1,840,4|0
414,201,214608,1,0
429,189,214823,1,0
438,172,215037,1,0
442,153,215251,1,0
441,133,215466,1,0
456,336,215680,5,0
436,332,215787,1,0
416,328,215894,1,0
396,324,216002,1,0
376,320,216109,1,0
356,316,216216,1,0
336,312,216323,6,0,B|284:340|284:340|228:336,1,115.199996484375,4|0
196,200,216752,2,0,B|248:172|248:172|304:176,1,115.199996484375,8|0
132,292,217180,2,0,B|68:288|48:224,1,115.199996484375
48,224,217502,1,0
48,224,217609,1,8
56,108,217823,5,0
160,56,218038,2,0,B|216:40|276:56,1,115.199996484375,2|0
384,92,218466,1,8
492,136,218681,1,0
472,24,218895,1,0
404,204,219109,1,0
404,204,219216,1,0
404,204,219324,2,0,B|384:256|400:320,1,115.199996484375,8|0
288,348,219752,6,0,B|116:340,1,172.799994726563,2|0
92,336,220181,2,0,B|40:316|40:316|8:264,1,115.199996484375,8|0
112,216,220610,2,0,B|76:172|76:172|75:111,1,115.199996484375
188,136,221038,2,0,B|179:80|179:80|208:27,1,115.199996484375,8|0
320,60,221467,5,2
436,48,221681,1,0
304,92,221896,1,8
458,76,222110,1,0
484,212,222324,1,2
484,212,222431,1,0
484,212,222538,2,0,B|484:276|436:316,1,115.199996484375,8|8
304,340,222967,5,8
304,340,223074,1,8
304,340,223181,2,0,B|208:268|88:276,1,230.39999296875,4|8
48,168,223824,2,0,B|36:52,1,115.199996484375
144,156,224253,1,0
144,156,224360,1,0
144,156,224467,2,0,B|132:40,1,115.199996484375,8|0
284,48,224896,5,2
400,60,225110,1,0
388,176,225325,1,8
272,164,225539,1,0
264,192,225646,1,0
264,220,225753,1,2
272,248,225860,1,0
292,268,225968,2,0,B|348:284|372:344,2,115.199996484375,0|10|0
132,336,226611,6,0,B|84:304|84:304|64:252,1,115.199996484375,6|0
172,76,227039,2,0,B|160:192,1,115.199996484375,10|0
380,336,227468,2,0,B|428:304|428:304|448:252,1,115.199996484375,2|0
340,76,227896,2,0,B|352:192,1,115.199996484375,10|0
256,340,228325,6,0,B|256:168,2,172.799994726563,2|8|0
140,332,229183,1,8
80,236,229397,2,0,B|68:208|76:176,2,57.5999982421876,0|0|8
140,36,229825,1,8
156,52,229933,1,8
164,72,230040,2,0,B|220:56|220:56|264:100|328:84,1,172.799994726563,4|0
325,84,230468,1,8
428,140,230683,6,0,B|460:252,1,115.199996484375
344,244,231111,1,0
344,244,231219,1,0
344,244,231326,2,0,B|338:360,1,115.199996484375,8|0
224,344,231754,5,2
160,208,231969,1,0
80,332,232183,1,8
224,344,232397,1,0
160,208,232612,2,0,B|132:156|68:140,1,115.199996484375,2|0
64,24,233040,2,0,B|92:76|156:92,1,115.199996484375,8|0
316,108,233469,5,0
420,60,233683,1,0
300,108,233898,5,8
436,60,234112,1,0
284,108,234326,5,0
452,60,234540,1,0
268,108,234755,5,8
468,60,234969,1,0
428,228,235184,5,0
404,232,235291,1,0
380,236,235398,1,0
356,240,235505,1,0
332,244,235612,1,0
308,248,235719,1,0
284,252,235827,1,0
260,256,235934,1,0
244,272,236041,5,0
220,276,236148,1,0
196,280,236255,1,0
172,284,236362,1,0
148,288,236470,1,0
124,292,236577,1,0
104,312,236684,6,0,B|76:316,4,28.7999991210938,0|0|0|0|4
256,192,237005,12,8,243328
104,60,243757,6,0,B|24:156|40:296,1,249.599988574219,4|8
164,276,244400,2,0,B|204:224|196:156,1,124.79999428711
280,68,244828,1,0
280,68,244935,1,0
280,68,245042,2,0,B|336:44|336:44|400:48,1,124.79999428711,8|0
472,148,245471,5,2
428,264,245685,2,0,B|372:288|372:288|308:284,1,124.79999428711,0|8
228,188,246114,1,0
200,164,246221,1,0
164,148,246328,1,0
128,148,246436,1,0
92,156,246543,2,0,B|28:144|16:68,2,124.79999428711,0|8|0
80,320,247186,6,0,B|204:332,1,124.79999428711,4|0
432,320,247614,2,0,B|308:332,1,124.79999428711,8|0
132,252,248043,6,0,B|256:264,1,124.79999428711
380,252,248472,2,0,B|256:264,1,124.79999428711,8|0
256,104,248900,1,0
376,72,249115,2,0,B|408:68|428:40,2,62.3999971435548,0|0|0
464,160,249543,2,0,B|432:174|402:161,2,62.3999971435548,0|0|0
256,104,249972,5,0
224,100,250079,1,0
192,96,250186,1,0
160,92,250293,1,0
128,88,250401,1,0
96,84,250508,1,0
64,80,250615,6,0,B|32:132|32:200,1,124.79999428711,4|0
176,336,251044,2,0,B|208:284|208:216,2,124.79999428711,8|0|0
324,348,251687,1,0
324,348,251794,1,0
324,348,251901,2,0,B|372:308|372:308|432:300,1,124.79999428711,8|0
436,176,252330,1,2
312,164,252544,1,0
320,40,252758,1,8
444,52,252972,1,0
436,176,253187,6,0,B|188:152,1,249.599988574219,2|10
132,40,253830,1,0
60,144,254044,2,0,B|32:264,1,124.79999428711,4|0
144,364,254473,2,0,B|172:244,1,124.79999428711,10|0
308,176,254901,5,2
340,180,255009,1,0
372,184,255116,1,0
416,328,255330,1,10
384,324,255437,1,0
352,320,255545,1,0
484,112,255759,6,0,B|492:176|476:236,1,124.79999428711,2|0
224,140,256187,2,0,B|216:76|232:16,1,124.79999428711,8|0
352,128,256616,1,0
228,316,256830,5,8
184,314,256937,1,0
142,300,257045,1,8
107,273,257152,1,0
87,233,257259,1,0
82,189,257366,1,0
86,145,257473,6,0,B|88:80|28:40,1,124.79999428711,4|0
28,40,257795,1,0
28,40,257902,1,8
220,76,258116,2,0,B|284:76|328:32|328:32|384:68|456:56,2,249.599988574219,0|8|8
340,164,259188,6,0,B|356:292,1,124.79999428711,2|0
172,164,259617,2,0,B|156:292,1,124.79999428711,8|0
452,220,260045,2,0,B|468:348,1,124.79999428711,2|0
60,220,260474,2,0,B|44:348,1,124.79999428711,8|0
256,304,260902,5,8
256,80,261117,1,0
256,312,261331,5,8
256,72,261546,1,0
256,320,261760,5,8
256,64,261975,1,0
256,328,262188,5,8
256,56,262403,1,0
256,192,262617,5,4
