osu file format v13

[General]
AudioFilename: 09 Stay Stay Stay.mp3
AudioLeadIn: 1004
PreviewTime: 57622
Countdown: 0
SampleSet: Soft
StackLeniency: 0.7
Mode: 0
LetterboxInBreaks: 0
WidescreenStoryboard: 0

[Editor]
Bookmarks: 9772,19372,38722,124972,125572,126172,126772,127372,127972,128572,129172,134572,135172,135772,136372,136972,137572,138172,138772,139372,139972,140572,141172,141772,142372,142972,143572,144172,153772,160372
DistanceSpacing: 1.2
BeatDivisor: 4
GridSize: 4
TimelineZoom: 1

[Metadata]
Title:Stay Stay Stay
TitleUnicode:Stay Stay Stay
Artist:Taylor Swift
ArtistUnicode:Taylor Swift
Creator:Lissette
Version:Walking
Source:
Tags:red
BeatmapID:330202
BeatmapSetID:131054

[Difficulty]
HPDrainRate:5
CircleSize:3
OverallDifficulty:4
ApproachRate:5
SliderMultiplier:1.4
SliderTickRate:2

[Events]
//Background and Video events
0,0,"bg.jpg",0,0
//Break Periods
2,124972,128572
2,134572,142972
//Storyboard Layer 0 (Background)
//Storyboard Layer 1 (Fail)
//Storyboard Layer 2 (Pass)
//Storyboard Layer 3 (Foreground)
//Storyboard Sound Samples

[TimingPoints]
172,600,4,2,2,50,1,0
13972,-100,4,2,2,40,0,0
14122,-100,4,2,2,50,0,0
18772,-100,4,2,2,40,0,0
18922,-100,4,2,2,50,0,0
56572,-100,4,2,2,40,0,0
56722,-100,4,2,2,50,0,0
57772,-100,4,2,1,50,0,1
76972,-100,4,2,2,50,0,0
95572,-100,4,2,2,30,0,0
95722,-100,4,2,2,50,0,0
96172,-100,4,2,1,50,0,1
115372,-100,4,2,1,50,0,0
119572,-100,4,2,1,40,0,0
119722,-100,4,2,1,50,0,0
124372,-100,4,2,1,40,0,0
124522,-100,4,2,2,50,0,0
129772,-100,4,2,2,40,0,0
129922,-100,4,2,2,50,0,0
133972,-100,4,2,2,30,0,0
134122,-100,4,2,2,50,0,0
144172,-100,4,2,1,40,0,0
149572,-90.9090909090909,4,2,1,40,0,0
150172,-100,4,2,1,40,0,0
162772,-100,4,2,2,50,0,0
163372,-100,4,2,1,50,0,1
182422,-100,4,2,1,50,0,0
182572,-100,4,2,1,50,0,1
196972,-100,4,2,1,50,0,0
197122,-100,4,2,1,5,0,0

[Colours]
Combo1 : 255,0,128
Combo2 : 255,117,186
Combo3 : 255,213,234

[HitObjects]
72,144,9772,6,0,P|88:108|116:88,1,70,4|8,0:0|0:0,0:0:0:0:
192,72,10372,2,0,P|224:80|252:104,1,70,2|8,0:0|0:0,0:0:0:0:
268,188,10972,2,0,P|252:228|232:244,1,70,2|8,0:0|0:0,0:0:0:0:
152,264,11572,2,0,P|120:252|96:216,1,70,2|8,0:0|0:0,0:0:0:0:
72,144,12172,6,0,P|104:80|184:60,1,140,2|0,0:0|0:0,0:0:0:0:
248,64,13072,1,8,0:0:0:0:
332,72,13372,2,0,P|368:116|460:116,1,140,2|4,0:0|0:0,0:0:0:0:
512,280,14572,6,0,P|484:320|448:328,1,70,2|8,0:0|0:0,0:0:0:0:
436,248,15172,2,0,P|396:228|352:248,1,70,2|8,0:0|0:0,0:0:0:0:
380,316,15772,2,0,P|340:332|296:308,1,70,2|8,0:0|0:0,0:0:0:0:
276,252,16372,2,0,P|240:288|236:320,1,70,2|8,0:0|0:0,0:0:0:0:
156,332,16972,6,0,P|160:264|204:200,1,140,2|0,0:0|0:0,0:0:0:0:
272,164,17872,1,8,0:0:0:0:
348,128,18172,2,0,P|385:70|390:0,1,140,2|4,0:0|0:0,0:0:0:0:
140,12,19672,5,0,0:0:0:0:
88,80,19972,2,0,L|112:160,1,70,0|0,0:0|0:0,0:0:0:0:
76,224,20572,1,2,0:0:0:0:
28,292,20872,2,0,P|56:304|120:296,1,70,0|0,0:0|0:0,0:0:0:0:
180,316,21472,1,0,0:0:0:0:
256,276,21772,6,0,L|420:296,1,140,2|0,0:0|0:0,0:0:0:0:
460,140,22972,2,0,L|296:120,2,140,2|0|2,0:0|0:0|0:0,0:0:0:0:
456,224,24472,5,0,0:0:0:0:
420,300,24772,2,0,P|384:324|328:312,1,70,0|0,0:0|0:0,0:0:0:0:
276,316,25372,1,2,0:0:0:0:
192,304,25672,2,0,L|112:324,1,70,0|0,0:0|0:0,0:0:0:0:
40,304,26272,1,0,0:0:0:0:
96,240,26572,6,0,L|76:88,1,140,2|0,0:0|0:0,0:0:0:0:
232,40,27772,2,0,L|252:192,2,140,2|0|2,0:0|0:0|0:0,0:0:0:0:
148,44,29272,5,0,0:0:0:0:
68,76,29572,1,0,0:0:0:0:
36,152,29872,1,0,0:0:0:0:
56,232,30172,2,0,L|16:308,2,70,2|0|0,0:0|0:0|0:0,0:0:0:0:
132,268,31072,1,0,0:0:0:0:
212,244,31372,6,0,P|284:220|352:248,1,140,2|0,0:0|0:0,0:0:0:0:
444,108,32572,2,0,P|372:132|304:104,1,140,2|0,0:0|0:0,0:0:0:0:
156,52,33772,6,0,P|104:52|76:80,1,70,2|0,0:0|0:0,0:0:0:0:
132,136,34372,2,0,P|96:160|84:200,1,70,0|0,0:0|0:0,0:0:0:0:
164,216,34972,2,0,P|148:252|160:296,1,70,2|0,0:0|0:0,0:0:0:0:
236,260,35572,2,0,P|244:296|272:320,1,70,0|0,0:0|0:0,0:0:0:0:
320,252,36172,1,0,0:0:0:0:
320,252,37372,5,2,0:0:0:0:
320,252,38572,5,2,0:0:0:0:
380,312,38872,1,8,0:0:0:0:
464,308,39172,2,0,L|476:228,1,70,0|8,0:0|0:0,0:0:0:0:
492,156,39772,1,2,0:0:0:0:
508,72,40072,2,0,L|420:72,1,70,8|0,0:0|0:0,0:0:0:0:
376,128,40672,1,8,0:0:0:0:
296,108,40972,6,0,P|232:80|152:124,1,140,2|0,0:0|0:0,0:0:0:0:
160,188,41872,1,8,0:0:0:0:
156,272,42172,2,0,P|220:300|300:256,1,140,2|0,0:0|0:0,0:0:0:0:
448,256,43372,6,0,P|456:208|444:176,1,70,2|8,0:0|0:0,0:0:0:0:
424,108,43972,2,0,P|396:76|360:72,1,70,0|8,0:0|0:0,0:0:0:0:
288,64,44572,2,0,P|248:64|220:92,1,70,2|8,0:0|0:0,0:0:0:0:
176,152,45172,2,0,P|156:192|172:232,1,70,0|8,0:0|0:0,0:0:0:0:
208,284,45772,6,0,P|136:296|84:244,1,140,2|0,0:0|0:0,0:0:0:0:
68,172,46672,1,8,0:0:0:0:
96,92,46972,2,0,P|200:60|280:136,1,210,2|8,0:0|0:0,0:0:0:0:
356,116,48172,6,0,L|440:104,1,70,2|8,0:0|0:0,0:0:0:0:
420,192,48772,2,0,L|336:204,1,70,0|8,0:0|0:0,0:0:0:0:
380,280,49372,2,0,L|464:268,1,70,2|8,0:0|0:0,0:0:0:0:
444,356,49972,2,0,L|360:368,1,70,0|8,0:0|0:0,0:0:0:0:
300,324,50572,6,0,P|232:292|160:320,1,140,2|0,0:0|0:0,0:0:0:0:
92,340,51472,1,8,0:0:0:0:
52,264,51772,2,0,P|35:197|66:136,1,140,2|0,0:0|0:0,0:0:0:0:
148,112,52672,1,8,0:0:0:0:
232,96,52972,5,2,0:0:0:0:
292,152,53272,1,8,0:0:0:0:
268,232,53572,1,0,0:0:0:0:
188,256,53872,2,0,L|184:340,1,70,8|2,0:0|0:0,0:0:0:0:
268,332,54472,2,0,P|364:288|380:172,1,210,8|2,0:0|0:0,0:0:0:0:
92,36,56572,5,4,0:0:0:0:
36,196,57172,1,0,3:0:0:0:
140,328,57772,5,4,0:1:0:0:
140,328,58372,5,0,0:0:0:0:
140,328,58972,6,0,P|200:288|292:308,1,140,2|2,0:0|0:0,0:0:0:0:
432,312,60172,6,0,L|460:232,1,70,2|8,0:0|0:0,0:0:0:0:
452,164,60772,2,0,L|416:88,1,70,0|8,0:0|0:0,0:0:0:0:
352,56,61372,2,0,L|276:48,1,70,2|8,0:0|0:0,0:0:0:0:
200,56,61972,2,0,L|124:96,1,70,4|8,0:0|0:0,0:0:0:0:
112,168,62572,5,2,0:0:0:0:
112,168,63172,5,0,0:0:0:0:
112,168,63772,6,0,P|188:164|248:224,1,140,2|2,0:0|0:0,0:0:0:0:
136,336,64972,6,0,L|216:356,1,70,2|8,0:0|0:0,0:0:0:0:
268,300,65572,1,0,0:0:0:0:
352,308,65872,1,8,0:0:0:0:
368,224,66172,2,0,L|356:140,1,70,2|8,0:0|0:0,0:0:0:0:
384,76,66772,1,4,0:0:0:0:
468,84,67072,1,8,0:0:0:0:
484,176,67372,5,2,0:0:0:0:
484,176,67972,5,0,0:0:0:0:
484,176,68572,6,0,P|492:252|452:320,1,140,2|2,0:0|0:0,0:0:0:0:
300,324,69772,5,2,0:0:0:0:
220,296,70072,1,8,0:0:0:0:
144,332,70372,2,0,P|136:284|156:248,1,70,0|8,0:0|0:0,0:0:0:0:
204,204,70972,1,2,0:0:0:0:
284,232,71272,1,8,0:0:0:0:
364,212,71572,2,0,P|344:172|296:156,1,70,4|8,0:0|0:0,0:0:0:0:
312,76,72172,6,0,P|240:52|160:68,1,140,2|2,0:0|0:0,0:0:0:0:
164,228,73372,2,0,P|236:252|316:236,1,140,2|2,0:0|0:0,0:0:0:0:
312,76,74572,2,0,P|240:52|160:68,1,140,2|0,0:0|0:0,0:0:0:0:
164,228,75772,2,0,P|236:252|316:236,1,140,2|4,0:0|0:0,0:0:0:0:
460,196,76972,6,0,L|528:256,2,70,2|8|0,0:0|0:0|0:0,0:0:0:0:
452,112,77872,1,8,0:0:0:0:
388,60,78172,2,0,L|300:60,1,70,2|8,0:0|0:0,0:0:0:0:
260,124,78772,2,0,L|172:124,1,70,0|8,0:0|0:0,0:0:0:0:
108,108,79372,6,0,P|80:176|116:248,1,140,2|0,0:0|0:0,0:0:0:0:
180,264,80272,1,8,0:0:0:0:
224,336,80572,2,0,P|292:364|364:328,1,140,2|0,0:0|0:0,0:0:0:0:
388,264,81472,1,8,0:0:0:0:
456,216,81772,6,0,L|492:128,1,70,2|8,0:0|0:0,0:0:0:0:
416,96,82372,2,0,L|389:160,1,70,0|8,0:0|0:0,0:0:0:0:
308,144,82972,1,2,0:0:0:0:
228,120,83272,1,8,0:0:0:0:
180,188,83572,2,0,L|256:216,1,70,0|8,0:0|0:0,0:0:0:0:
324,240,84172,6,0,P|276:292|196:280,1,140,2|0,0:0|0:0,0:0:0:0:
132,260,85072,1,8,0:0:0:0:
92,184,85372,2,0,P|104:84|208:36,1,210,2|8,0:0|0:0,0:0:0:0:
272,68,86572,5,2,0:0:0:0:
344,108,86872,2,0,L|432:116,2,70,8|0|8,0:0|0:0|0:0,0:0:0:0:
272,152,87772,2,0,P|240:172|236:220,1,70,2|8,0:0|0:0,0:0:0:0:
236,284,88372,2,0,P|200:280|168:256,1,70,0|8,0:0|0:0,0:0:0:0:
128,188,88972,6,0,P|128:112|200:56,1,140,2|0,0:0|0:0,0:0:0:0:
252,52,89872,1,8,0:0:0:0:
312,112,90172,2,0,P|312:188|240:244,1,140,2|0,0:0|0:0,0:0:0:0:
188,252,91072,1,8,0:0:0:0:
136,316,91372,6,0,P|172:336|224:320,1,70,2|8,0:0|0:0,0:0:0:0:
280,316,91972,2,0,P|312:296|324:256,1,70,0|8,0:0|0:0,0:0:0:0:
328,184,92572,2,0,P|324:144|300:124,1,70,2|8,0:0|0:0,0:0:0:0:
228,84,93172,2,0,P|184:72|148:96,1,70,0|8,0:0|0:0,0:0:0:0:
116,152,93772,6,0,L|96:316,1,140,2|0,0:0|0:0,0:0:0:0:
264,328,94972,2,0,L|280:189,1,140,2|8,0:0|0:3,0:0:0:0:
292,108,95872,1,8,0:0:0:0:
372,80,96172,5,4,0:1:0:0:
372,80,96772,5,0,0:0:0:0:
372,80,97372,6,0,P|440:92|472:152,1,140,2|2,0:0|0:0,0:0:0:0:
448,232,98272,1,8,0:0:0:0:
488,304,98572,6,0,P|448:316|407:296,1,70,2|8,0:0|0:0,0:0:0:0:
356,260,99172,2,0,P|328:248|280:276,1,70,0|8,0:0|0:0,0:0:0:0:
240,327,99772,2,0,P|208:341|174:332,1,70,2|8,0:0|0:0,0:0:0:0:
124,268,100372,2,0,P|84:264|44:296,1,70,4|8,0:0|0:0,0:0:0:0:
28,196,100972,5,2,0:0:0:0:
28,196,101572,5,0,0:0:0:0:
28,196,102172,6,0,P|32:116|104:80,1,140,2|2,0:0|0:0,0:0:0:0:
156,104,103072,1,8,0:0:0:0:
232,64,103372,6,0,L|320:56,1,70,2|8,0:0|0:0,0:0:0:0:
316,140,103972,1,0,0:0:0:0:
400,136,104272,1,8,0:0:0:0:
484,132,104572,2,0,L|488:224,1,70,2|8,0:0|0:0,0:0:0:0:
488,284,105172,1,4,0:0:0:0:
404,288,105472,1,8,0:0:0:0:
320,292,105772,5,2,0:0:0:0:
320,292,106372,5,0,0:0:0:0:
320,292,106972,6,0,P|236:280|224:208,1,140,2|2,0:0|0:0,0:0:0:0:
244,156,107872,1,8,0:0:0:0:
248,72,108172,6,0,P|208:80|176:108,1,70,2|8,0:0|0:0,0:0:0:0:
156,176,108772,1,0,0:0:0:0:
72,192,109072,1,8,0:0:0:0:
8,248,109372,2,0,P|36:272|76:272,1,70,2|8,0:0|0:0,0:0:0:0:
152,268,109972,1,4,0:0:0:0:
184,348,110272,1,8,0:0:0:0:
248,296,110572,6,0,L|416:312,1,140,2|2,0:0|0:0,0:0:0:0:
387,309,111472,1,8,0:0:0:0:
396,224,111772,6,0,L|228:208,1,140,2|2,0:0|0:0,0:0:0:0:
257,211,112672,1,8,0:0:0:0:
264,128,112972,6,0,L|432:144,1,140,2|0,0:0|0:0,0:0:0:0:
403,141,113872,1,8,0:0:0:0:
412,56,114172,6,0,L|244:40,1,140,2|4,0:0|0:0,0:0:0:0:
273,43,115072,1,8,0:0:0:0:
188,32,115372,5,2,0:0:0:0:
68,152,115972,1,2,0:0:0:0:
184,272,116572,1,2,0:0:0:0:
308,160,117172,1,2,0:0:0:0:
468,116,117772,6,0,P|484:192|428:256,1,140,2|0,0:0|0:0,0:0:0:0:
308,160,118972,2,0,P|292:84|348:20,1,140,2|4,0:0|0:0,0:0:0:0:
468,116,120172,5,2,0:0:0:0:
508,280,120772,1,2,0:0:0:0:
344,312,121372,1,2,0:0:0:0:
304,148,121972,1,2,0:0:0:0:
148,84,122572,6,0,P|124:160|172:228,1,140,2|0,0:0|0:0,0:0:0:0:
304,148,123772,2,0,P|328:72|280:4,1,140,2|4,0:0|0:0,0:0:0:0:
96,216,129772,6,0,P|100:264|128:284,1,70,4|8,0:0|0:0,0:0:0:0:
188,316,130372,2,0,P|236:312|256:284,1,70,0|8,0:0|0:0,0:0:0:0:
292,224,130972,2,0,P|288:176|260:156,1,70,2|8,0:0|0:0,0:0:0:0:
200,124,131572,2,0,P|152:128|132:156,1,70,0|8,0:0|0:0,0:0:0:0:
96,216,132172,6,0,P|112:280|184:308,1,140,2|0,0:0|0:0,0:0:0:0:
308,208,133372,2,0,P|292:144|220:116,1,140,2|8,0:0|0:3,0:0:0:0:
32,168,144172,5,2,0:0:0:0:
172,72,144772,1,0,0:0:0:0:
300,180,145372,1,2,0:0:0:0:
436,84,145972,1,2,0:0:0:0:
488,244,146572,6,0,P|488:284|460:308,1,70,2|0,0:0|0:0,0:0:0:0:
388,324,147172,2,0,P|352:312|320:340,1,70,0|0,0:0|0:0,0:0:0:0:
244,336,147772,2,0,P|164:328|112:272,1,140,2|0,0:0|0:0,0:0:0:0:
84,216,148672,2,0,P|80:104|168:28,1,210,0|0,0:0|0:0,0:0:0:0:
312,24,150172,1,2,0:0:0:0:
220,164,150772,1,2,0:0:0:0:
316,304,151372,6,0,L|412:332,1,70,2|0,3:0|0:0,0:0:0:0:
428,252,151972,2,0,L|360:232,1,70,0|0,3:0|0:0,0:0:0:0:
364,148,152572,2,0,L|460:176,1,70,2|0,3:0|0:0,0:0:0:0:
476,96,153172,2,0,L|408:76,1,70,0|0,3:0|0:0,0:0:0:0:
328,60,153772,5,2,0:0:0:0:
248,80,154072,1,8,0:0:0:0:
168,60,154372,2,0,L|76:88,1,70,0|8,0:0|0:0,0:0:0:0:
24,52,154972,2,0,P|28:120|104:164,1,140,2|2,0:0|0:0,0:0:0:0:
164,148,155872,1,8,0:0:0:0:
240,188,156172,6,0,L|232:272,1,70,2|8,0:0|0:0,0:0:0:0:
192,332,156772,1,0,0:0:0:0:
276,328,157072,1,8,0:0:0:0:
360,344,157372,2,0,L|448:364,1,70,2|8,0:0|0:0,0:0:0:0:
508,328,157972,1,0,0:0:0:0:
444,272,158272,1,8,0:0:0:0:
436,188,158572,6,0,L|424:16,1,140,2|2,0:0|0:0,0:0:0:0:
426,48,159472,1,8,0:0:0:0:
344,52,159772,6,0,L|356:224,1,140,2|2,0:0|0:0,0:0:0:0:
353,191,160672,1,8,0:0:0:0:
268,200,160972,6,0,L|256:28,1,140,2|0,0:0|3:0,0:0:0:0:
258,60,161872,1,8,0:0:0:0:
176,64,162172,6,0,L|188:236,1,140,0|8,3:0|0:0,0:0:0:0:
28,264,163372,5,4,0:1:0:0:
28,264,163972,5,0,0:0:0:0:
28,264,164572,6,0,P|58:332|135:355,1,140,2|2,0:0|0:0,0:0:0:0:
192,324,165472,1,8,0:0:0:0:
268,360,165772,6,0,L|356:344,1,70,2|8,0:0|0:0,0:0:0:0:
404,296,166372,2,0,L|448:220,1,70,0|8,0:0|0:0,0:0:0:0:
452,152,166972,2,0,L|428:80,1,70,2|8,0:0|0:0,0:0:0:0:
364,32,167572,2,0,L|268:12,1,70,0|8,0:0|0:0,0:0:0:0:
212,32,168172,5,2,0:0:0:0:
212,32,168772,5,0,0:0:0:0:
212,32,169372,6,0,P|192:96|240:164,1,140,2|2,0:0|0:0,0:0:0:0:
304,188,170272,1,8,0:0:0:0:
388,196,170572,6,0,P|380:236|352:256,1,70,2|8,0:0|0:0,0:0:0:0:
276,268,171172,1,0,0:0:0:0:
260,352,171472,1,8,0:0:0:0:
176,344,171772,2,0,L|96:332,1,70,2|8,0:0|0:0,0:0:0:0:
96,252,172372,1,4,0:0:0:0:
12,240,172672,1,8,0:0:0:0:
64,176,172972,5,2,0:0:0:0:
64,176,173572,5,0,0:0:0:0:
64,176,174172,6,0,P|132:176|176:236,1,140,2|2,0:0|0:0,0:0:0:0:
200,308,175072,1,8,0:0:0:0:
284,312,175372,5,2,0:0:0:0:
368,312,175672,1,8,0:0:0:0:
452,312,175972,2,0,L|456:224,1,70,0|8,0:0|0:0,0:0:0:0:
492,168,176572,1,2,0:0:0:0:
436,104,176872,1,8,0:0:0:0:
488,40,177172,2,0,P|456:20|408:36,1,70,4|8,0:0|0:0,0:0:0:0:
352,64,177772,6,0,L|212:40,1,140,2|2,0:0|0:0,0:0:0:0:
214,40,178672,1,8,0:0:0:0:
196,124,178972,6,0,L|336:148,1,140,2|2,0:0|0:0,0:0:0:0:
333,147,179872,1,8,0:0:0:0:
312,228,180172,6,0,L|172:204,1,140,2|0,0:0|0:0,0:0:0:0:
174,204,181072,1,8,0:0:0:0:
156,288,181372,6,0,L|296:312,1,140,2|0,0:0|3:0,0:0:0:0:
293,311,182272,1,0,3:0:0:0:
384,292,182572,5,4,0:1:0:0:
384,292,183172,5,0,0:0:0:0:
384,292,183772,6,0,P|444:216|408:88,1,210,2|8,0:0|0:0,0:0:0:0:
344,104,184972,6,0,L|332:12,1,70,2|8,0:0|0:0,0:0:0:0:
252,32,185572,2,0,L|261:101,1,70,0|8,0:0|0:0,0:0:0:0:
180,120,186172,2,0,L|170:50,1,70,2|8,0:0|0:0,0:0:0:0:
88,52,186772,2,0,L|97:121,1,70,4|8,0:0|0:0,0:0:0:0:
132,208,187372,5,2,0:0:0:0:
132,208,187972,5,0,0:0:0:0:
132,208,188572,6,0,P|224:248|320:192,1,210,2|8,0:0|0:0,0:0:0:0:
360,128,189772,6,0,L|460:108,1,70,2|8,0:0|0:0,0:0:0:0:
500,160,190372,2,0,L|512:256,1,70,0|8,0:0|0:0,0:0:0:0:
464,300,190972,2,0,L|364:320,1,70,2|8,0:0|0:0,0:0:0:0:
324,268,191572,2,0,L|312:172,1,70,4|8,0:0|0:0,0:0:0:0:
272,128,192172,5,2,0:0:0:0:
272,128,192772,5,0,0:0:0:0:
272,128,193372,6,0,P|192:124|112:216,1,210,2|8,0:0|0:0,0:0:0:0:
168,280,194572,6,0,L|156:360,1,70,2|8,0:0|0:0,0:0:0:0:
240,364,195172,1,0,0:0:0:0:
324,348,195472,1,8,0:0:0:0:
408,364,195772,1,4,0:0:0:0:
408,364,196972,5,2,0:0:0:0:
256,192,197272,12,0,199372,0:0:0:0:
