osu file format v9

[General]
AudioFilename: 104-taylor_swift-speak_now.mp3
AudioLeadIn: 1974
PreviewTime: 52625
Countdown: 0
SampleSet: Normal
StackLeniency: 0.7
Mode: 0
LetterboxInBreaks: 1

[Editor]
DistanceSpacing: 1
BeatDivisor: 6
GridSize: 4

[Metadata]
Title:Speak Now
Artist:Taylor Swift
Creator:yeahyeahyeahhh
Version:Hard
Source:
Tags:Country MoonFragrance

[Difficulty]
HPDrainRate:7
CircleSize:4
OverallDifficulty:7
ApproachRate:7
SliderMultiplier:1.84
SliderTickRate:2

[Events]
//Background and Video events
0,0,"taylor-swift-wallpaper-1.jpg"
//Break Periods
2,68767,75934
2,141589,156627
//Storyboard Layer 0 (Background)
//Storyboard Layer 1 (Fail)
//Storyboard Layer 2 (Pass)
//Storyboard Layer 3 (Foreground)
//Storyboard Sound Samples
//Background Colour Transformations
3,100,163,162,255

[TimingPoints]
177,504.3288223922,4,2,1,40,1,0
18839,-100,4,2,1,70,0,0
20226,-100,4,1,1,70,0,0
20478,-100,4,2,1,70,0,0
21486,-100,4,1,1,70,0,0
21738,-100,4,2,1,70,0,0
22242,-100,4,1,1,70,0,0
22494,-100,4,2,1,70,0,0
23503,-100,4,1,1,70,0,0
23755,-100,4,2,1,70,0,0
24259,-100,4,1,1,70,0,0
24511,-100,4,2,1,70,0,0
25520,-100,4,1,1,70,0,0
25772,-100,4,2,1,70,0,0
26276,-100,4,1,1,70,0,0
26528,-100,4,2,1,70,0,0
28293,-100,4,1,1,70,0,0
28545,-100,4,2,1,70,0,0
29553,-100,4,1,1,70,0,0
29805,-100,4,2,1,70,0,0
30310,-100,4,1,1,70,0,0
30562,-100,4,2,1,70,0,0
31570,-100,4,1,1,70,0,0
31822,-100,4,2,1,70,0,0
32326,-100,4,1,1,70,0,0
32578,-100,4,2,1,70,0,0
33587,-100,4,1,1,70,0,0
33839,-100,4,2,1,70,0,0
34595,-100,4,2,1,70,0,0
35604,-100,4,1,1,70,0,0
35856,-100,4,2,1,70,0,0
36360,-100,4,1,1,70,0,0
36612,-100,4,2,1,70,0,0
38377,-100,4,1,1,70,0,0
38629,-100,4,2,1,70,0,0
40394,-100,4,1,1,70,0,0
40646,-100,4,2,1,70,0,0
41654,-100,4,1,1,70,0,0
41906,-100,4,2,1,70,0,0
42410,-100,4,1,1,70,0,0
42662,-100,4,2,1,70,0,0
43671,-100,4,1,1,70,0,0
43923,-100,4,2,1,70,0,0
44175,-100,4,1,1,70,0,0
44679,-100,4,2,1,70,0,0
46444,-100,4,1,1,70,0,0
46696,-100,4,2,1,70,0,0
48461,-100,4,1,1,70,0,0
48713,-100,4,2,1,70,0,0
49721,-100,4,1,1,70,0,0
49973,-100,4,2,1,70,0,0
50226,-100,4,1,1,70,0,0
52494,-100,4,1,1,85,0,0
52627,-100,4,1,2,85,0,1
66748,-100,4,1,2,85,0,0
68755,-100,4,1,1,70,0,0
76948,-100,4,2,1,70,0,0
77957,-100,4,1,1,70,0,0
78209,-100,4,2,1,70,0,0
78713,-100,4,1,1,70,0,0
78965,-100,4,2,1,70,0,0
79973,-100,4,1,1,70,0,0
80226,-100,4,2,1,70,0,0
80730,-100,4,1,1,70,0,0
80982,-100,4,2,1,70,0,0
81990,-100,4,1,1,70,0,0
82242,-100,4,2,1,70,0,0
82747,-100,4,1,1,70,0,0
82999,-100,4,2,1,70,0,0
84007,-100,4,1,1,70,0,0
84259,-100,4,2,1,70,0,0
84763,-100,4,1,1,70,0,0
85015,-100,4,2,1,70,0,0
86024,-100,4,1,1,70,0,0
86276,-100,4,2,1,70,0,0
86780,-100,4,1,1,70,0,0
87032,-100,4,2,1,70,0,0
88041,-100,4,1,1,70,0,0
88293,-100,4,2,1,70,0,0
88797,-100,4,1,1,70,0,0
89049,-100,4,2,1,70,0,0
90057,-100,4,1,1,70,0,0
90310,-100,4,2,1,70,0,0
90814,-100,4,1,1,70,0,0
91066,-100,4,2,1,70,0,0
92074,-100,4,1,1,70,0,0
92326,-100,4,2,1,70,0,0
92831,-100,4,1,1,70,0,0
93083,-100,4,2,1,70,0,0
94847,-100,4,1,1,70,0,0
95099,-100,4,2,1,70,0,0
96864,-100,4,1,1,70,0,0
97116,-100,4,2,1,70,0,0
98125,-100,4,1,1,70,0,0
98377,-100,4,2,1,70,0,0
98629,-100,4,1,1,70,0,0
99133,-100,4,2,1,70,0,0
100141,-100,4,1,1,70,0,0
100394,-100,4,2,1,70,0,0
100898,-100,4,1,1,70,0,0
101150,-100,4,2,1,70,0,0
102915,-100,4,1,1,70,0,0
103167,-100,4,2,1,70,0,0
104931,-100,4,1,1,70,0,0
105184,-100,4,2,1,70,0,0
106192,-100,4,1,1,70,0,0
106444,-100,4,2,1,70,0,0
106696,-100,4,1,1,70,0,0
107200,-100,4,2,1,70,0,0
108083,-100,4,1,2,70,0,0
108965,-100,4,2,1,70,0,0
109112,-100,4,1,2,85,0,1
141389,-100,4,1,2,50,0,0
158536,-100,4,2,1,70,0,0
164588,-100,4,1,2,85,0,0
171396,-100,4,1,2,35,0,0
172657,-100,4,2,1,40,0,0
180726,-100,4,2,1,50,0,0
188922,-100,4,1,2,20,0,0
189174,-100,4,1,2,30,0,0
189426,-100,4,1,2,40,0,0
189678,-100,4,1,2,50,0,0
194974,-100,4,1,2,35,0,0
195226,-100,4,1,2,40,0,0
195478,-100,4,1,2,45,0,0
195730,-100,4,1,2,50,0,0
195982,-100,4,1,2,55,0,0
196234,-100,4,1,2,60,0,0
196486,-100,4,1,2,65,0,0
196739,-100,4,1,2,70,0,0
197747,-100,4,1,2,85,0,0
197873,-100,4,1,2,85,0,1
228133,-100,4,1,2,85,0,0
228385,-100,4,1,2,70,0,0
229898,-100,4,1,2,50,0,0
238220,-100,4,2,1,5,0,0

[Colours]
Combo1 : 249,227,81
Combo2 : 255,136,196
Combo3 : 152,222,73
Combo4 : 96,215,227

[HitObjects]
36,256,177,2,0,B|60:360|176:348,1,184
256,308,933,2,0,B|204:156|36:172,1,276
476,256,2194,2,0,B|452:360|336:348,1,184
256,308,2950,2,0,B|308:156|476:172,1,276
340,40,4211,6,0,B|256:106|172:40,1,184
96,92,4968,2,0,B|124:136|168:148,1,92
256,168,5472,1,0
345,147,5724,2,0,B|388:136|416:92,1,92
488,296,6228,2,0,B|428:216|320:236,1,184
244,280,6985,2,0,B|172:356|72:312,1,184
32,232,7741,5,0
32,232,7994,1,0
120,212,8246,2,0,B|144:164|120:124,1,92
48,68,8750,2,0,B|24:116|48:156,1,92
136,44,9254,1,0
256,192,9759,1,0
256,192,10011,1,0
332,256,10263,2,0,B|468:256,2,138
256,192,11272,2,0,B|204:256|256:320,1,138
364,352,11965,1,0
388,36,12280,6,0,B|436:36|488:72|482:126|460:176,1,184
384,124,13037,2,0,B|288:124,1,92
292,124,13541,1,0
212,80,13793,2,0,B|180:124|220:176,1,92
32,312,14298,2,0,B|111:257|207:297,1,184
292,328,15054,2,0,B|387:367|467:313,1,184
484,224,15811,6,0,B|484:132,1,92
404,72,16315,2,0,B|404:168,1,92
404,164,16819,1,0
332,224,17072,1,0
240,212,17324,1,0
48,128,17828,2,0,B|232:128,1,184
209,128,19593,5,8
209,128,19845,1,8
476,280,20350,6,0,B|396:356|312:280,1,184,0|8
392,148,21106,2,0,B|392:240,2,92,8|0|0
344,68,21863,1,8
256,40,22115,1,0
184,96,22367,2,0,B|112:180|16:132,1,184,0|8
76,60,23123,2,0,B|148:124|108:240,1,184,8|0
140,316,23880,6,0,B|172:360|224:360,1,92,8|0
256,276,24384,2,0,B|256:176,1,92
256,92,24889,1,8
256,92,25141,1,8
332,144,25393,1,0
424,144,25645,1,0
424,144,25771,1,0
468,252,26065,1,0
396,340,26402,2,0,B|260:340,2,138,0|0|0
348,260,27410,2,0,B|164:260,1,184,0|8
64,104,28419,6,0,B|0:192|72:288,1,184,0|8
62,275,29175,1,8
141,322,29428,2,0,B|233:321,1,92
320,240,29932,2,0,B|228:240,1,92,8|0
172,168,30436,2,0,B|272:136|252:20,1,184,0|8
168,60,31193,2,0,B|228:136|336:96,1,184,8|0
416,52,31949,2,0,B|456:24|508:32,1,92,8|0
476,120,32454,6,0,B|476:216,1,92
480,304,32958,1,8
480,304,33210,1,8
400,260,33462,2,0,B|308:260,1,92
244,196,33967,2,0,B|156:196,2,69,8|0|0
144,292,34723,1,0
144,292,34975,1,8
72,232,35227,1,8
72,232,35353,2,0,B|24:172|72:104,1,138
144,48,35984,1,8
472,332,36488,6,0,B|366:349|332:241,1,184,0|8
408,188,37245,1,8
488,140,37497,2,0,B|454:33|348:50,1,184,0|8
40,332,38505,6,0,B|146:349|180:241,1,184,0|8
104,188,39262,1,8
24,140,39514,2,0,B|57:33|163:50,1,184,0|8
376,256,40523,5,0
444,192,40775,1,0
376,128,41027,1,8
376,128,41279,1,8
312,192,41531,2,0,B|216:192,1,92
220,192,42036,1,8
128,192,42288,1,0
71,112,42540,2,0,B|32:144|12:192|32:244|66:270,1,184,0|8
152,308,43297,2,0,B|336:308,1,184,8|0
400,240,44053,1,8
492,252,44305,1,0
480,68,44557,6,0,B|436:68|436:68|368:68|368:144|312:144,1,184,0|8
256,80,45314,1,8
200,148,45566,2,0,B|144:148|144:72|76:72|76:72|28:72,2,184,0|8|0
20,252,47079,5,8
20,252,47331,1,8
80,328,47583,2,0,B|136:240|80:156,1,184,0|8
44,72,48340,1,0
124,28,48592,1,0
256,156,49096,1,8
388,28,49601,5,0
468,72,49853,1,0
456,164,50105,1,8
364,180,50357,1,0
320,100,50609,1,0
320,100,51870,5,0
320,100,52122,1,0
236,132,52375,1,0
88,52,52627,5,4
88,336,53131,1,8
88,336,53383,1,8
28,268,53635,1,0
108,224,53888,1,0
164,152,54140,1,8
180,60,54392,1,0
88,76,54644,6,0,B|96:132|44:160,1,92
172,320,55148,2,0,B|160:268|200:232,1,92,8|8
340,320,55653,2,0,B|352:268|312:232,1,92,0|0
424,76,56157,2,0,B|416:132|468:160,1,92,8|0
480,244,56661,5,0
480,244,56913,1,0
388,244,57166,2,0,B|296:244,2,92,8|8|0
480,244,57922,1,0
436,324,58174,1,8
344,324,58426,1,0
252,324,58679,6,0,B|152:272|192:168,1,184,0|8
256,108,59435,1,8
180,56,59687,2,0,B|96:-8|8:56,2,184,0|8|4
10,329,61200,6,0,B|96:392|180:328,2,184,8|0|8
96,276,62461,1,0
184,248,62713,2,0,B|236:244|260:296,1,92
340,336,63218,2,0,B|432:336,1,92
480,260,63722,2,0,B|384:260,1,92
336,184,64226,2,0,B|436:184,1,92
468,100,64731,5,0
468,100,64983,1,0
376,100,65235,2,0,B|284:100,1,92,8|8
214,22,65739,2,0,B|152:100|216:192,1,184,0|8
288,248,66496,1,8
240,328,66748,1,8
80,164,76834,6,0,B|4:244|80:328,1,184,0|8
140,248,77591,2,0,B|232:248,2,92,8|0|0
188,328,78347,1,8
280,328,78600,1,0
328,252,78852,2,0,B|400:168|496:216,1,184,0|8
456,108,79608,2,0,B|350:144|286:72,1,184,8|0
196,76,80365,6,0,B|96:112,1,92,8|0
100,200,80869,2,0,B|186:168,1,92,0|0
180,260,81373,2,8,B|80:296,1,92,8|8
16,240,81878,1,0
24,148,82130,1,0
100,200,82382,1,8
109,107,82634,1,0
186,168,82886,6,0,B|272:232|360:168,1,184,0|8
436,128,83643,2,0,B|508:216|444:296,1,184,8|0
352,284,84399,1,8
276,336,84652,1,0
62,275,84904,6,0,B|0:192|64:104,1,184,0|8
124,36,85660,2,0,B|188:124|116:220,1,184,8|0
148,296,86417,2,0,B|240:332,1,92,8|0
320,360,86921,2,0,B|420:328|400:212,1,184,0|8
316,184,87678,2,0,B|240:124|280:16,1,184,8|0
364,56,88434,2,0,B|404:84|456:76,1,92,8|0
488,184,88938,6,0,B|400:120|304:192,1,184,0|8
236,228,89695,2,0,B|148:292|52:220,1,184,8|0
64,136,90451,2,0,B|64:44,1,92,8|0
148,8,90956,6,0,B|212:96|140:192,1,184,0|8
120,268,91712,2,0,B|208:332|304:260,1,184,8|0
372,224,92469,1,8
456,264,92721,1,0
421,43,92973,6,0,B|397:163|285:163,1,184,4|8
212,104,93729,1,8
300,44,93982,2,0,B|396:43|420:163,1,184,0|8
91,43,94990,2,0,B|115:163|227:163,1,184,0|8
300,104,95747,1,8
212,44,95999,2,0,B|115:43|91:163,1,184,0|8
92,160,96755,1,0
188,236,97008,2,0,B|256:276|319:237,2,138
36,345,98268,5,0
88,269,98521,1,8
160,329,98773,1,0
172,236,99025,2,0,B|255:168|338:238,1,184,0|8
256,288,99781,2,0,B|256:104,1,184,8|0
208,24,100538,1,8
304,24,100790,1,0
472,60,101042,6,0,B|376:104|424:248,1,184,0|8
492,264,101799,1,8
408,304,102051,2,0,B|328:376|240:308,1,184,0|8
40,324,103060,6,0,B|136:280|88:136,1,184,0|8
20,120,103816,1,8
104,80,104068,2,0,B|184:8|272:76,1,184,0|8
192,124,104825,5,0
204,216,105077,2,0,B|264:204|272:160,1,92
356,124,105581,1,8
440,164,105833,2,0,B|440:348,1,184,8|0
440,348,106590,1,8
360,300,106842,1,0
272,328,107094,2,0,B|180:328,1,92
108,252,107599,2,0,B|200:252,1,92
296,140,108355,5,8
380,104,108607,1,8
380,104,108733,1,8
380,104,108859,1,8
476,264,109112,5,4
36,264,109616,1,8
36,264,109868,1,8
80,184,110120,1,0
172,180,110372,1,0
212,260,110625,1,8
212,260,110877,1,0
300,260,111129,6,0,B|344:232|404:264,1,92
444,328,111633,2,0,B|400:356|340:324,1,92,8|8
212,260,112137,2,0,B|168:232|108:264,1,92
68,328,112642,2,0,B|112:356|172:324,1,92,8|0
256,336,113146,5,0
256,336,113398,1,0
256,336,113650,2,0,B|256:240,1,92,8|8
256,144,114155,1,0
176,192,114407,1,0
336,192,114659,1,8
428,192,114911,1,0
504,140,115163,6,0,B|444:48|320:80,1,184,0|8
256,52,115920,1,8
167,74,116172,2,0,B|64:56|8:140,2,184,0|8|4
172,296,117685,6,0,B|256:368|340:296,2,184,8|0|8
256,256,118946,1,0
356,216,119198,2,0,B|408:236|416:284,1,92
256,148,119702,2,0,B|256:56,1,92,8|8
156,216,120207,2,0,B|104:236|96:284,2,92,0|0|8
160,124,120963,5,0
72,148,121215,1,0
72,148,121468,1,0
100,60,121720,2,0,B|132:20|184:20,1,92,8|8
272,28,122224,2,0,B|334:106|270:198,1,184,0|8
220,272,122981,5,8
256,356,123233,1,8
476,192,123737,1,0
36,192,124241,1,0
80,272,124494,1,0
80,272,124620,1,0
80,272,124746,1,0
80,272,124998,1,0
192,104,125250,5,4
292,272,125754,1,8
292,272,126007,1,8
340,196,126259,1,0
432,196,126511,1,0
484,272,126763,1,8
392,288,127015,1,0
324,348,127267,6,0,B|228:348,1,92
92,272,127772,2,0,B|188:272,1,92,8|8
316,184,128276,2,0,B|220:184,1,92
88,100,128780,2,0,B|200:100,1,92,8|0
256,48,129285,5,0
256,48,129537,1,0
332,100,129789,2,0,B|424:100,2,92,8|8|0
256,156,130546,1,0
164,160,130798,1,8
80,196,131050,1,0
0,192,131302,6,0,B|-20:300|76:352,1,184,0|8
124,276,132058,1,8
200,328,132311,2,0,B|388:328,2,184,0|8|4
451,190,133824,6,0,B|515:274|452:360,2,184,8|0|8
376,244,135084,1,0
284,244,135337,2,0,B|280:192|327:170,1,92
400,116,135841,2,0,B|378:68|326:72,1,92,8|8
112,116,136345,2,0,B|133:68|185:72,1,92
227,244,136850,2,0,B|230:192|183:170,1,92,8|0
96,200,137354,5,0
96,200,137606,1,0
52,280,137858,2,0,B|144:280,1,92,8|8
224,320,138363,2,0,B|308:384|393:321,1,184,0|8
440,248,139119,1,0
348,248,139371,1,0
308,68,139876,2,0,B|396:4|477:67,2,184,8|0|8
256,248,141389,1,4
256,192,157527,5,4
36,192,159544,1,0
476,192,161562,1,0
256,348,163579,1,0
256,36,165596,5,4
320,104,165849,1,0
320,104,166017,2,0,B|380:144|436:104,1,122.666666666667,0|8
256,172,166605,1,0
192,240,166858,1,0
192,240,167026,2,0,B|132:280|76:240,1,122.666666666667
136,168,167614,6,0,B|44:168,2,92,0|0|8
136,168,168370,1,8
200,100,168622,1,0
256,172,168874,1,0
312,100,169127,1,8
376,168,169379,1,0
428,244,169631,6,0,B|404:352|292:332,1,184,0|8
84,336,170640,2,0,B|108:228|220:248,1,184,0|8
256,32,171648,1,4
372,352,173666,6,0,B|480:332|476:216,1,184
384,256,174422,2,0,B|272:140|384:8,1,276
140,352,175683,2,0,B|32:332|36:216,1,184
128,256,176439,2,0,B|240:140|128:8,1,276
256,152,177700,2,0,B|256:336,1,184
172,284,178457,2,0,B|256:218|340:284,1,184
396,208,179213,1,0
116,208,179718,1,0
104,136,181735,6,0,B|170:220|104:304,1,184
16,272,182492,2,0,B|120:164|272:236,1,276
352,276,183500,1,0
436,312,183752,2,0,B|516:252|496:144,1,184
448,72,184509,2,0,B|172:72,1,276
80,72,185518,1,0
36,152,185770,6,0,B|220:152,1,184
312,156,186526,2,0,B|360:216|376:304|300:372|232:364,1,276
148,352,187535,1,0
80,292,187787,2,0,B|37:193|116:126,1,184
204,104,188543,2,0,B|302:146|369:67,1,184
436,4,189300,1,2
508,60,189552,1,2
488,192,189804,6,0,B|296:192,1,184,2|0
256,272,190561,2,0,B|444:272,1,184,2|0
392,352,191317,2,0,B|300:352,1,92,0|2
164,352,191821,2,0,B|109:270|165:178,1,184,2|0
256,192,192578,2,0,B|302:103|254:15,1,184,2|0
172,52,193335,6,0,B|80:52,1,92,2|2
24,124,193839,2,0,B|5:165|0:219|51:255|99:255,1,184,2|0
112,164,194595,2,0,B|160:160|212:200|206:254|184:304,1,184,2|0
256,344,195352,1,8
344,316,195604,1,8
388,236,195856,1,8
388,148,196108,1,8
344,68,196360,1,8
256,40,196613,1,8
168,68,196865,1,8
124,148,197117,1,0
124,148,197243,1,0
124,148,197369,1,8
124,236,197621,1,8
256,144,197873,5,4
336,192,198126,1,0
428,192,198378,1,8
428,192,198630,1,8
484,260,198882,1,0
428,332,199134,1,0
336,332,199387,1,8
284,256,199639,1,0
192,256,199891,6,0,B|100:256,1,92
32,76,200395,2,0,B|124:76,1,92,8|8
144,336,200899,2,0,B|44:336,1,92
84,156,201404,2,0,B|180:156,1,92,8|0
256,108,201908,5,0
256,108,202160,1,0
336,64,202412,2,0,B|364:108|336:152,1,92,8|8
288,228,202917,1,0
340,304,203169,1,0
432,304,203421,2,0,B|472:276|468:224,1,92,8|0
476,92,203925,6,0,B|416:184|316:156,1,184,0|8
256,92,204682,1,8
193,156,204934,2,0,B|96:184|36:92,2,184,0|8|4
52,272,206447,6,0,B|136:200|220:272,2,184,8|0|8
136,312,207708,1,0
232,348,207960,2,0,B|276:340|296:288,1,92
280,36,208464,2,0,B|235:43|215:95,1,92,8|8
308,112,208969,2,0,B|400:112,1,92
204,272,209473,2,0,B|112:272,1,92,8|0
64,192,209977,5,0
64,192,210230,1,0
112,112,210482,2,0,B|156:100|204:112,1,92,8|8
292,136,210986,2,0,B|380:172|472:140,1,184,0|8
428,60,211743,5,8
336,60,211995,1,8
256,336,212499,1,8
176,60,213003,1,8
100,112,213256,1,0
100,112,213382,1,0
100,112,213508,1,8
128,200,213760,1,0
328,240,214012,5,4
412,200,214264,1,0
480,264,214516,1,8
480,264,214769,1,8
440,348,215021,1,0
348,328,215273,1,0
256,320,215525,1,8
164,328,215777,1,0
72,348,216029,6,0,B|32:312|36:260,1,92
140,155,216534,2,8,B|184:188|174:235,1,92,0|0
372,156,217038,2,0,B|328:188|340:244,1,92,0|0
440,348,217542,2,0,B|480:312|476:260,1,92,8|0
464,176,218047,5,0
464,176,218299,1,0
476,84,218551,2,0,B|368:84,1,92
292,84,219055,1,0
244,164,219308,1,0
292,244,219560,1,8
268,332,219812,1,0
176,344,220064,6,0,B|86:295|106:187,1,184,0|8
188,236,220820,1,8
244,164,221073,2,0,B|432:164,2,184,0|8|4
48,68,222586,6,0,B|132:4|220:68,2,184,8|0|8
16,152,223846,1,0
68,228,224099,2,0,B|120:232|142:185,1,92
444,228,224603,2,0,B|392:232|370:185,1,92,8|8
420,108,225107,2,0,B|398:59|346:63,1,92
92,108,225611,2,0,B|113:59|165:63,1,92,8|0
256,100,226116,5,0
256,100,226368,1,0
256,192,226620,2,0,B|256:284,1,92,8|8
340,324,227125,2,0,B|256:388|168:328,1,184,0|8
160,236,227881,1,0
352,236,228133,5,0
352,236,228638,2,0,B|416:145|353:67,2,184,8|0|8
256,80,230150,1,4
256,192,230277,12,0,238220
