osu file format v13

[General]
AudioFilename: Taylor Swift - Sparks Fly.mp3
AudioLeadIn: 0
PreviewTime: 48775
Countdown: 1
SampleSet: Soft
StackLeniency: 0.7
Mode: 0
LetterboxInBreaks: 1
WidescreenStoryboard: 0

[Editor]
DistanceSpacing: 1.7
BeatDivisor: 4
GridSize: 4
TimelineZoom: 1.9

[Metadata]
Title:Sparks Fly
TitleUnicode:Sparks Fly
Artist:Taylor Swift
ArtistUnicode:Taylor Swift
Creator:lShuuichi
Version:Hard
Source:
Tags:Speak Now Album electronic gokugohan12468 gokuhan
BeatmapID:510486
BeatmapSetID:217648

[Difficulty]
HPDrainRate:6
CircleSize:4
OverallDifficulty:6
ApproachRate:8
SliderMultiplier:1.8
SliderTickRate:1

[Events]
//Background and Video events
0,0,"BG.jpeg",0,0
//Break Periods
2,86019,91330
2,160627,166460
2,200801,212112
//Storyboard Layer 0 (Background)
//Storyboard Layer 1 (Fail)
//Storyboard Layer 2 (Pass)
//Storyboard Layer 3 (Foreground)
//Storyboard Sound Samples
//Background Colour Transformations
3,100,163,162,255

[TimingPoints]
254,521.739130434783,4,2,1,30,1,0
254,-133.333333333333,4,2,1,30,0,0
6254,-133.333333333333,4,1,1,45,0,0
6514,-117.647058823529,4,1,1,45,0,0
8080,-117.647058823529,4,1,1,25,0,0
8601,-100,4,2,1,55,0,0
16949,-133.333333333333,4,2,1,40,0,0
37688,-133.333333333333,4,2,1,30,0,0
41340,-133.333333333333,4,2,1,40,0,0
48254,-133.333333333333,4,1,1,40,0,0
50340,-100,4,1,0,55,0,1
50862,-100,4,2,1,55,0,1
58427,-100,4,2,1,70,0,1
62862,-100,4,2,1,55,0,1
64949,-100,4,1,1,45,0,0
65471,-100,4,2,1,45,0,0
65732,-100,4,1,1,45,0,0
65993,-100,4,2,1,45,0,0
66514,-100,4,1,1,45,0,0
67036,-100,4,2,1,55,0,1
75123,-100,4,2,1,70,0,1
79558,-100,4,2,1,55,0,1
81384,-100,4,3,0,55,0,1
81645,-100,4,3,0,55,0,0
81906,-100,4,1,0,55,0,0
83732,-100,4,2,1,55,0,0
92080,-133.333333333333,4,2,1,40,0,0
96123,-133.333333333333,4,3,0,40,0,0
96384,-133.333333333333,4,2,1,40,0,0
100297,-133.333333333333,4,3,0,40,0,0
100558,-133.333333333333,4,2,1,40,0,0
123906,-133.333333333333,4,1,1,40,0,0
125340,-133.333333333333,4,1,1,5,0,0
125471,-100,4,1,0,55,0,1
125993,-100,4,2,1,55,0,1
133558,-100,4,2,1,70,0,1
137993,-100,4,2,1,55,0,1
140080,-100,4,1,1,55,0,0
140601,-100,4,2,1,55,0,0
140862,-100,4,1,1,55,0,0
141123,-100,4,2,1,55,0,0
141645,-100,4,1,1,55,0,0
142167,-100,4,2,1,55,0,1
150254,-100,4,2,1,70,0,1
154688,-100,4,2,1,55,0,1
156514,-100,4,3,0,55,0,1
156775,-100,4,3,0,55,0,0
157297,-100,4,1,0,55,0,0
158862,-100,4,2,1,55,0,0
167210,-100,4,2,0,55,0,0
173732,-100,4,1,1,35,0,0
173993,-100,4,1,1,45,0,0
175538,-100,4,2,0,45,0,0
182080,-100,4,1,1,35,0,0
182340,-100,4,1,1,45,0,0
182601,-100,4,1,1,35,0,0
182862,-100,4,3,0,60,0,0
183123,-100,4,1,1,45,0,0
183384,-100,4,3,0,60,0,0
183645,-100,4,3,0,40,0,0
183906,-100,4,2,1,55,0,0
190688,-100,4,3,0,45,0,0
190949,-100,4,1,1,35,0,0
191210,-100,4,3,0,40,0,0
192775,-133.333333333333,4,2,1,30,0,0
200080,-200,4,2,1,40,0,0
200601,-133.333333333333,4,2,1,40,0,0
215471,-117.647058823529,4,1,1,45,0,0
215732,-117.647058823529,4,2,1,45,0,0
215993,-117.647058823529,4,1,1,45,0,0
216254,-117.647058823529,4,2,1,45,0,0
216514,-117.647058823529,4,1,1,45,0,0
217297,-100,4,2,1,55,0,1
225384,-100,4,2,1,70,0,1
229819,-100,4,2,1,55,0,1
231645,-100,4,3,0,55,0,1
231906,-100,4,3,0,55,0,0
232167,-100,4,1,1,55,0,0
233993,-100,4,2,1,55,0,1
248340,-100,4,3,0,55,0,1
248601,528.639130434785,4,2,1,55,1,1
248601,-100,4,3,0,55,0,1
248865,-100,4,1,1,55,0,1
249393,-100,4,1,1,40,0,1
250214,588.229130434784,4,1,1,30,1,1
250480,645.159130434784,4,1,1,25,1,0
250802,-100,4,1,1,20,0,0
250850,799.999130434785,4,2,1,20,1,0
251049,-100,4,1,1,5,0,0

[Colours]
Combo1 : 163,250,189
Combo2 : 162,183,219
Combo3 : 224,233,163
Combo4 : 163,182,133
Combo5 : 168,163,228

[HitObjects]
60,312,254,6,0,L|128:288,1,67.5000025749208,2|0,0:0|0:0,0:0:0:0:
200,264,775,1,2,0:0:0:0:
256,324,1036,1,0,0:0:0:0:
312,264,1297,2,0,P|320:232|308:196,1,67.5000025749208,2|0,0:0|0:0,0:0:0:0:
310,199,2080,1,2,0:0:0:0:
392,336,2340,6,0,L|476:308,1,67.5000025749208,4|0,3:0|0:0,0:0:0:0:
404,252,2862,1,2,0:0:0:0:
480,224,3123,1,0,0:0:0:0:
416,172,3384,2,0,P|406:140|414:107,1,67.5000025749208,2|0,0:0|0:0,0:0:0:0:
414,107,4167,1,2,0:0:0:0:
256,64,4427,6,0,L|172:96,1,67.5000025749208,4|0,3:0|0:0,0:0:0:0:
116,116,4949,1,2,0:0:0:0:
116,196,5210,1,0,0:0:0:0:
196,216,5471,2,0,P|232:184|244:144,1,67.5000025749208,2|0,0:0|0:0,0:0:0:0:
76,160,6254,1,0,0:0:0:0:
76,160,6775,5,8,0:0:0:0:
56,248,7036,2,0,P|100:272|148:264,1,76.5000014591217,8|8,0:0|0:0,0:0:0:0:
276,300,7558,1,8,0:0:0:0:
364,172,7819,1,8,0:0:0:0:
236,88,8080,1,4,0:0:0:0:
144,212,8340,1,4,0:0:0:0:
236,88,8601,6,0,P|276:104|348:100,1,90,4|0,0:0|0:0,0:0:0:0:
412,84,9123,1,10,0:0:0:0:
484,28,9384,1,0,0:0:0:0:
412,84,9645,2,0,P|404:132|416:176,1,90,2|0,0:0|0:0,0:0:0:0:
440,260,10167,1,10,0:0:0:0:
412,172,10427,1,0,0:0:0:0:
440,260,10688,6,0,P|412:296|360:320,1,90,4|0,0:0|0:0,0:0:0:0:
284,304,11210,1,10,0:0:0:0:
372,316,11471,1,0,0:0:0:0:
284,304,11732,2,0,L|240:208,2,90,2|0|10,0:0|0:0|0:0,0:0:0:0:
200,340,12514,1,0,0:0:0:0:
108,340,12775,6,0,P|68:328|36:288,1,90,0|0,0:0|0:0,0:0:0:0:
120,252,13297,1,10,0:0:0:0:
96,164,13558,1,0,0:0:0:0:
180,192,13819,2,0,L|308:164,2,90,2|0|10,0:0|0:0|0:0,0:0:0:0:
180,192,14601,1,0,0:0:0:0:
96,164,14862,5,2,0:0:0:0:
128,80,15123,1,0,0:0:0:0:
128,80,15384,1,10,0:0:0:0:
212,44,15645,1,0,0:0:0:0:
212,44,15906,1,2,0:0:0:0:
296,76,16167,1,0,0:0:0:0:
380,48,16427,2,0,P|400:60|436:64,3,45,10|0|0|0,0:0|0:0|0:0|0:0,0:0:0:0:
452,92,16949,6,0,P|476:160|452:224,1,135.000005149842,4|10,0:0|0:0,0:0:0:0:
400,272,17732,1,0,0:0:0:0:
340,328,17993,2,0,B|370:341|370:341|402:354,1,67.5000025749208,0|0,0:0|0:0,0:0:0:0:
324,248,18514,2,0,L|261:221,1,67.5000025749208,10|0,0:0|0:0,0:0:0:0:
184,196,19036,2,0,P|128:148|112:72,2,135.000005149842,2|8|2,0:0|0:0|0:0,0:0:0:0:
261,221,20340,1,0,0:0:0:0:
316,280,20601,1,10,0:0:0:0:
260,336,20862,1,0,0:0:0:0:
204,280,21123,6,0,L|108:304,1,67.5000025749208
30,244,21645,2,0,L|96:228,1,67.5000025749208,10|0,0:0|0:0,0:0:0:0:
176,204,22167,2,0,P|184:164|172:108,1,67.5000025749208
138,45,22688,1,10,0:0:0:0:
240,64,22949,2,0,P|316:48|392:80,1,135.000005149842,2|0,0:0|0:0,0:0:0:0:
444,100,23732,2,0,P|420:124|368:144,1,67.5000025749208,10|0,0:0|0:0,0:0:0:0:
308,128,24254,1,2,0:0:0:0:
280,204,24514,1,0,0:0:0:0:
360,216,24775,2,0,L|392:304,1,67.5000025749208,10|0,0:0|0:0,0:0:0:0:
316,328,25297,6,0,P|248:304|192:328,1,135.000005149842,4|10,0:0|0:0,0:0:0:0:
120,360,26080,1,0,0:0:0:0:
76,292,26340,2,0,L|92:204,1,67.5000025749208,2|0,0:0|0:0,0:0:0:0:
48,97,26862,2,0,L|36:164,1,67.5000025749208,10|0,0:0|0:0,0:0:0:0:
116,148,27384,2,0,P|192:132|240:168,2,135.000005149842,2|8|2,0:0|0:0|0:0,0:0:0:0:
88,224,28688,1,0,0:0:0:0:
112,300,28949,1,10,0:0:0:0:
188,324,29210,1,0,0:0:0:0:
264,300,29471,6,0,P|316:252|388:288,1,135.000005149842,0|10,0:0|0:0,0:0:0:0:
336,340,30254,1,0,0:0:0:0:
416,332,30514,2,0,P|440:304|444:256,1,67.5000025749208,2|0,0:0|0:0,0:0:0:0:
424,196,31036,2,0,P|416:160|424:124,1,67.5000025749208,10|0,0:0|0:0,0:0:0:0:
460,60,31558,2,0,P|420:48|376:68,1,67.5000025749208,2|0,0:0|0:0,0:0:0:0:
316,44,32080,2,0,L|224:52,1,67.5000025749208,10|0,0:0|0:0,0:0:0:0:
168,44,32601,1,2,0:0:0:0:
132,120,32862,1,0,0:0:0:0:
192,172,33123,1,10,0:0:0:0:
260,132,33384,1,0,0:0:0:0:
192,172,33645,6,0,P|144:200|124:232,1,67.5000025749208,4|0,0:0|0:0,0:0:0:0:
156,288,34167,2,0,P|200:280|228:288,1,67.5000025749208,10|0,0:0|0:0,0:0:0:0:
296,316,34688,1,0,0:0:0:0:
376,328,34949,1,0,0:0:0:0:
448,292,35210,1,10,0:0:0:0:
476,216,35471,1,0,0:0:0:0:
452,140,35732,6,0,L|356:112,1,67.5000025749208,2|0,0:0|0:0,0:0:0:0:
292,92,36254,1,10,0:0:0:0:
292,92,36514,1,0,0:0:0:0:
284,196,36775,2,0,L|376:224,1,67.5000025749208,2|0,0:0|0:0,0:0:0:0:
348,215,37297,1,10,0:0:0:0:
472,224,37819,5,2,0:0:0:0:
472,224,38340,1,8,0:0:0:0:
180,364,38862,1,2,0:0:0:0:
180,364,39384,1,8,0:0:0:0:
204,40,39906,1,2,0:0:0:0:
204,40,40427,1,8,0:0:0:0:
472,224,40949,1,4,3:0:0:0:
472,144,41210,2,0,L|380:120,2,67.5000025749208,0|8|0,0:0|0:0|0:0,0:0:0:0:
472,224,41993,6,0,L|380:248,1,67.5000025749208,2|0,0:0|0:0,0:0:0:0:
342,341,42514,2,0,L|408:324,1,67.5000025749208,10|0,0:0|0:0,0:0:0:0:
488,304,43036,1,2,0:0:0:0:
332,260,43558,1,8,0:0:0:0:
180,204,44080,2,0,P|104:184|52:212,1,135.000005149842,2|8,0:0|0:0,0:0:0:0:
120,356,45123,2,0,P|196:376|248:348,1,135.000005149842,2|8,0:0|0:0,0:0:0:0:
360,236,46167,6,0,B|374:206|374:206|402:186,1,67.5000025749208,2|0,0:0|0:0,0:0:0:0:
484,200,46688,2,0,P|492:156|476:120,1,67.5000025749208,10|0,0:0|0:0,0:0:0:0:
432,68,47210,1,2,0:0:0:0:
360,32,47471,1,0,0:0:0:0:
352,128,47732,1,10,0:0:0:0:
268,80,47993,1,0,0:0:0:0:
256,196,48254,5,0,0:0:0:0:
108,264,48775,1,8,0:0:0:0:
164,68,49297,1,8,0:0:0:0:
40,204,49558,1,0,0:0:0:0:
256,112,49819,1,8,0:0:0:0:
256,328,50340,6,0,B|168:328|168:328|128:368|52:352,1,180,4|8,0:0|0:0,0:0:0:0:
8,308,51123,6,0,P|56:280|108:280,1,90,2|0,0:0|0:0,0:0:0:0:
224,252,51645,2,0,P|179:245|142:220,1,90,2|10,0:0|0:0,0:0:0:0:
212,164,52167,1,0,0:0:0:0:
220,76,52427,2,0,B|148:80|128:140|128:140|48:140,2,180,2|10|2,0:0|0:0|0:0,0:0:0:0:
308,92,53732,1,0,0:0:0:0:
384,140,53993,1,10,0:0:0:0:
412,224,54254,1,0,0:0:0:0:
380,308,54514,6,0,L|304:364,1,90,2|0,0:0|0:0,0:0:0:0:
256,288,55036,1,10,0:0:0:0:
204,361,55297,2,0,L|132:308,1,90,0|2,0:0|0:0,0:0:0:0:
60,252,55819,1,0,0:0:0:0:
28,168,56080,2,0,P|16:120|32:84,1,90,10|0,0:0|0:0,0:0:0:0:
104,28,56601,6,0,L|192:92,1,90,2|0,0:0|0:0,0:0:0:0:
256,128,57123,1,10,0:0:0:0:
335,80,57384,2,0,L|408:28,1,90,0|2,0:0|0:0,0:0:0:0:
476,88,57906,1,0,0:0:0:0:
412,152,58167,1,10,0:0:0:0:
476,212,58427,1,0,0:0:0:0:
476,212,58558,1,0,0:0:0:0:
476,212,58688,6,0,P|444:276|396:304,1,90,2|0,0:0|0:0,0:0:0:0:
348,248,59210,1,8,0:0:0:0:
432,288,59471,1,0,0:0:0:0:
304,324,59732,2,0,P|336:260|384:232,1,90,2|0,0:0|0:0,0:0:0:0:
420,188,60254,1,8,0:0:0:0:
256,112,60514,1,0,0:0:0:0:
212,192,60775,6,0,P|164:204|112:180,1,90,2|0,0:0|0:0,0:0:0:0:
168,112,61297,1,8,0:0:0:0:
128,192,61558,1,0,0:0:0:0:
84,112,61819,2,0,P|132:100|184:124,1,90,2|0,0:0|0:0,0:0:0:0:
220,276,62340,1,8,0:0:0:0:
220,184,62601,1,0,0:0:0:0:
296,328,62862,6,0,P|340:340|392:320,1,90,2|0,0:0|0:0,0:0:0:0:
340,248,63384,1,8,0:0:0:0:
380,328,63645,1,0,0:0:0:0:
264,260,63906,2,0,P|280:200|388:188,1,180,2|8,0:0|0:0,0:0:0:0:
384,185,64688,1,2,0:0:0:0:
256,60,65210,5,8,0:0:0:0:
340,96,65471,2,0,P|352:52|324:0,1,90,2|8,0:0|0:0,0:0:0:0:
175,12,65993,2,0,P|159:53|172:96,1,90,2|2,0:0|0:0,0:0:0:0:
256,132,66514,1,8,0:0:0:0:
256,156,66645,1,8,0:0:0:0:
256,180,66775,1,8,0:0:0:0:
256,204,66906,1,8,0:0:0:0:
256,228,67036,6,0,L|256:336,1,90,4|0,0:0|0:0,0:0:0:0:
172,356,67558,2,0,B|144:320|144:320|72:308,1,90,10|0,0:0|0:0,0:0:0:0:
340,356,68080,2,0,B|368:320|368:320|440:308,1,90,2|0,0:0|0:0,0:0:0:0:
480,256,68601,1,10,0:0:0:0:
412,196,68862,1,0,0:0:0:0:
320,200,69123,6,0,L|140:216,2,180,2|10|2,0:0|0:0|0:0,0:0:0:0:
412,196,70427,1,0,0:0:0:0:
480,136,70688,1,10,0:0:0:0:
440,56,70949,1,0,0:0:0:0:
352,32,71210,6,0,L|252:52,1,90,2|0,0:0|0:0,0:0:0:0:
115,133,71732,2,0,L|204:116,1,90,10|0,0:0|0:0,0:0:0:0:
339,114,72254,2,0,P|377:191|339:269,1,180,2|8,0:0|0:0,0:0:0:0:
172,269,73036,2,0,P|134:191|173:114,1,180,2|0,0:0|0:0,0:0:0:0:
256,148,73819,1,10,0:0:0:0:
256,148,74080,1,0,0:0:0:0:
299,65,74340,2,0,P|255:53|207:69,2,90,2|0|8,0:0|0:0|0:0,0:0:0:0:
388,80,75123,1,0,0:0:0:0:
388,80,75254,1,0,0:0:0:0:
388,80,75384,6,0,P|436:116|440:160,1,90,2|0,0:0|0:0,0:0:0:0:
384,212,75906,1,8,0:0:0:0:
442,142,76167,1,0,0:0:0:0:
384,212,76427,2,0,P|336:176|332:132,1,90,2|0,0:0|0:0,0:0:0:0:
256,228,76949,1,8,0:0:0:0:
256,228,77210,1,0,0:0:0:0:
176,316,77471,6,0,P|128:328|80:308,1,90,2|0,0:0|0:0,0:0:0:0:
48,236,77993,1,8,0:0:0:0:
90,315,78254,1,0,0:0:0:0:
48,236,78514,2,0,P|96:224|144:244,1,90,2|0,0:0|0:0,0:0:0:0:
208,288,79036,1,8,0:0:0:0:
300,288,79297,1,0,0:0:0:0:
380,328,79558,6,0,P|422:340|465:328,1,90,2|0,0:0|0:0,0:0:0:0:
420,252,80080,1,8,0:0:0:0:
468,328,80340,1,0,0:0:0:0:
472,192,80601,2,0,B|400:148|348:216|348:216|288:216,1,180,2|10,0:0|0:0,0:0:0:0:
256,288,81384,1,8,0:0:0:0:
256,288,81514,1,8,0:0:0:0:
256,288,81645,1,8,0:0:0:0:
160,192,81906,5,8,0:0:0:0:
256,96,82167,1,8,0:0:0:0:
352,192,82427,1,8,0:0:0:0:
256,288,82688,1,8,0:0:0:0:
256,288,82819,1,0,0:0:0:0:
256,288,82949,1,8,0:0:0:0:
168,264,83210,2,0,B|124:260|124:260|116:252|116:252|68:248,1,90,8|0,0:0|0:0,0:0:0:0:
44,120,83732,5,4,0:0:0:0:
256,192,83862,12,0,85819,0:0:0:0:
256,192,92080,5,4,0:0:0:0:
332,160,92340,2,0,L|368:224,1,67.5000025749208,2|0,0:0|0:0,0:0:0:0:
440,188,92862,2,0,L|476:252,1,67.5000025749208,2|0,0:0|0:0,0:0:0:0:
476,328,93384,1,0,0:0:0:0:
396,348,93645,1,0,0:0:0:0:
316,328,93906,2,0,L|232:356,1,67.5000025749208,2|0,0:0|0:0,0:0:0:0:
136,316,94427,2,0,L|200:294,1,67.5000025749208,2|0,0:0|0:0,0:0:0:0:
276,268,94949,2,0,P|236:216|148:232,2,135.000005149842,2|2|0,0:0|0:0|0:0,0:0:0:0:
316,340,96254,5,8,0:0:0:0:
396,360,96514,1,0,0:0:0:0:
476,340,96775,2,0,L|496:264,1,67.5000025749208,10|0,0:0|0:0,0:0:0:0:
420,244,97297,2,0,L|400:168,1,67.5000025749208,2|0,0:0|0:0,0:0:0:0:
476,144,97819,1,10,0:0:0:0:
432,76,98080,2,0,P|392:44|288:52,1,135.000005149842,2|0,0:0|0:0,0:0:0:0:
256,100,98862,1,10,0:0:0:0:
256,100,99123,1,0,0:0:0:0:
201,40,99384,2,0,P|134:38|80:76,1,135.000005149842,0|10,0:0|0:0,0:0:0:0:
136,136,100167,1,0,0:0:0:0:
80,192,100427,5,0,0:0:0:0:
136,248,100688,1,0,0:0:0:0:
136,248,100819,1,0,0:0:0:0:
136,248,100949,2,0,B|160:272|160:272|216:272,1,67.5000025749208,10|0,0:0|0:0,0:0:0:0:
276,184,101471,2,0,B|252:160|252:160|196:160,1,67.5000025749208,2|0,0:0|0:0,0:0:0:0:
272,272,101993,1,10,0:0:0:0:
272,272,102254,1,0,0:0:0:0:
344,312,102514,6,0,P|368:332|472:300,1,135.000005149842,0|10,0:0|0:0,0:0:0:0:
404,260,103297,2,0,L|404:164,1,67.5000025749208,0|2,0:0|0:0,0:0:0:0:
452,128,103819,1,0,0:0:0:0:
372,116,104080,1,10,0:0:0:0:
315,58,104340,2,0,P|291:38|188:71,1,135.000005149842,2|2,0:0|0:0,0:0:0:0:
136,116,105123,1,10,0:0:0:0:
68,72,105384,1,0,0:0:0:0:
32,188,105645,6,0,P|68:180|116:200,1,67.5000025749208,2|0,0:0|0:0,0:0:0:0:
220,296,106167,1,10,0:0:0:0:
156,244,106427,1,0,0:0:0:0:
156,244,106949,1,0,0:0:0:0:
220,192,107210,1,10,0:0:0:0:
284,244,107471,1,0,0:0:0:0:
284,244,107601,1,0,0:0:0:0:
284,244,107732,2,0,L|364:244,1,67.5000025749208,2|0,0:0|0:0,0:0:0:0:
463,176,108254,2,0,L|396:176,1,67.5000025749208,10|0,0:0|0:0,0:0:0:0:
296,104,108775,5,2,0:0:0:0:
344,40,109036,1,0,0:0:0:0:
264,24,109297,1,10,0:0:0:0:
216,88,109558,1,0,0:0:0:0:
248,164,109819,2,0,P|276:212|252:284,1,135.000005149842,2|10,0:0|0:0,0:0:0:0:
180,320,110601,1,0,0:0:0:0:
160,328,110732,1,0,0:0:0:0:
140,336,110862,6,0,L|64:364,1,67.5000025749208,2|0,0:0|0:0,0:0:0:0:
68,236,111384,1,10,0:0:0:0:
68,236,111645,2,0,L|131:259,2,67.5000025749208,2|0|2,0:0|0:0|0:0,0:0:0:0:
24,168,112427,1,8,0:0:0:0:
68,100,112688,1,0,0:0:0:0:
112,168,112949,6,0,P|172:196|232:164,1,135.000005149842,2|8,0:0|0:0,0:0:0:0:
256,88,113732,1,2,0:0:0:0:
388,60,113993,2,0,L|256:88,1,135.000005149842,2|8,0:0|0:0,0:0:0:0:
152,212,115036,6,0,P|148:276|224:316,1,135.000005149842,2|8,0:0|0:0,0:0:0:0:
256,256,115819,1,2,0:0:0:0:
312,316,116080,2,0,P|363:276|360:212,1,135.000005149842,2|8,0:0|0:0,0:0:0:0:
216,72,117123,6,0,L|296:88,1,67.5000025749208,2|0,0:0|0:0,0:0:0:0:
356,120,117645,1,10,0:0:0:0:
424,164,117906,2,0,P|452:232|428:284,1,135.000005149842,2|0,0:0|0:0,0:0:0:0:
376,348,118688,1,8,0:0:0:0:
376,348,118949,2,0,P|351:287|379:227,1,135.000005149842,2|2,0:0|0:0,0:0:0:0:
472,92,119993,2,0,B|408:92|408:92|388:100|388:100|324:100,1,135.000005149842,2|2,0:0|0:0,0:0:0:0:
256,96,120775,1,10,0:0:0:0:
256,96,121036,1,0,0:0:0:0:
192,148,121297,6,0,P|164:184|116:208,1,67.5000025749208,2|0,0:0|0:0,0:0:0:0:
76,240,121819,2,0,L|132:320,1,67.5000025749208,10|0,0:0|0:0,0:0:0:0:
184,340,122340,1,2,0:0:0:0:
256,300,122601,1,0,0:0:0:0:
328,340,122862,1,10,0:0:0:0:
400,300,123123,2,0,P|452:272|428:196,1,135.000005149842,2|0,0:0|0:0,0:0:0:0:
400,136,123906,5,8,0:0:0:0:
176,40,124427,1,8,0:0:0:0:
336,40,124688,1,0,0:0:0:0:
256,132,124949,2,0,B|236:184|272:184|252:248,1,101.250003862381,8|0,0:0|0:0,0:0:0:0:
256,272,125471,6,0,P|176:308|88:268,1,180,4|8,0:0|0:0,0:0:0:0:
40,204,126254,2,0,L|100:92,1,90,2|0,0:0|0:0,0:0:0:0:
156,180,126775,2,0,L|216:68,1,90,2|10,0:0|0:0,0:0:0:0:
256,32,127297,1,2,0:0:0:0:
344,36,127558,2,0,P|424:56|476:164,2,180,2|10|2,0:0|0:0|0:0,0:0:0:0:
256,32,128862,1,0,0:0:0:0:
184,88,129123,1,10,0:0:0:0:
216,172,129384,1,0,0:0:0:0:
308,172,129645,6,0,L|384:116,1,90,2|0,0:0|0:0,0:0:0:0:
456,68,130167,1,10,0:0:0:0:
456,68,130427,1,0,0:0:0:0:
452,160,130688,2,0,L|308:268,1,180,2|8,0:0|0:0,0:0:0:0:
256,344,131471,1,0,0:0:0:0:
196,276,131732,6,0,P|152:260|112:280,1,90,2|0,0:0|0:0,0:0:0:0:
72,356,132254,1,10,0:0:0:0:
160,356,132514,1,0,0:0:0:0:
256,260,132775,2,0,L|256:156,1,90,2|0,0:0|0:0,0:0:0:0:
256,80,133297,1,10,0:0:0:0:
176,36,133558,1,0,0:0:0:0:
176,36,133688,1,0,0:0:0:0:
176,36,133819,6,0,L|72:36,1,90,2|0,0:0|0:0,0:0:0:0:
20,152,134340,1,8,0:0:0:0:
86,36,134601,1,0,0:0:0:0:
20,152,134862,2,0,L|110:152,1,90,2|0,0:0|0:0,0:0:0:0:
236,104,135384,1,10,0:0:0:0:
276,280,135645,1,0,0:0:0:0:
360,312,135906,6,0,L|460:332,1,90,2|0,0:0|0:0,0:0:0:0:
384,208,136427,1,8,0:0:0:0:
448,329,136688,1,0,0:0:0:0:
384,208,136949,2,0,L|295:190,1,90,2|0,0:0|0:0,0:0:0:0:
120,144,137471,1,10,0:0:0:0:
208,168,137732,1,0,0:0:0:0:
36,116,137993,6,0,P|64:68|124:40,1,90,2|0,0:0|0:0,0:0:0:0:
180,28,138514,1,8,0:0:0:0:
256,76,138775,1,0,0:0:0:0:
332,28,139036,2,0,B|384:88|384:88|412:104|412:104|476:176,1,180,2|8,0:0|0:0,0:0:0:0:
424,240,139819,1,2,0:0:0:0:
424,240,140340,5,8,0:0:0:0:
380,320,140601,2,0,B|336:320|336:320|300:360,1,90,2|8,0:0|0:0,0:0:0:0:
128,320,141123,2,0,B|172:320|172:320|208:360,1,90,2|2,0:0|0:0,0:0:0:0:
256,280,141645,1,8,0:0:0:0:
256,256,141775,1,8,0:0:0:0:
256,232,141906,1,8,0:0:0:0:
256,208,142036,1,8,0:0:0:0:
256,184,142167,6,0,L|256:84,1,90,6|0,0:0|0:0,0:0:0:0:
324,32,142688,2,0,P|380:44|404:76,1,90,10|0,0:0|0:0,0:0:0:0:
188,32,143210,2,0,P|132:44|108:76,1,90,2|0,0:0|0:0,0:0:0:0:
56,136,143732,1,10,0:0:0:0:
124,192,143993,1,0,0:0:0:0:
56,248,144254,2,0,P|64:296|184:336,2,180,2|10|2,0:0|0:0|0:0,0:0:0:0:
124,192,145558,1,0,0:0:0:0:
208,220,145819,1,10,0:0:0:0:
256,296,146080,1,0,0:0:0:0:
332,348,146340,6,0,P|380:364|444:360,1,90,2|0,0:0|0:0,0:0:0:0:
360,244,146862,2,0,P|312:228|248:232,1,90,10|0,0:0|0:0,0:0:0:0:
448,270,147384,2,0,P|487:192|449:114,1,180,2|8,0:0|0:0,0:0:0:0:
288,32,148167,6,0,P|248:109|286:187,1,180,2|0,0:0|0:0,0:0:0:0:
376,188,148949,1,10,0:0:0:0:
336,108,149210,1,0,0:0:0:0:
168,40,149471,2,0,B|124:40|124:40|72:80,1,90,2|0,0:0|0:0,0:0:0:0:
36,144,149993,1,10,0:0:0:0:
52,324,150254,1,0,0:0:0:0:
52,324,150384,1,0,0:0:0:0:
52,324,150514,6,0,P|88:298|132:291,1,90,2|0,0:0|0:0,0:0:0:0:
256,344,151036,1,8,0:0:0:0:
132,292,151297,1,0,0:0:0:0:
256,344,151558,2,0,P|304:336|352:288,1,90,2|0,0:0|0:0,0:0:0:0:
392,220,152080,1,10,0:0:0:0:
436,120,152340,1,0,0:0:0:0:
352,52,152601,6,0,L|300:160,1,90,2|0,0:0|0:0,0:0:0:0:
188,184,153123,1,8,0:0:0:0:
312,133,153384,1,0,0:0:0:0:
188,184,153645,2,0,L|148:102,1,90,2|0,0:0|0:0,0:0:0:0:
92,172,154167,1,8,0:0:0:0:
40,244,154427,1,2,0:0:0:0:
136,252,154688,6,0,L|208:352,1,90,2|0,0:0|0:0,0:0:0:0:
256,264,155210,1,8,0:0:0:0:
320,328,155471,1,0,0:0:0:0:
396,280,155732,2,0,L|464:96,1,180,2|10,0:0|0:0,0:0:0:0:
392,48,156514,1,8,0:0:0:0:
392,48,156645,1,8,0:0:0:0:
392,48,156775,1,8,0:0:0:0:
256,48,157036,6,0,P|204:52|152:92,1,90,8|8,0:0|0:0,0:0:0:0:
96,148,157558,2,0,L|40:128,2,45,8|0|8,0:0|0:0|0:0,0:0:0:0:
128,252,158080,2,0,L|80:280,2,45,8|0|8,0:0|0:0|0:0,0:0:0:0:
164,292,158471,1,0,0:0:0:0:
213,317,158601,2,0,P|265:329|300:316,1,90,8|4,0:0|0:0,0:0:0:0:
256,192,158993,12,2,160427,0:0:0:0:
440,143,167210,6,0,B|492:215|492:215|428:303,1,180,2|10,0:0|0:0,0:0:0:0:
73,288,168254,2,0,B|20:215|20:215|72:143,1,180,2|10,0:0|0:0,0:0:0:0:
144,89,169036,1,0,0:0:0:0:
219,40,169297,6,0,P|265:83|380:64,1,180,2|10,0:0|0:0,0:0:0:0:
132,192,170340,2,0,P|116:148|148:100,1,90,2|0,0:0|0:0,0:0:0:0:
133,110,170862,1,0,0:0:0:0:
188,260,171123,1,0,0:0:0:0:
336,362,171384,6,0,P|256:326|162:381,1,180,2|10,0:0|0:0,0:0:0:0:
176,22,172427,2,0,P|256:57|336:21,1,180,2|8,0:0|0:0,0:0:0:0:
424,39,173210,1,0,0:0:0:0:
424,39,173732,5,0,0:0:0:0:
464,168,173993,1,8,0:0:0:0:
332,140,174254,1,0,0:0:0:0:
460,100,174514,1,0,0:0:0:0:
368,201,174775,1,0,0:0:0:0:
328,72,175036,1,8,0:0:0:0:
464,168,175297,1,0,0:0:0:0:
288,40,175558,6,0,B|196:48|196:48|132:112,1,180,4|10,0:0|0:0,0:0:0:0:
224,344,176601,2,0,B|316:336|316:336|380:272,1,180,2|10,0:0|0:0,0:0:0:0:
420,192,177384,1,0,0:0:0:0:
444,104,177645,6,0,B|352:72|352:136|260:100,1,180,2|10,0:0|0:0,0:0:0:0:
68,280,178688,2,0,B|160:312|160:248|252:284,1,180,2|10,0:0|0:0,0:0:0:0:
312,344,179471,1,0,0:0:0:0:
392,300,179732,6,0,P|436:256|436:204,1,90,2|0,0:0|0:0,0:0:0:0:
280,148,180254,2,0,P|293:190|328:217,1,90,10|0,0:0|0:0,0:0:0:0:
464,100,180775,2,0,P|421:113|394:148,1,90,2|0,0:0|0:0,0:0:0:0:
338,76,181297,2,0,P|250:44|156:96,1,180,10|0,0:0|0:0,0:0:0:0:
64,220,182080,5,0,0:0:0:0:
36,352,182340,1,8,0:0:0:0:
164,308,182601,1,0,0:0:0:0:
228,244,182862,1,8,0:0:0:0:
96,272,183123,1,0,0:0:0:0:
184,372,183384,1,8,0:0:0:0:
312,336,183645,1,8,0:0:0:0:
312,336,183775,1,8,0:0:0:0:
312,336,183906,6,0,P|388:340|448:260,1,180,4|10,0:0|0:0,0:0:0:0:
100,176,184949,2,0,P|96:100|176:40,1,180,2|8,0:0|0:0,0:0:0:0:
192,220,185732,2,0,P|116:284|36:248,1,180,2|2,0:0|0:0,0:0:0:0:
140,108,186514,1,8,0:0:0:0:
312,156,186775,2,0,P|400:188|472:108,1,180,2|0,0:0|0:0,0:0:0:0:
384,100,187558,1,8,0:0:0:0:
456,264,187819,6,0,B|368:280|368:280|348:348|280:352,1,180,2|0,0:0|0:0,0:0:0:0:
56,264,188862,2,0,B|144:280|144:280|164:348|232:352,1,180,2|2,0:0|0:0,0:0:0:0:
335,111,189906,2,0,P|215:83|176:112,1,180,2|0,0:0|0:0,0:0:0:0:
256,156,190688,5,8,0:0:0:0:
256,248,190949,1,8,0:0:0:0:
344,264,191210,1,8,0:0:0:0:
400,192,191471,1,8,0:0:0:0:
400,192,191601,1,0,0:0:0:0:
400,192,191732,1,8,0:0:0:0:
344,120,191993,2,0,P|296:68|244:64,1,90,8|12,0:0|0:0,0:0:0:0:
144,80,192775,5,2,0:0:0:0:
68,192,193297,1,2,0:0:0:0:
144,304,193819,2,0,L|224:324,1,67.5000025749208,2|0,0:0|0:0,0:0:0:0:
228,324,194210,1,0,0:0:0:0:
248,328,194340,6,0,P|312:340|368:280,1,135.000005149842,0|2,0:0|0:0,0:0:0:0:
412,248,195123,2,0,P|432:228|440:160,1,67.5000025749208,0|2,0:0|0:0,0:0:0:0:
400,140,195645,1,0,0:0:0:0:
364,80,195906,2,0,L|288:56,1,67.5000025749208,2|0,0:0|0:0,0:0:0:0:
284,56,196297,1,0,0:0:0:0:
268,52,196427,1,2,0:0:0:0:
120,192,197210,5,2,0:0:0:0:
256,344,197993,2,0,P|276:316|316:300,1,67.5000025749208,2|0,0:0|0:0,0:0:0:0:
320,296,198384,1,0,0:0:0:0:
336,292,198514,1,0,0:0:0:0:
424,192,199036,5,2,0:0:0:0:
289,182,199558,2,2,P|253:174|213:190,1,67.5000025749208
172,256,200080,6,0,P|216:268|264:252,1,90,2|4,0:0|0:0,0:0:0:0:
256,192,212862,12,0,214949,0:0:0:0:
376,136,215471,6,0,L|296:108,1,76.5000014591217,8|2,0:0|0:0,0:0:0:0:
164,52,215993,1,8,0:0:0:0:
100,192,216254,2,0,P|104:216|96:240,3,38.2500007295609,2|0|8|0,0:0|0:0|0:0|0:0,0:0:0:0:
76,260,216775,1,8,0:0:0:0:
64,296,216906,1,0,0:0:0:0:
72,332,217036,2,0,P|108:356|156:364,1,76.5000014591217,8|4,0:0|0:0,0:0:0:0:
244,328,217558,5,0,0:0:0:0:
352,327,217819,2,0,P|396:334|432:360,1,90,10|0,0:0|0:0,0:0:0:0:
388,243,218340,2,0,P|394:199|420:163,1,90,2|0,0:0|0:0,0:0:0:0:
300,268,218862,2,0,P|264:264|216:232,1,90,10|0,0:0|0:0,0:0:0:0:
152,152,219384,6,0,B|120:112|76:108|76:108|36:24,2,180,2|10|2,0:0|0:0|0:0,0:0:0:0:
184,256,220688,1,0,0:0:0:0:
284,300,220949,1,10,0:0:0:0:
380,252,221210,1,0,0:0:0:0:
356,148,221471,6,0,L|240:120,1,90,2|0,0:0|0:0,0:0:0:0:
156,236,221993,2,0,L|272:264,1,90,10|0,0:0|0:0,0:0:0:0:
333,122,222514,2,0,P|255:82|178:123,1,180,2|8,0:0|0:0,0:0:0:0:
179,262,223297,6,0,P|256:301|334:261,1,180,2|0,0:0|0:0,0:0:0:0:
408,180,224080,1,10,0:0:0:0:
464,88,224340,1,0,0:0:0:0:
356,84,224601,2,0,L|228:68,1,90,2|0,0:0|0:0,0:0:0:0:
160,56,225123,1,10,0:0:0:0:
96,144,225384,1,0,0:0:0:0:
84,168,225514,1,0,0:0:0:0:
72,192,225645,6,0,B|52:232|52:232|76:280,1,90,2|0,0:0|0:0,0:0:0:0:
212,356,226167,1,8,0:0:0:0:
72,272,226427,1,0,0:0:0:0:
212,356,226688,2,0,B|232:316|232:316|208:268,1,90,2|0,0:0|0:0,0:0:0:0:
148,188,227210,1,10,0:0:0:0:
248,72,227471,1,0,0:0:0:0:
400,88,227732,5,2,0:0:0:0:
256,164,227993,1,0,0:0:0:0:
340,304,228254,1,8,0:0:0:0:
484,228,228514,1,0,0:0:0:0:
312,96,228775,1,2,0:0:0:0:
468,136,229036,1,0,0:0:0:0:
424,292,229297,1,10,0:0:0:0:
268,252,229558,1,0,0:0:0:0:
180,192,229819,6,0,L|88:192,1,90,2|0,0:0|0:0,0:0:0:0:
332,192,230340,2,0,L|424:192,1,90,8|0,0:0|0:0,0:0:0:0:
256,268,230862,2,0,L|256:360,2,90,2|0|10,0:0|0:0|0:0,0:0:0:0:
256,160,231645,1,8,0:0:0:0:
256,160,231775,1,8,0:0:0:0:
256,160,231906,5,8,0:0:0:0:
148,160,232167,2,0,P|96:168|64:200,1,90,8|8,0:0|0:0,0:0:0:0:
364,224,232688,2,0,P|416:216|448:184,1,90,8|8,0:0|0:0,0:0:0:0:
316,92,233210,2,0,L|344:16,2,45,8|0|8,0:0|0:0|0:0,0:0:0:0:
196,288,233732,1,8,0:0:0:0:
188,312,233862,1,0,0:0:0:0:
180,336,233993,5,4,0:0:0:0:
256,192,234254,12,0,236080,0:0:0:0:
297,172,237384,6,2,P|255:157|214:172,1,90,2|10,0:0|0:0,0:0:0:0:
174,278,237906,2,0,P|258:310|346:270,1,180,2|2,0:0|0:0,0:0:0:0:
256,192,238688,12,8,240775,0:0:0:0:
256,108,241036,6,0,L|192:240,1,135,2|0,0:0|0:0,0:0:0:0:
196,284,241558,2,0,B|272:296|272:296|296:288|296:288|376:304,1,180,2|0,0:0|0:0,0:0:0:0:
456,232,242340,6,0,P|480:164|448:104,1,135,4|0,0:0|0:0,0:0:0:0:
404,92,242862,2,0,L|289:92,1,90,10|0,0:0|0:0,0:0:0:0:
256,184,243384,1,2,0:0:0:0:
198,92,243645,2,0,L|108:92,1,90,0|8,0:0|0:0,0:0:0:0:
32,168,244167,1,0,0:0:0:0:
128,220,244427,6,0,P|168:236|208:284,1,90,2|0,0:0|0:0,0:0:0:0:
256,364,244949,1,10,0:0:0:0:
360,328,245210,1,0,0:0:0:0:
356,220,245471,1,2,0:0:0:0:
256,180,245732,6,0,L|256:288,1,90,2|8,0:0|0:0,0:0:0:0:
324,120,246254,2,0,B|300:80|300:80|256:68|212:80|212:80|188:120,1,180,2|2,0:0|0:0,0:0:0:0:
256,192,247036,12,8,248080,0:0:0:0:
256,192,248340,5,8,0:0:0:0:
256,192,248471,1,8,0:0:0:0:
256,192,248601,1,8,0:0:0:0:
324,276,248865,2,0,P|376:288|420:268,1,90,8|8,0:0|0:0,0:0:0:0:
396,168,249393,2,0,P|440:120|440:64,1,90,8|8,0:0|0:0,0:0:0:0:
340,56,249922,2,0,P|288:44|244:64,1,90,8|8,0:0|0:0,0:0:0:0:
160,36,250480,2,0,L|104:144,1,90,8|4,0:0|0:0,0:0:0:0:
256,192,251049,12,0,254049,0:0:0:0:
