osu file format v13

[General]
AudioFilename: Taylor Swift - Sparks Fly.mp3
AudioLeadIn: 0
PreviewTime: 48775
Countdown: 0
SampleSet: Normal
StackLeniency: 0.7
Mode: 0
LetterboxInBreaks: 1
WidescreenStoryboard: 1

[Editor]
DistanceSpacing: 1
BeatDivisor: 2
GridSize: 4
TimelineZoom: 0.9

[Metadata]
Title:Sparks Fly
TitleUnicode:Sparks Fly
Artist:Taylor Swift
ArtistUnicode:Taylor Swift
Creator:lShuuichi
Version:Easy
Source:
Tags:Speak Now Album electronic
BeatmapID:512249
BeatmapSetID:217648

[Difficulty]
HPDrainRate:3
CircleSize:3
OverallDifficulty:2
ApproachRate:3
SliderMultiplier:1.1
SliderTickRate:1

[Events]
//Background and Video events
0,0,"BG.jpeg",0,0
//Break Periods
2,86019,90640
2,163236,165770
2,173149,174118
2,181496,182466
2,200601,211683
//Storyboard Layer 0 (Background)
//Storyboard Layer 1 (Fail)
//Storyboard Layer 2 (Pass)
//Storyboard Layer 3 (Foreground)
//Storyboard Sound Samples
//Background Colour Transformations
3,100,163,162,255

[TimingPoints]
254,521.739130434783,4,2,1,30,1,0
254,-100,4,2,1,30,0,0
6254,-100,4,1,1,45,0,0
6514,-100,4,1,1,45,0,0
8080,-100,4,1,1,25,0,0
8601,-100,4,2,1,55,0,0
16949,-100,4,2,1,40,0,0
37688,-100,4,2,1,30,0,0
41340,-100,4,2,1,40,0,0
48254,-100,4,1,1,40,0,0
50340,-100,4,1,0,55,0,1
50862,-100,4,2,1,55,0,1
64949,-100,4,1,1,45,0,0
65471,-100,4,2,1,45,0,0
65732,-100,4,1,1,45,0,0
65993,-100,4,2,1,45,0,0
66514,-100,4,1,1,45,0,0
67036,-100,4,2,1,55,0,1
81384,-100,4,3,0,55,0,1
81645,-100,4,3,0,55,0,0
81906,-100,4,1,0,55,0,0
83732,-100,4,2,1,55,0,0
92080,-100,4,2,1,40,0,0
96123,-100,4,3,0,40,0,0
96384,-100,4,2,1,40,0,0
100297,-100,4,3,0,40,0,0
100558,-100,4,2,1,40,0,0
123906,-100,4,1,1,40,0,0
125471,-100,4,1,0,55,0,1
125993,-100,4,2,1,55,0,1
140080,-100,4,1,1,55,0,0
140601,-100,4,2,1,55,0,0
140862,-100,4,1,1,55,0,0
141123,-100,4,2,1,55,0,0
141645,-100,4,1,1,55,0,0
142167,-100,4,2,1,55,0,1
156514,-100,4,3,0,55,0,1
156775,-100,4,3,0,55,0,0
157297,-100,4,1,0,55,0,0
158862,-100,4,2,1,55,0,0
167210,-100,4,2,0,55,0,0
173732,-100,4,1,1,35,0,0
173993,-100,4,1,1,45,0,0
175538,-100,4,2,0,45,0,0
182080,-100,4,1,1,35,0,0
182340,-100,4,1,1,45,0,0
182601,-100,4,1,1,35,0,0
182862,-100,4,3,0,60,0,0
183123,-100,4,1,1,45,0,0
183384,-100,4,3,0,60,0,0
183645,-100,4,3,0,40,0,0
183906,-100,4,2,1,55,0,0
190688,-100,4,3,0,45,0,0
190949,-100,4,1,1,35,0,0
191210,-100,4,3,0,40,0,0
192775,-100,4,2,1,25,0,0
200080,-200,4,2,1,40,0,0
200601,-100,4,2,1,40,0,0
215471,-100,4,1,1,45,0,0
215732,-100,4,2,1,45,0,0
215993,-100,4,1,1,45,0,0
216254,-100,4,2,1,45,0,0
216514,-100,4,1,1,45,0,0
217297,-100,4,2,1,55,0,1
231645,-100,4,3,0,55,0,1
231906,-100,4,3,0,55,0,0
232167,-100,4,1,1,55,0,0
233993,-100,4,2,1,55,0,1
248340,-100,4,3,0,55,0,1
248601,528.639130434785,4,2,1,55,1,1
248601,-100,4,3,0,55,0,1
248865,-100,4,1,1,55,0,1
249393,-100,4,1,1,40,0,1
250214,588.229130434784,4,1,1,30,1,1
250480,645.159130434784,4,1,1,25,1,0
250802,-100,4,1,1,20,0,0
250850,799.999130434785,4,2,1,20,1,0
251049,-100,4,1,1,5,0,0

[Colours]
Combo1 : 163,250,189
Combo2 : 162,183,219
Combo3 : 224,233,163
Combo4 : 163,182,133
Combo5 : 168,163,228

[HitObjects]
112,280,254,6,0,L|244:280,1,110,2|2,0:0|0:0,0:0:0:0:
320,332,1297,2,0,L|356:332|388:332,1,55,2|0,0:0|0:0,0:0:0:0:
472,280,2080,6,0,B|472:196|472:196|452:132|384:128,1,165,4|2,0:0|0:0,0:0:0:0:
332,72,3384,2,0,L|260:72,1,55,2|0,0:0|0:0,0:0:0:0:
176,32,4167,6,0,B|140:88|140:88|112:108|112:108|76:168,1,165,4|2,0:0|0:0,0:0:0:0:
32,264,5471,2,0,L|88:280,1,55,2|0,0:0|0:0,0:0:0:0:
192,308,6254,5,0,0:0:0:0:
300,336,6775,2,0,P|380:344|460:264,1,165
480,192,8080,1,0,0:0:0:0:
416,104,8601,6,0,P|344:92|296:116,1,110,4|10,0:0|0:0,0:0:0:0:
200,104,9645,2,0,P|147:89|95:103,1,110,2|8,0:0|0:0,0:0:0:0:
64,148,10427,6,0,B|96:196|96:196|68:280|168:312,1,165,2|10,0:0|0:0,0:0:0:0:
228,328,11732,2,0,L|388:328,1,110,2|10,0:0|0:0,0:0:0:0:
392,324,12514,2,0,P|448:272|464:188,1,165,0|10,0:0|0:0,0:0:0:0:
400,100,13819,6,0,L|400:32,2,55,2|0|10,0:0|0:0|0:0,0:0:0:0:
288,100,14862,2,0,L|240:216,1,110,2|10,0:0|0:0,0:0:0:0:
153,141,15906,2,0,L|105:257,1,110,2|10,0:0|0:0,0:0:0:0:
20,308,16949,6,0,P|60:344|144:340,1,110,4|10,0:0|0:0,0:0:0:0:
204,288,17993,2,0,P|264:272|327:305,1,110,2|10,0:0|0:0,0:0:0:0:
397,350,19036,2,0,P|451:344|492:308,2,110,2|10|2,0:0|0:0|0:0,0:0:0:0:
308,288,20601,1,10,0:0:0:0:
308,288,21123,6,0,L|424:228,1,110,0|10,0:0|0:0,0:0:0:0:
452,136,22167,1,2,0:0:0:0:
364,72,22688,1,10,0:0:0:0:
312,84,22949,2,0,P|244:120|132:72,1,165,0|10,0:0|0:0,0:0:0:0:
60,60,24254,1,2,0:0:0:0:
80,168,24775,2,0,L|92:236,1,55,10|0,0:0|0:0,0:0:0:0:
104,276,25297,6,0,P|156:260|224:288,1,110,4|10,0:0|0:0,0:0:0:0:
280,356,26340,2,0,L|344:352,1,55,2|0,0:0|0:0,0:0:0:0:
352,300,26862,2,0,L|416:296,1,55,10|0,0:0|0:0,0:0:0:0:
440,252,27384,2,0,P|472:200|464:128,2,110,2|10|2,0:0|0:0|0:0,0:0:0:0:
364,176,28949,2,0,L|284:148,1,55,10|0,0:0|0:0,0:0:0:0:
256,160,29471,6,0,P|208:108|216:44,1,110,0|10,0:0|0:0,0:0:0:0:
312,40,30514,2,0,L|448:32,2,110,2|10|2,0:0|0:0|0:0,0:0:0:0:
264,64,31819,2,0,P|192:72|128:56,1,110
104,44,32601,1,2,0:0:0:0:
40,132,33123,1,10,0:0:0:0:
40,244,33645,6,0,P|64:300|148:340,1,110,4|10,0:0|0:0,0:0:0:0:
203,286,34688,2,0,P|247:274|327:295,1,110,2|8,0:0|0:0,0:0:0:0:
412,324,35732,1,2,0:0:0:0:
468,232,36254,2,0,P|476:168|448:104,2,110,10|2|10,0:0|0:0|0:0,0:0:0:0:
372,180,37819,5,2,0:0:0:0:
316,276,38340,1,8,0:0:0:0:
260,180,38862,1,2,0:0:0:0:
208,276,39384,1,8,0:0:0:0:
152,180,39906,1,2,0:0:0:0:
100,276,40427,2,0,P|56:240|44:176,2,110,8|2|8,0:0|0:0|0:0,0:0:0:0:
152,180,41993,6,0,P|196:132|196:72,1,110,2|10,0:0|0:0,0:0:0:0:
311,89,43036,2,0,P|320:142|360:180,1,110,0|10,0:0|0:0,0:0:0:0:
468,188,44080,1,0,0:0:0:0:
408,272,44601,2,0,P|376:315|323:329,2,110,10|2|10,0:0|0:0|0:0,0:0:0:0:
312,220,46167,5,2,0:0:0:0:
220,280,46688,1,10,0:0:0:0:
128,220,47210,2,0,L|32:212,2,55,2|0|10,0:0|0:0|0:0,0:0:0:0:
176,192,47993,2,0,L|204:144,1,55
256,48,48775,5,8,0:0:0:0:
364,72,49297,1,8,0:0:0:0:
288,152,49819,1,8,0:0:0:0:
392,184,50340,6,0,L|416:292,1,110,4|8,0:0|0:0,0:0:0:0:
424,348,51123,6,0,B|356:332|356:332|312:384|228:360,1,165,2|10,0:0|0:0,0:0:0:0:
268,256,52427,2,0,L|224:144,2,110,2|10|2,0:0|0:0|0:0,0:0:0:0:
200,344,53993,1,8,0:0:0:0:
108,288,54514,6,0,B|64:256|64:256|48:200,1,110,2|10,0:0|0:0,0:0:0:0:
156,172,55558,2,0,B|176:124|176:124|188:112|188:112|208:56,1,110,2|8,0:0|0:0,0:0:0:0:
310,73,56601,2,0,B|324:112|324:112|336:124|336:124|356:172,1,110,2|10,0:0|0:0,0:0:0:0:
460,204,57645,2,0,B|444:257|444:257|400:289,1,110,2|8,0:0|0:0,0:0:0:0:
304,344,58688,6,0,B|188:312|188:364|48:332,1,220,2|2,0:0|0:0,0:0:0:0:
36,240,60254,1,8,0:0:0:0:
136,192,60775,2,0,B|252:160|252:212|392:180,1,220,2|2,0:0|0:0,0:0:0:0:
436,112,62340,1,8,0:0:0:0:
356,36,62862,6,0,L|248:84,1,110,2|8,0:0|0:0,0:0:0:0:
204,100,63645,2,0,P|100:92|40:156,1,165,2|8,0:0|0:0,0:0:0:0:
32,176,64688,1,2,0:0:0:0:
92,268,65210,6,0,L|164:276,1,55,8|2,0:0|0:0,0:0:0:0:
256,288,65993,1,2,0:0:0:0:
336,216,66514,1,8,0:0:0:0:
256,140,67036,6,0,P|324:108|368:112,1,110,4|10,0:0|0:0,0:0:0:0:
448,172,68080,2,0,P|456:232|436:292,1,110,2|10,0:0|0:0,0:0:0:0:
360,352,69123,2,0,B|304:352|304:352|232:324,2,110,2|10|2,0:0|0:0|0:0,0:0:0:0:
443,278,70688,1,8,0:0:0:0:
368,200,71210,6,0,L|248:200,1,110,2|10,0:0|0:0,0:0:0:0:
148,200,72254,2,0,P|76:184|52:144,1,110,2|8,0:0|0:0,0:0:0:0:
64,104,73036,2,0,B|100:76|100:76|128:84|128:84|160:36|240:48,1,165,2|10,0:0|0:0,0:0:0:0:
316,40,74340,2,0,P|344:104|408:140,1,110,2|8,0:0|0:0,0:0:0:0:
464,192,75384,6,0,P|456:288|316:336,1,220,2|2,0:0|0:0,0:0:0:0:
256,300,76949,1,8,0:0:0:0:
156,344,77471,2,0,P|61:296|47:191,1,220,2|2,0:0|0:0,0:0:0:0:
96,92,79036,1,8,0:0:0:0:
204,80,79558,6,0,P|248:120|300:128,1,110,2|8,0:0|0:0,0:0:0:0:
348,108,80340,2,0,P|408:180|376:260,1,165,2|10,0:0|0:0,0:0:0:0:
312,320,81645,5,8,0:0:0:0:
200,320,82167,1,8,0:0:0:0:
164,216,82688,1,8,0:0:0:0:
256,152,83210,1,8,0:0:0:0:
344,216,83732,5,4,0:0:0:0:
256,192,83993,12,0,85819,0:0:0:0:
320,320,92080,5,4,0:0:0:0:
272,292,92340,6,0,P|212:276|152:304,1,110
80,356,93384,2,0,P|60:284|84:228,2,110,0|0|0,0:0|0:0|0:0,0:0:0:0:
168,290,94949,1,0,0:0:0:0:
185,181,95471,2,0,P|255:144|326:180,1,165,0|8,0:0|0:0,0:0:0:0:
396,264,96775,6,0,P|448:236|464:180,1,110,10|2,0:0|0:0,0:0:0:0:
432,84,97819,2,0,P|384:56|316:68,1,110,10|0,0:0|0:0,0:0:0:0:
256,148,98862,1,10,0:0:0:0:
184,64,99384,2,0,P|129:60|83:87,1,110,0|10,0:0|0:0,0:0:0:0:
160,168,100427,6,0,P|192:228|120:352,1,220,8|0,0:0|0:0,0:0:0:0:
84,248,101993,1,10,0:0:0:0:
48,144,102514,2,0,P|100:72|236:84,1,220,0|2,0:0|0:0,0:0:0:0:
320,128,104080,1,8,0:0:0:0:
360,168,104340,6,0,P|400:248|364:308,1,165,2|10,0:0|0:0,0:0:0:0:
280,236,105645,2,0,B|240:212|220:240|220:240|192:212|192:212|120:244|84:176,1,220,2|0,0:0|0:0,0:0:0:0:
56,88,107210,1,10,0:0:0:0:
156,40,107732,1,0,0:0:0:0:
256,88,108254,1,10,0:0:0:0:
356,136,108775,6,0,L|488:124,2,110,2|8|2,0:0|0:0|0:0,0:0:0:0:
320,240,110340,1,8,0:0:0:0:
284,344,110862,2,0,L|152:356,2,110,2|8|2,0:0|0:0|0:0,0:0:0:0:
392,328,112427,1,8,0:0:0:0:
480,260,112949,6,0,B|436:208|372:220|372:220|304:120,1,220,2|0,0:0|0:0,0:0:0:0:
256,48,114514,1,8,0:0:0:0:
192,140,115036,2,0,B|137:222|137:222|73:210|29:262,1,220,2|0,0:0|0:0,0:0:0:0:
120,328,116601,1,8,0:0:0:0:
224,296,117123,6,0,L|344:324,1,110,2|8,0:0|0:0,0:0:0:0:
440,344,118167,1,2,0:0:0:0:
480,244,118688,1,8,0:0:0:0:
448,140,119210,2,0,P|400:108|336:112,1,110,2|8,0:0|0:0,0:0:0:0:
370,216,120254,2,0,P|316:214|272:184,1,110,2|8,0:0|0:0,0:0:0:0:
256,76,121297,5,2,0:0:0:0:
160,128,121819,1,10,0:0:0:0:
160,236,122340,1,2,0:0:0:0:
256,292,122862,1,8,0:0:0:0:
308,312,123123,2,0,P|392:336|480:296,1,165,2|8,0:0|0:0,0:0:0:0:
476,200,124427,5,8,0:0:0:0:
452,92,124949,1,8,0:0:0:0:
344,88,125471,2,0,L|220:184,1,110,4|0,0:0|0:0,0:0:0:0:
212,184,126254,6,0,P|116:172|52:224,1,165,2|10,0:0|0:0,0:0:0:0:
152,272,127558,2,0,P|196:288|288:248,2,110,2|10|2,0:0|0:0|0:0,0:0:0:0:
76,192,129123,1,8,0:0:0:0:
96,84,129645,6,0,P|160:60|216:72,1,110,2|8,0:0|0:0,0:0:0:0:
312,64,130688,2,0,P|366:60|415:82,1,110,2|10,0:0|0:0,0:0:0:0:
452,188,131732,2,0,L|392:300,1,110,2|8,0:0|0:0,0:0:0:0:
316,356,132775,1,2,0:0:0:0:
256,264,133297,1,8,0:0:0:0:
196,356,133819,6,0,P|124:352|124:220,1,220,2|2,0:0|0:0,0:0:0:0:
204,168,135384,1,8,0:0:0:0:
256,264,135906,2,0,P|348:316|444:260,1,220,2|2,0:0|0:0,0:0:0:0:
476,164,137471,1,8,0:0:0:0:
404,80,137993,6,0,P|344:72|272:92,1,110,2|8,0:0|0:0,0:0:0:0:
260,124,138775,2,0,P|168:152|88:104,1,165,2|8,0:0|0:0,0:0:0:0:
68,88,139819,1,2,0:0:0:0:
44,196,140340,6,0,L|80:268,1,55,8|2,0:0|0:0,0:0:0:0:
124,340,141123,1,2,0:0:0:0:
180,244,141645,1,8,0:0:0:0:
236,340,142167,6,0,P|300:356|344:336,1,110,4|10,0:0|0:0,0:0:0:0:
388,240,143210,2,0,P|324:224|280:244,1,110,2|10,0:0|0:0,0:0:0:0:
176,244,144254,2,0,P|116:212|104:144,2,110,2|8|2,0:0|0:0|0:0,0:0:0:0:
256,168,145819,1,8,0:0:0:0:
336,244,146340,6,0,P|396:212|408:144,1,110,2|8,0:0|0:0,0:0:0:0:
348,84,147384,2,0,P|280:84|232:48,1,110,2|8,0:0|0:0,0:0:0:0:
204,28,148167,2,0,B|168:72|168:72|128:96|128:96|72:168,1,165,2|10,0:0|0:0,0:0:0:0:
56,248,149471,2,0,P|104:280|164:312,1,110,2|8,0:0|0:0,0:0:0:0:
256,332,150514,6,0,B|364:292|364:364|484:328,1,220,2|2,0:0|0:0,0:0:0:0:
420,232,152080,1,8,0:0:0:0:
472,136,152601,2,0,B|364:103|364:175|256:135,1,220,2|2,0:0|0:0,0:0:0:0:
160,84,154167,1,8,0:0:0:0:
144,192,154688,6,0,P|160:264|220:296,1,110,2|8,0:0|0:0,0:0:0:0:
228,248,155471,2,0,P|284:220|392:268,1,165,2|10,0:0|0:0,0:0:0:0:
304,332,156775,5,8,0:0:0:0:
416,332,157297,1,8,0:0:0:0:
452,228,157819,1,8,0:0:0:0:
364,164,158340,1,8,0:0:0:0:
272,228,158862,5,4,0:0:0:0:
256,192,159123,12,0,163036,0:0:0:0:
256,328,167210,5,2,0:0:0:0:
152,296,167732,1,8,0:0:0:0:
152,184,168254,1,2,0:0:0:0:
256,148,168775,1,8,0:0:0:0:
320,240,169297,2,0,P|392:256|436:224,1,110,2|8,0:0|0:0,0:0:0:0:
472,144,170340,2,0,P|400:128|356:160,1,110,2|8,0:0|0:0,0:0:0:0:
320,240,171384,5,2,0:0:0:0:
208,240,171906,1,8,0:0:0:0:
208,132,172427,1,2,0:0:0:0:
320,132,172949,1,8,0:0:0:0:
80,272,175558,5,2,0:0:0:0:
172,336,176080,1,8,0:0:0:0:
260,272,176601,1,2,0:0:0:0:
224,168,177123,1,8,0:0:0:0:
112,168,177645,2,0,P|96:100|124:56,1,110,2|8,0:0|0:0,0:0:0:0:
208,120,178688,2,0,P|224:188|196:232,1,110,2|8,0:0|0:0,0:0:0:0:
244,324,179732,6,0,L|312:324,2,55,2|0|10,0:0|0:0|0:0,0:0:0:0:
312,236,180775,2,0,L|376:236,2,55,2|0|10,0:0|0:0|0:0,0:0:0:0:
145,102,183906,6,0,P|93:178|182:294,1,220,2|0,0:0|0:0,0:0:0:0:
366,282,185993,2,0,P|419:192|367:102,1,220,2|0,0:0|0:0,0:0:0:0:
152,52,188080,6,0,L|76:160,1,110,2|8,0:0|0:0,0:0:0:0:
44,244,189123,2,0,P|104:280|172:256,1,110,2|8,0:0|0:0,0:0:0:0:
232,216,190167,1,2,0:0:0:0:
472,344,192254,6,0,B|364:296|364:384|224:328,1,220,2|0,0:0|0:0,0:0:0:0:
92,192,194340,2,0,B|204:156|204:236|320:188,1,220,2|0,0:0|0:0,0:0:0:0:
468,44,196427,6,0,B|360:92|360:4|220:60,2,220,2|2|0,0:0|0:0|0:0,0:0:0:0:
256,192,213123,12,0,215210,0:0:0:0:
292,80,216254,5,2,0:0:0:0:
392,128,216775,1,2,0:0:0:0:
412,236,217297,6,0,P|360:252|308:236,1,110,4|10,0:0|0:0,0:0:0:0:
200,236,218340,2,0,P|148:251|96:235,1,110,2|10,0:0|0:0,0:0:0:0:
152,140,219384,2,0,L|216:32,2,110,2|8|2,0:0|0:0|0:0,0:0:0:0:
96,236,220949,1,8,0:0:0:0:
148,332,221471,6,0,P|200:348|256:328,1,110,2|8,0:0|0:0,0:0:0:0:
340,268,222514,2,0,L|428:144,1,110,2|8,0:0|0:0,0:0:0:0:
436,132,223297,2,0,P|348:160|260:104,1,165,2|10,0:0|0:0,0:0:0:0:
228,40,224601,2,0,B|172:40|172:40|108:72,1,110,2|8,0:0|0:0,0:0:0:0:
56,152,225645,6,0,P|96:268|208:308,1,220,2|2,0:0|0:0,0:0:0:0:
256,228,227210,1,8,0:0:0:0:
333,307,227732,2,0,P|427:255|456:152,1,220,2|2,0:0|0:0,0:0:0:0:
400,56,229297,1,8,0:0:0:0:
308,117,229819,6,0,P|256:133|186:100,1,110,2|8,0:0|0:0,0:0:0:0:
112,56,230862,1,2,0:0:0:0:
56,152,231384,2,0,P|36:204|72:268,1,110,10|8,0:0|0:0,0:0:0:0:
116,344,232427,1,8,0:0:0:0:
228,344,232949,1,8,0:0:0:0:
320,280,233471,1,8,0:0:0:0:
256,192,233993,5,4,0:0:0:0:
256,192,234254,12,0,236080,0:0:0:0:
256,192,238167,12,0,240254,0:0:0:0:
256,80,240775,5,8,0:0:0:0:
256,192,241297,1,2,0:0:0:0:
256,304,241819,1,8,0:0:0:0:
256,192,242340,12,0,244427,0:0:0:0:
260,276,246514,6,0,B|288:220|360:252|376:128|312:80|256:140|256:140|200:80|140:136|156:216|208:216,1,440,2|8,0:0|0:0,0:0:0:0:
156,316,249129,5,8,0:0:0:0:
256,364,249658,1,8,0:0:0:0:
356,316,250186,1,8,0:0:0:0:
256,192,250850,12,0,254049,0:0:0:0:
