osu file format v14

[General]
AudioFilename: Shake it off.mp3
AudioLeadIn: 0
PreviewTime: 29075
Countdown: 0
SampleSet: Soft
StackLeniency: 0.4
Mode: 0
LetterboxInBreaks: 0
WidescreenStoryboard: 0

[Editor]
Bookmarks: 200,6200,12200,15200,18200,19700,20075,20450,20825,21200,22700,23075,23450,23825,24200,25700,27200,28700,30200,33200,36200,39200,40325,41450,41825,42200,48200,54200,57200,60200,61700,63200,64700,65450,66200,67700,68075,68450,68825,69200,70700,71075,71450,71825,72200,73700,74825,75012,75200,77075,77450,77825,78200,78950,79325,79700,80075,80450,81950,82325,82700,83075,83450,84950,85325,85700,86075,86450,87200,88325,89075,90200,91700,93200,94700,97700,100700,102650,103775,115775,127775
DistanceSpacing: 0.9
BeatDivisor: 4
GridSize: 4
TimelineZoom: 1

[Metadata]
Title:Shake it off
TitleUnicode:Shake it off
Artist:Taylor Swift
ArtistUnicode:Taylor Swift
Creator:Patchouli
Version:Inshake
Source:
Tags:
BeatmapID:765682
BeatmapSetID:346930

[Difficulty]
HPDrainRate:6
CircleSize:5
OverallDifficulty:8
ApproachRate:9
SliderMultiplier:1.8
SliderTickRate:2

[Events]
//Background and Video events
0,0,"51293495_p0.jpg",0,0
//Break Periods
//Storyboard Layer 0 (Background)
//Storyboard Layer 1 (Fail)
//Storyboard Layer 2 (Pass)
//Storyboard Layer 3 (Foreground)
//Storyboard Sound Samples

[TimingPoints]
200,375,4,2,0,60,1,0
293,-100,4,2,1,60,0,0
3106,-100,4,2,0,60,0,0
3293,-100,4,2,1,60,0,0
6106,-100,4,2,0,60,0,0
6293,-100,4,2,1,60,0,0
9106,-100,4,2,0,60,0,0
9293,-100,4,2,1,60,0,0
12106,-100,4,2,0,60,0,0
12293,-100,4,2,1,60,0,0
12668,-100,4,1,2,50,0,0
12856,-100,4,2,1,60,0,0
13418,-100,4,2,1,40,0,0
13606,-100,4,2,1,60,0,0
14918,-100,4,2,1,50,0,0
15106,-100,4,2,0,60,0,0
15293,-100,4,2,1,60,0,0
15668,-100,4,1,2,40,0,0
15856,-100,4,2,1,60,0,0
16418,-100,4,1,2,40,0,0
16606,-100,4,2,1,60,0,0
18106,-100,4,2,0,60,0,0
18293,-100,4,2,1,60,0,0
18481,-100,4,2,2,40,0,0
18668,-100,4,1,2,40,0,0
18856,-100,4,2,1,60,0,0
21106,-100,4,2,0,60,0,0
21293,-100,4,2,1,60,0,0
21481,-100,4,2,2,40,0,0
21668,-100,4,2,1,60,0,0
24106,-100,4,2,0,60,0,0
24293,-100,4,2,1,60,0,0
26731,-100,4,2,1,80,0,0
27106,-100,4,2,0,60,0,0
27293,-100,4,2,1,60,0,0
30106,-100,4,2,0,60,0,0
30200,-100,4,2,1,60,0,1
30293,-100,4,2,1,60,0,1
33106,-100,4,2,0,60,0,1
33293,-100,4,2,1,60,0,1
36106,-100,4,2,0,60,0,1
36293,-100,4,2,1,60,0,1
39106,-100,4,2,0,60,0,1
39293,-100,4,2,1,60,0,1
39668,-100,4,1,2,40,0,1
39856,-100,4,2,1,60,0,1
42200,-100,4,2,1,30,0,0
48106,-100,4,2,0,40,0,0
48293,-100,4,2,1,60,0,0
51106,-100,4,2,0,60,0,0
51293,-100,4,2,1,60,0,0
54106,-100,4,2,0,60,0,0
54293,-100,4,2,1,60,0,0
57106,-100,4,2,0,60,0,0
57293,-100,4,2,1,60,0,0
59356,-100,4,2,1,80,0,0
60012,-100,4,2,0,60,0,0
60293,-100,4,2,1,60,0,0
60481,-100,4,2,2,40,0,0
60668,-100,4,1,2,60,0,0
60856,-100,4,2,1,60,0,0
63106,-100,4,2,0,60,0,0
63293,-100,4,2,1,60,0,0
65543,-100,4,1,2,40,0,0
65731,-100,4,2,1,80,0,0
66106,-100,4,2,0,60,0,0
66293,-100,4,2,1,60,0,0
69106,-100,4,2,0,60,0,0
69293,-100,4,2,1,60,0,0
69481,-100,4,2,2,60,0,0
69668,-100,4,2,1,60,0,0
72106,-100,4,2,0,60,0,0
72293,-100,4,2,1,60,0,0
78106,-100,4,2,0,60,0,0
78200,-100,4,2,1,60,0,1
78293,-100,4,2,1,60,0,1
81106,-100,4,2,0,60,0,1
81293,-100,4,2,1,60,0,1
83543,-100,4,1,2,60,0,1
83731,-100,4,2,1,60,0,1
84106,-100,4,2,0,60,0,1
84293,-100,4,2,1,60,0,1
87106,-100,4,2,0,60,0,1
87293,-100,4,2,1,60,0,1
88418,-100,4,1,2,60,0,1
88606,-100,4,2,1,60,0,1
90106,-100,4,2,0,60,0,1
90200,-100,4,2,1,60,0,0
90293,-100,4,2,1,60,0,0
93106,-100,4,2,0,60,0,0
93293,-100,4,2,1,60,0,0
96106,-100,4,2,0,60,0,0
96293,-100,4,2,1,60,0,0
98543,-100,4,1,2,60,0,0
98731,-100,4,2,1,60,0,0
99106,-100,4,2,0,60,0,0
99293,-100,4,2,1,60,0,0
100700,545.454545454546,4,2,1,60,1,0
102063,600,4,2,1,60,1,0
102556,-100,4,2,1,80,0,0
102650,375,4,2,1,60,1,0
103681,-100,4,2,0,60,0,0
103775,375,4,2,1,60,1,1
103868,-100,4,2,1,60,0,1
106681,-100,4,2,0,60,0,1
106962,-100,4,2,1,60,0,1
109681,-100,4,2,0,60,0,1
109868,-100,4,2,1,60,0,1
112681,-100,4,2,0,60,0,1
112868,-100,4,2,1,60,0,1
113243,-100,4,1,2,60,0,1
113431,-100,4,2,1,60,0,1
115681,-100,4,2,0,60,0,1
115868,-100,4,2,1,60,0,1
116243,-100,4,1,2,60,0,1
116431,-100,4,2,1,60,0,1
118306,-100,4,3,2,60,0,1
118493,-100,4,2,1,60,0,1
118681,-100,4,2,0,60,0,1
118868,-100,4,2,1,60,0,1
119243,-100,4,1,2,60,0,1
119431,-100,4,2,1,60,0,1
121681,-100,4,2,0,60,0,1
121868,-100,4,2,1,60,0,1
122243,-100,4,1,2,60,0,1
122431,-100,4,2,1,60,0,1
124681,-100,4,2,0,60,0,1
124868,-100,4,2,1,60,0,1
125243,-100,4,1,2,40,0,1
125431,-100,4,2,1,60,0,1
127775,-100,4,2,1,60,0,1

[Colours]
Combo1 : 255,128,192
Combo2 : 128,128,255
Combo3 : 255,128,0
Combo4 : 0,255,255
Combo5 : 128,0,255

[HitObjects]
88,88,200,6,0,B|88:224|88:224|120:260,1,180,4|8,0:0|0:0,0:0:0:0:
172,316,762,1,4,0:0:0:0:
324,260,1137,2,0,L|224:260,1,90,0|8,0:0|0:0,0:0:0:0:
234,260,1512,1,4,0:0:0:0:
360,336,1700,2,0,P|400:292|364:188,1,180,4|8,0:0|0:0,0:0:0:0:
147,188,2262,1,0,0:0:0:0:
165,39,2450,2,0,L|196:124,1,90,0|4,0:0|0:0,0:0:0:0:
276,336,2825,2,0,L|312:248,1,90,8|0,0:0|0:0,0:0:0:0:
432,80,3200,6,0,B|364:80|364:80|324:104|324:104|256:104,1,180,4|8,0:0|0:0,0:0:0:0:
176,104,3762,1,4,0:0:0:0:
384,152,4137,2,0,L|416:244,2,90,0|8|4,0:0|0:0|0:0,0:0:0:0:
352,372,4700,2,0,B|332:308|332:308|288:276|288:276|268:216,1,180,4|8,0:0|0:0,0:0:0:0:
284,140,5262,1,0,0:0:0:0:
208,276,5450,2,0,P|160:280|96:268,1,90,0|4,0:0|0:0,0:0:0:0:
40,252,5825,2,0,P|72:220|88:172,1,90,8|4,0:0|0:0,0:0:0:0:
52,58,6200,6,0,L|141:99,1,90,4|0,0:0|0:0,0:0:0:0:
150,173,6575,1,8,0:0:0:0:
150,173,6950,1,0,0:0:0:0:
114,337,7325,2,0,L|83:241,1,90,8|4,0:0|0:0,0:0:0:0:
38,185,7700,2,0,B|56:129|56:129|109:143|109:143|136:66,1,180,4|8,0:0|0:0,0:0:0:0:
130,80,8262,5,0,0:0:0:0:
234,19,8450,1,0,0:0:0:0:
187,132,8637,1,4,0:0:0:0:
161,14,8825,1,8,0:0:0:0:
248,86,9012,1,0,0:0:0:0:
478,160,9200,6,0,L|378:204,1,90,4|0,0:0|0:0,0:0:0:0:
343,258,9575,1,8,0:0:0:0:
343,258,9950,1,0,0:0:0:0:
266,31,10325,2,0,L|247:128,1,90,8|4,0:0|0:0,0:0:0:0:
233,199,10700,2,0,B|222:254|222:254|158:248|158:248|144:322,1,180,4|8,0:0|0:0,0:0:0:0:
54,37,11450,2,0,L|64:138,1,90,0|4,0:0|0:0,0:0:0:0:
136,92,11825,2,0,L|125:196,1,90,8|4,0:0|0:0,0:0:0:0:
112,328,12200,6,0,L|208:288,1,90,4|0,0:0|0:0,0:0:0:0:
405,317,12575,2,0,B|356:304|356:304|320:252|320:252|256:236,1,180,8|0,0:0|0:0,0:0:0:0:
220,164,13137,1,0,0:0:0:0:
268,100,13325,2,0,L|360:88,1,90,8|4,0:0|0:0,0:0:0:0:
212,40,13700,6,0,B|120:56|160:120|56:136,1,180,4|8,0:0|0:0,0:0:0:0:
65,134,14450,2,0,L|104:232,1,90,0|4,0:0|0:0,0:0:0:0:
236,336,14825,2,0,L|211:245,1,90,8|4,0:0|0:0,0:0:0:0:
383,336,15200,6,0,L|408:245,1,90,4|0,0:0|0:0,0:0:0:0:
395,168,15575,2,0,B|378:113|378:113|319:128|319:128|296:55,1,180,8|0,0:0|0:0,0:0:0:0:
71,153,16325,2,0,P|11:114|28:188,1,180,8|4,0:0|0:0,0:0:0:0:
83,335,17075,2,0,B|83:272|135:258|135:258|191:318|237:268,1,180,8|0,0:0|0:0,0:0:0:0:
358,243,17825,1,8,0:0:0:0:
390,171,18200,6,0,P|422:283|290:203,1,360,4|0,0:0|0:0,0:0:0:0:
285,211,19325,1,8,0:0:0:0:
156,135,19512,1,4,0:0:0:0:
33,225,19700,6,0,B|42:248|65:251|65:251|94:230|126:238,1,90,4|0,0:0|0:0,0:0:0:0:
479,225,20075,6,0,B|470:248|447:251|447:251|418:230|403:235,1,90,8|0,0:0|0:0,0:0:0:0:
215,353,20450,6,0,B|241:350|259:329|259:329|256:304|282:269,1,90,0|4,0:0|0:0,0:0:0:0:
304,99,20825,5,8,0:0:0:0:
405,235,21012,1,0,0:0:0:0:
360,44,21200,6,8,B|402:1|465:29|480:80|439:134|390:119|390:119|345:200,1,270,4|4,0:0|0:0,0:0:0:0:
329,242,21950,1,0,0:0:0:0:
224,118,22325,1,8,0:0:0:0:
246,340,22700,6,0,P|230:296|194:267,1,90,4|0,0:0|0:0,0:0:0:0:
35,260,23075,6,0,B|57:272|63:297|63:297|79:316|114:314,1,90,8|0,0:0|0:0,0:0:0:0:
289,208,23450,5,0,0:0:0:0:
161,186,23637,1,4,0:0:0:0:
374,347,23825,6,0,B|394:328|375:306|375:306|351:286|367:248,1,90,8|4,0:0|0:0,0:0:0:0:
425,48,24200,6,0,P|454:133|420:218,1,180,4|8,0:0|0:0,0:0:0:0:
423,214,24762,1,4,0:0:0:0:
365,107,24950,1,0,0:0:0:0:
287,85,25137,1,0,0:0:0:0:
135,154,25325,2,0,L|224:136,1,90,8|4,0:0|0:0,0:0:0:0:
106,222,25700,6,0,B|80:262|80:262|40:268|40:268|10:322|81:356,2,180,4|8|0,0:0|0:0|0:0,0:0:0:0:
163,59,26825,2,0,L|187:152,1,90,8|8,0:0|0:0,0:0:0:0:
253,337,27200,6,0,L|156:306,1,90,4|0,0:0|0:0,0:0:0:0:
52,270,27575,1,8,0:0:0:0:
123,80,27762,1,4,0:0:0:0:
164,193,27950,2,0,B|208:207|208:207|221:200|221:200|257:215,1,90
247,211,28512,1,4,0:0:0:0:
293,43,28700,5,4,0:0:0:0:
453,150,29075,2,0,B|457:183|457:183|435:215|435:215|423:249,1,90,8|0,0:0|0:0,0:0:0:0:
387,301,29450,2,0,B|378:270|378:270|353:242|353:242|345:210,1,90,8|0,0:0|0:0,0:0:0:0:
281,108,29825,1,8,0:0:0:0:
233,173,30012,1,0,0:0:0:0:
166,219,30200,6,0,B|66:251|26:232|24:198|43:169|70:182|88:195|57:229,1,180,4|8,0:0|0:0,0:0:0:0:
180,301,30762,1,4,0:0:0:0:
226,131,30950,6,0,P|270:116|313:124,1,90
479,255,31325,6,0,P|434:240|404:209,1,90,8|4,0:0|0:0,0:0:0:0:
347,8,31700,6,0,P|374:45|380:88,1,90,4|0,0:0|0:0,0:0:0:0:
307,284,32075,6,0,P|307:237|327:198,1,90,8|0,0:0|0:0,0:0:0:0:
503,83,32450,6,0,P|475:120|436:139,1,90,0|4,0:0|0:0,0:0:0:0:
222,114,32825,5,8,0:0:0:0:
308,284,33012,1,4,0:0:0:0:
52,345,33200,6,0,B|79:301|79:301|128:320|150:286|150:286|139:238,1,180,4|8,0:0|0:0,0:0:0:0:
86,176,33762,1,4,0:0:0:0:
123,28,33950,6,0,L|147:117,1,90
123,28,34325,6,0,L|147:117,1,90,8|4,0:0|0:0,0:0:0:0:
123,28,34700,6,0,L|147:117,1,90,4|0,0:0|0:0,0:0:0:0:
123,28,35075,6,0,L|147:117,1,90,8|0,0:0|0:0,0:0:0:0:
123,28,35450,6,0,L|147:117,1,90,0|4,0:0|0:0,0:0:0:0:
168,350,35825,6,0,L|192:261,1,90,8|4,0:0|0:0,0:0:0:0:
225,109,36200,5,4,0:0:0:0:
302,86,36387,1,0,0:0:0:0:
305,126,36481,1,0,0:0:0:0:
285,161,36575,1,8,0:0:0:0:
207,184,36762,1,4,0:0:0:0:
318,230,36950,6,0,L|414:244,1,90
197,265,37325,6,0,L|101:279,1,90,8|4,0:0|0:0,0:0:0:0:
376,317,37700,6,0,L|472:331,1,90,4|0,0:0|0:0,0:0:0:0:
173,355,38075,6,0,L|77:369,1,90,8|0,0:0|0:0,0:0:0:0:
244,177,38450,6,0,B|232:136|265:125|243:76,1,90,0|4,0:0|0:0,0:0:0:0:
199,33,38825,5,8,0:0:0:0:
427,219,39012,1,0,0:0:0:0:
423,294,39200,6,0,B|409:331|376:343|376:343|339:306,1,90,4|0,0:0|0:0,0:0:0:0:
298,278,39575,2,0,B|303:245|341:237|341:237|361:203|357:168|357:168|341:108,1,180,8|0,0:0|0:0,0:0:0:0:
297,60,40137,1,0,0:0:0:0:
163,91,40325,6,0,B|208:118|208:118|227:117|239:98,1,90,8|4,0:0|0:0,0:0:0:0:
133,163,40700,2,0,B|103:175|103:175|184:190|216:275,1,180,4|8,0:0|0:0,0:0:0:0:
231,343,41262,1,0,0:0:0:0:
29,241,41450,6,0,B|45:260|67:264|67:264|97:245|126:256,1,90,8|0,0:0|0:0,0:0:0:0:
90,331,41825,6,0,B|113:343|137:340|137:340|149:313|184:298,1,90,8|0,0:0|0:0,0:0:0:0:
296,47,42200,6,0,L|337:151,1,90
391,182,42575,1,0,0:0:0:0:
391,182,42950,1,0,0:0:0:0:
336,334,43325,2,0,L|299:240,1,90
197,47,43700,2,0,P|150:126|55:130,1,180
5,85,44262,1,0,0:0:0:0:
78,50,44450,1,0,0:0:0:0:
129,223,44637,1,0,0:0:0:0:
116,303,44825,1,0,0:0:0:0:
50,256,45012,1,0,0:0:0:0:
241,348,45200,6,0,L|366:320,1,90
382,266,45575,1,0,0:0:0:0:
382,266,45950,1,0,0:0:0:0:
374,21,46325,2,0,L|349:119,1,90
296,167,46700,2,0,B|279:225|279:225|259:290|223:300|177:288,1,180
125,249,47262,1,0,0:0:0:0:
195,209,47450,1,0,0:0:0:0:
229,363,47637,1,0,0:0:0:0:
44,281,47825,1,0,0:0:0:0:
220,136,48012,1,0,0:0:0:0:
398,219,48200,6,0,P|419:260|424:308,1,90,4|0,0:0|0:0,0:0:0:0:
401,381,48575,1,8,0:0:0:0:
312,218,48762,2,0,B|331:118|389:171|399:66,1,180,4|0,0:0|0:0,0:0:0:0:
319,83,49325,2,0,L|232:64,1,90,8|4,0:0|0:0,0:0:0:0:
0,111,49700,2,0,L|87:130,1,90,4|0,0:0|0:0,0:0:0:0:
167,114,50075,1,8,0:0:0:0:
167,114,50450,5,0,0:0:0:0:
216,310,50637,1,4,0:0:0:0:
264,130,50825,1,8,0:0:0:0:
313,326,51012,1,0,0:0:0:0:
362,150,51200,6,0,P|401:123|390:206,1,180,4|8,0:0|0:0,0:0:0:0:
323,207,51762,1,4,0:0:0:0:
266,264,51950,2,0,P|250:309|246:359,1,90
208,210,52325,2,0,L|183:121,1,90,8|4,0:0|0:0,0:0:0:0:
123,69,52700,2,0,P|85:150|104:241,1,180,4|8,0:0|0:0,0:0:0:0:
205,298,53262,1,0,0:0:0:0:
395,282,53450,2,0,P|358:256|315:248,1,90,0|4,0:0|0:0,0:0:0:0:
363,131,53825,2,0,P|318:135|279:156,1,90,8|4,0:0|0:0,0:0:0:0:
202,37,54200,6,0,L|173:130,1,90,4|0,0:0|0:0,0:0:0:0:
151,200,54575,1,8,0:0:0:0:
113,358,54762,2,0,B|75:312|109:276|109:276|151:308|194:269,1,180,4|0,0:0|0:0,0:0:0:0:
395,90,55325,2,0,P|351:102|314:129,1,90,8|4,0:0|0:0,0:0:0:0:
278,200,55700,1,4,0:0:0:0:
290,279,55887,1,0,0:0:0:0:
339,343,56075,1,8,0:0:0:0:
418,358,56262,1,0,0:0:0:0:
339,343,56450,5,0,0:0:0:0:
290,279,56637,1,4,0:0:0:0:
278,200,56825,1,8,0:0:0:0:
232,133,57012,1,0,0:0:0:0:
156,101,57200,6,0,B|87:74|17:105|17:105|49:133,1,180,4|8,0:0|0:0,0:0:0:0:
232,133,57762,2,0,P|282:123|317:99,1,90,4|0,0:0|0:0,0:0:0:0:
361,35,58137,1,0,0:0:0:0:
440,53,58325,1,8,0:0:0:0:
299,184,58512,1,4,0:0:0:0:
300,102,58700,6,0,P|230:55|159:114,1,180,4|8,0:0|0:0,0:0:0:0:
97,154,59262,1,4,0:0:0:0:
30,107,59450,5,8,0:0:0:0:
475,206,59825,1,8,0:0:0:0:
39,337,60200,6,0,B|27:279|82:277|82:277|133:347|133:347|225:363|221:287|221:287|259:239,1,360,4|0,0:0|0:0,0:0:0:0:
345,108,61325,1,8,0:0:0:0:
345,108,61700,6,0,B|383:210|383:210|408:221|408:221|429:273,1,180,4|8,0:0|0:0,0:0:0:0:
424,261,62450,1,0,0:0:0:0:
199,225,62637,1,4,0:0:0:0:
303,327,62825,1,8,0:0:0:0:
270,113,63012,1,0,0:0:0:0:
135,84,63200,6,0,B|116:171|116:171|78:211|100:282,1,180,4|8,0:0|0:0,0:0:0:0:
168,229,63950,1,0,0:0:0:0:
388,285,64325,1,8,0:0:0:0:
72,96,64700,6,0,B|136:96|136:96|152:108|152:108|168:108|168:108|184:96|184:96|248:96,1,180,4|8,0:0|0:0,0:0:0:0:
328,144,65262,1,0,0:0:0:0:
411,93,65450,6,0,B|447:93|447:93|473:72|473:72|457:50|457:50|428:72|428:72|361:72,1,180,0|8,0:3|0:3,0:3:0:0:
432,224,66200,6,0,B|360:275|387:349|387:349|404:344|404:344|409:382|428:386,1,180,4|8,2:0|2:0,2:0:0:0:
454,297,66762,1,4,2:0:0:0:
320,275,66950,2,0,B|272:265|272:265|263:251|268:224|268:224|210:208|155:263,1,180,0|8,2:0|2:0,2:0:0:0:
140,308,67512,1,4,0:0:0:0:
50,171,67700,6,0,P|87:189|146:175,1,90,4|0,0:0|0:0,0:0:0:0:
301,30,68075,6,0,L|256:108,1,90,8|0,0:0|0:0,0:0:0:0:
170,319,68450,6,0,B|192:300|192:300|222:293|222:293|248:276,1,90,0|4,0:0|0:0,0:0:0:0:
500,320,68825,6,0,B|478:301|478:301|448:294|448:294|422:277,1,90,8|0,0:0|0:0,0:0:0:0:
337,164,69200,6,0,B|391:58|443:23|443:23|457:87|353:74,1,270,4|4,0:0|0:0,0:0:0:0:
253,51,69950,2,0,B|194:36|194:36|140:30|106:61|97:111,1,180,0|8,0:0|0:0,0:0:0:0:
76,261,70512,1,4,0:0:0:0:
152,244,70700,6,0,P|132:204|96:176,1,90,4|0,0:0|0:0,0:0:0:0:
168,352,71075,6,0,B|168:334|168:334|219:309|219:309|220:289,1,90,8|0,0:0|0:0,0:0:0:0:
312,268,71450,6,0,B|348:280|348:280|348:292|348:292|388:312,1,90,0|4,0:0|0:0,0:0:0:0:
485,244,71825,6,0,B|473:229|473:229|421:201|421:201|410:177,1,90,8|0,0:0|0:0,0:0:0:0:
356,44,72200,6,0,B|384:88|360:132|360:132|348:132|348:132|328:168|356:216,1,180,4|8,0:0|0:0,0:0:0:0:
440,120,72762,2,0,P|356:88|264:104,1,180,4|0,0:0|0:0,0:0:0:0:
152,136,73325,2,0,P|156:188|145:227,1,90,8|4,0:0|0:0,0:0:0:0:
83,340,73700,6,0,B|103:289|190:268|243:299,1,180,4|8,0:0|0:0,0:0:0:0:
308,340,74262,1,0,0:0:0:0:
381,305,74450,2,0,P|401:267|406:216,1,90,0|4,0:0|0:0,0:0:0:0:
392,140,74825,5,8,0:0:0:0:
63,161,75012,5,8,0:0:0:0:
130,205,75200,6,0,L|155:300,1,90
200,180,75575,1,0,0:0:0:0:
225,102,75763,1,0,0:0:0:0:
305,97,75950,1,0,0:0:0:0:
358,157,76137,2,0,B|388:265|319:224|341:337,1,180
487,242,77075,6,0,B|439:241|439:241|390:218,1,90,8|0,0:0|0:0,0:0:0:0:
25,242,77450,6,0,B|73:241|73:241|122:218,1,90,8|0,0:0|0:0,0:0:0:0:
257,335,77825,6,0,B|251:303|251:303|261:283|261:283|256:244,1,90,8|0,0:0|0:0,0:0:0:0:
106,67,78200,6,0,P|199:75|144:131,1,180,4|8,0:0|0:0,0:0:0:0:
65,150,78762,1,4,0:0:0:0:
36,259,78950,6,0,L|137:227,1,90
62,271,79325,6,0,L|163:239,1,90,8|4,0:0|0:0,0:0:0:0:
128,50,79700,6,0,B|146:96|146:96|200:122,1,90,4|0,0:0|0:0,0:0:0:0:
111,69,80075,6,0,B|129:115|129:115|183:141,1,90,8|0,0:0|0:0,0:0:0:0:
326,252,80450,5,0,0:0:0:0:
380,192,80637,2,0,P|393:143|370:85,2,90,4|8|0,0:0|0:0|0:0,0:0:0:0:
315,143,81200,6,0,P|216:140|149:83,1,180,4|8,0:0|0:0,0:0:0:0:
205,28,81762,1,4,0:0:0:0:
234,146,81950,6,0,B|213:179|213:179|199:183|199:183|163:225,1,90
57,314,82325,6,0,B|85:314|85:314|121:302|121:302|158:302,1,90,8|4,0:0|0:0,0:0:0:0:
263,239,82700,6,0,B|296:273|296:273|304:274|304:274|323:310|318:329,1,90,4|0,0:0|0:0,0:0:0:0:
481,234,83075,6,0,B|402:234|402:234|388:219,1,90,8|0,0:0|0:0,0:0:0:0:
295,112,83450,6,0,P|374:73|462:118,1,180,0|8,0:0|0:0,0:0:0:0:
453,107,84012,1,4,0:0:0:0:
372,171,84200,5,4,0:0:0:0:
256,309,84387,2,0,L|256:359,2,45,0|0|8,0:0|0:0|0:0,0:0:0:0:
140,171,84762,1,4,0:0:0:0:
104,46,84950,6,0,B|136:39|172:72|160:110,1,90
0,132,85325,6,0,P|44:130|83:154,1,90,8|4,0:0|0:0,0:0:0:0:
26,283,85700,6,0,B|39:244|65:235|113:248,1,90,4|0,0:0|0:0,0:0:0:0:
209,107,86075,6,0,P|232:149|282:152,1,90,8|0,0:0|0:0,0:0:0:0:
416,144,86450,5,0,0:0:0:0:
381,217,86637,2,0,B|368:267|368:267|324:304,2,90,4|8|0,0:0|0:0|0:0,0:0:0:0:
340,146,87200,5,4,0:0:0:0:
131,177,87387,1,0,0:0:0:0:
131,177,87481,1,0,0:0:0:0:
131,177,87575,1,0,0:0:0:0:
247,208,87762,2,0,B|228:123|228:123|190:106|190:106|173:48,1,180,4|0,0:0|0:0,0:0:0:0:
44,164,88325,6,0,B|49:237|105:268|180:243,1,180,8|4,0:0|0:0,0:0:0:0:
263,63,89075,6,0,L|361:92,1,90,8|0,0:0|0:0,0:0:0:0:
484,168,89450,2,0,L|377:184,1,90,8|0,0:0|0:0,0:0:0:0:
98,223,89825,2,0,L|193:246,1,90,8|0,0:0|0:0,0:0:0:0:
353,332,90200,6,0,P|393:312|419:269,1,90,4|0,0:0|0:0,0:0:0:0:
356,221,90575,1,8,0:0:0:0:
409,160,90762,2,0,B|391:102|391:102|332:53|264:73,1,180,4|0,0:0|0:0,0:0:0:0:
46,109,91325,2,0,B|66:122|66:122|106:123|106:123|129:134,1,90,8|4,0:0|0:0,0:0:0:0:
228,204,91700,6,0,P|216:252|188:288,1,90,4|0,0:0|0:0,0:0:0:0:
112,300,92075,1,8,0:0:0:0:
220,352,92262,1,0,0:0:0:0:
192,136,92450,1,0,0:0:0:0:
220,352,92637,1,4,0:0:0:0:
184,240,92825,2,0,P|228:240|272:256,1,90,8|0,0:0|0:0,0:0:0:0:
409,332,93200,6,0,B|381:333|367:318|367:318|339:280,1,90,4|0,0:0|0:0,0:0:0:0:
278,62,93575,2,0,B|251:107|251:107|231:122|214:113,1,90,8|4,0:0|0:0,0:0:0:0:
140,85,93950,2,0,P|68:62|104:132,1,180,0|8,0:0|0:0,0:0:0:0:
67,298,94512,1,4,0:0:0:0:
216,204,94700,6,0,B|172:216|172:216|120:200,1,90,4|0,0:0|0:0,0:0:0:0:
272,144,95075,2,0,P|316:136|360:148,1,90,8|0,0:0|0:0,0:0:0:0:
416,204,95450,1,0,0:0:0:0:
332,64,95637,1,4,0:0:0:0:
272,260,95825,1,8,0:0:0:0:
128,184,96012,1,4,0:0:0:0:
188,48,96200,6,0,B|204:88|204:88|188:132,1,90,4|0,0:0|0:0,0:0:0:0:
48,164,96575,2,0,B|32:124|32:124|48:80,1,90,8|4,0:0|0:0,0:0:0:0:
320,72,96950,2,0,B|355:123|355:123|340:173|340:173|381:235,1,180,0|8,0:0|0:0,0:0:0:0:
421,287,97512,5,4,0:0:0:0:
242,349,97700,6,0,B|235:314|235:314|247:277|247:277|235:238,1,90
91,287,98075,2,0,B|103:263|103:263|141:233|141:233|152:207,1,90,8|0,0:0|0:0,0:0:0:0:
148,31,98450,2,0,P|205:103|309:106,1,180,0|8,0:0|0:0,0:0:0:0:
361,79,99012,1,0,0:0:0:0:
459,192,99200,6,0,B|414:250|414:250|388:243,1,90,4|0,0:0|0:0,0:0:0:0:
324,211,99575,1,8,0:0:0:0:
397,245,99762,1,4,0:0:0:0:
379,324,99950,6,0,B|367:321|367:321|366:331|366:331|339:327|339:327|294:346|294:346|226:327|226:327|194:327,1,180,0|8,0:0|0:0,0:0:0:0:
65,299,100512,1,4,0:0:0:0:
116,276,100700,5,0,0:0:0:0:
152,260,101245,1,0,0:0:0:0:
176,252,101790,1,0,0:0:0:0:
155,46,102650,5,8,0:0:0:0:
163,59,103025,5,8,0:0:0:0:
173,74,103400,6,0,B|190:100|190:100|215:100|215:100|239:132,1,90,8|0,0:0|0:0,0:0:0:0:
184,192,103775,6,0,L|88:192,1,90,4|0,0:0|0:0,0:0:0:0:
236,268,104150,1,8,0:0:0:0:
312,124,104337,1,4,0:0:0:0:
456,200,104525,2,0,P|456:248|432:296,1,90
56,200,104900,2,0,P|56:248|80:296,1,90,8|4,0:0|0:0,0:0:0:0:
380,228,105275,2,0,P|356:269|311:299,1,90,4|0,0:0|0:0,0:0:0:0:
132,228,105650,2,0,P|156:269|200:299,1,90,8|0,0:0|0:0,0:0:0:0:
300,220,106025,2,0,P|256:232|208:216,1,90,0|4,0:0|0:0,0:0:0:0:
168,152,106400,1,8,0:0:0:0:
96,340,106587,1,0,0:0:0:0:
52,77,106775,6,0,B|88:117|88:117|88:177|88:177|136:233,1,180,4|8,0:0|0:0,0:0:0:0:
212,228,107337,1,4,0:0:0:0:
276,280,107525,2,0,P|284:324|276:368,1,90
291,109,107900,2,0,P|310:68|343:37,1,90,8|4,0:0|0:0,0:0:0:0:
178,238,108275,2,0,P|139:259|94:265,1,90,4|0,0:0|0:0,0:0:0:0:
345,200,108650,2,0,P|390:206|429:227,1,90,8|0,0:0|0:0,0:0:0:0:
188,132,109025,2,0,P|155:101|136:61,1,90,0|4,0:0|0:0,0:0:0:0:
68,104,109400,2,0,L|48:196,1,90,8|4,0:0|0:0,0:0:0:0:
20,308,109775,5,4,0:0:0:0:
124,244,109962,1,0,0:0:0:0:
124,244,110056,1,0,0:0:0:0:
124,244,110150,1,8,0:0:0:0:
188,348,110337,1,4,0:0:0:0:
192,120,110525,2,0,L|216:216,1,90
324,56,110900,2,0,L|296:156,1,90,8|4,0:0|0:0,0:0:0:0:
40,108,111275,2,0,L|128:176,1,90,4|0,0:0|0:0,0:0:0:0:
472,92,111650,2,0,L|384:140,1,90,8|0,0:0|0:0,0:0:0:0:
256,340,112025,2,0,L|256:240,1,90,0|4,0:0|0:0,0:0:0:0:
256,88,112400,1,8,0:0:0:0:
256,168,112587,1,0,0:0:0:0:
184,208,112775,6,0,P|140:224|88:216,1,90,4|0,0:0|0:0,0:0:0:0:
256,88,113150,2,0,P|344:92|424:144,1,180,8|0,0:0|0:0,0:0:0:0:
256,88,113712,1,0,0:0:0:0:
300,156,113900,2,0,P|312:200|304:252,1,90,8|4,0:0|0:0,0:0:0:0:
120,324,114275,2,0,P|92:240|132:136,1,180,4|8,0:0|0:0,0:0:0:0:
176,100,114837,1,4,0:0:0:0:
128,32,115025,1,8,0:0:0:0:
228,216,115400,1,8,0:0:0:0:
401,86,115775,6,0,B|411:132|411:132|397:176,1,90,4|0,0:0|0:0,0:0:0:0:
338,316,116150,2,0,P|256:286|161:326,1,180,8|0,0:0|0:0,0:0:0:0:
109,367,116712,1,0,0:0:0:0:
101,286,116900,2,0,B|80:248|80:248|81:190,1,90,8|4,0:0|0:0,0:0:0:0:
85,25,117275,6,0,B|84:72|84:72|93:102|125:100,1,90,4|0,0:0|0:0,0:0:0:0:
267,77,117650,1,8,0:0:0:0:
382,127,117837,2,0,B|461:125|481:53|481:53|449:17,2,180,0|4|0,0:0|0:0|0:0,0:0:0:0:
142,155,118775,6,0,B|92:155|92:155|52:173,1,90,4|0,0:0|0:0,0:0:0:0:
199,210,119150,2,0,B|169:240|169:240|66:241|66:241|31:276,1,180,8|0,0:0|0:0,0:0:0:0:
70,341,119712,1,0,0:0:0:0:
145,311,119900,2,0,L|236:310,1,90,8|4,0:0|0:0,0:0:0:0:
425,343,120275,1,4,0:0:0:0:
395,267,120462,2,0,B|391:235|391:235|401:204|401:204|396:163,1,90,0|8,0:0|0:0,0:0:0:0:
475,182,120837,2,0,P|431:108|346:119,1,180,0|4,0:0|0:0,0:0:0:0:
257,272,121400,2,0,B|235:261|232:238|232:238|232:181,1,90,8|0,0:0|0:0,0:0:0:0:
251,44,121775,6,0,B|197:44|197:44|159:66,1,90,4|0,0:0|0:0,0:0:0:0:
36,155,122150,2,0,B|59:161|59:161|96:147|96:147|157:162|157:162|189:185|190:216,1,180,8|0,0:0|0:0,0:0:0:0:
143,271,122712,1,0,0:0:0:0:
283,333,122900,2,0,B|242:342|242:342|197:331,1,90,8|4,0:0|0:0,0:0:0:0:
243,264,123275,2,0,B|284:255|284:255|329:266,1,90
394,316,123650,1,8,0:0:0:0:
459,158,123837,6,0,L|486:68,1,90
451,142,124212,6,0,L|481:41,1,90,4|8,0:0|0:0,0:0:0:0:
442,128,124587,5,0,0:0:0:0:
343,27,124775,2,0,B|301:61|301:61|242:61,1,90,4|0,0:0|0:0,0:0:0:0:
219,128,125150,2,0,B|114:128|114:128|65:145|55:185,1,180,8|0,0:0|0:0,0:0:0:0:
109,237,125712,1,0,0:0:0:0:
53,295,125900,2,0,P|81:327|136:331,1,90,8|4,0:0|0:0,0:0:0:0:
355,276,126275,5,4,0:0:0:0:
387,202,126462,2,0,L|376:110,1,90,0|8,0:0|0:0,0:0:0:0:
325,50,126837,5,0,0:0:0:0:
59,169,127212,5,4,0:0:0:0:
292,351,127587,5,0,0:0:0:0:
256,192,127775,12,0,129462,0:0:0:0:
