osu file format v9

[General]
AudioFilename: 101-taylor_swift-mine.mp3
AudioLeadIn: 0
PreviewTime: 49474
Countdown: 0
SampleSet: Soft
StackLeniency: 0.6
Mode: 0
LetterboxInBreaks: 0

[Editor]
Bookmarks: 17986,139970
DistanceSpacing: 1.6
BeatDivisor: 4
GridSize: 4

[Metadata]
Title:Mine
Artist:Taylor Swift
Creator:The 08 team_Bourdon
Version:Hard
Source:
Tags:Speak Now kino77 Roddie Heatkai

[Difficulty]
HPDrainRate:6
CircleSize:5
OverallDifficulty:8
ApproachRate:7
SliderMultiplier:2.15
SliderTickRate:2

[Events]
//Background and Video events
Video,63,"Taylor Swift - Mine.avi"
0,0,"Mine.jpg"
//Break Periods
2,65541,66921
2,132979,139070
2,176416,183450
//Storyboard Layer 0 (Background)
//Storyboard Layer 1 (Fail)
//Storyboard Layer 2 (Pass)
//Storyboard Layer 3 (Foreground)
//Storyboard Sound Samples
//Background Colour Transformations
3,100,255,255,255

[TimingPoints]
1871,495.867768595041,4,2,1,84,1,0
31499,-100,4,2,0,20,0,0
31747,-100,4,2,1,84,0,0
36953,-100,4,1,1,65,0,0
37201,-100,4,2,1,84,0,0
40920,-100,4,1,1,55,0,0
41168,-100,4,2,1,84,0,0
44888,-100,4,1,1,56,0,0
45136,-100,4,2,1,84,0,0
46870,-100,4,1,1,56,0,0
47118,-100,4,2,1,85,0,0
49474,-100,4,2,0,84,0,1
49846,-100,4,1,1,65,0,1
50094,-100,4,2,1,84,0,1
50837,-100,4,1,1,66,0,1
51085,-100,4,2,1,84,0,1
51829,-100,4,1,1,66,0,1
52077,-100,4,2,1,84,0,1
52821,-100,4,1,1,65,0,1
53069,-100,4,2,1,84,0,1
53813,-100,4,1,1,65,0,1
54060,-100,4,2,1,84,0,1
54804,-100,4,1,1,65,0,1
55052,-100,4,2,1,84,0,1
55796,-100,4,1,1,65,0,1
56044,-100,4,2,1,84,0,1
57534,-100,4,2,1,84,0,1
57780,-100,4,1,1,65,0,1
58027,-100,4,2,1,84,0,1
58771,-100,4,1,1,66,0,1
59019,-100,4,2,1,84,0,1
59763,-100,4,1,1,65,0,1
60011,-100,4,2,1,84,0,1
60755,-100,4,1,1,65,0,1
61003,-100,4,2,1,84,0,1
61746,-100,4,1,1,65,0,1
61994,-100,4,2,1,84,0,1
62738,-100,4,1,1,65,0,1
62986,-100,4,2,1,84,0,1
65342,-100,4,2,1,84,0,0
83565,-100,4,2,0,64,0,0
84060,-100,4,2,0,45,0,0
84556,-100,4,2,0,25,0,0
84804,-100,4,2,1,84,0,0
101044,-100,4,2,0,84,0,1
101169,-100,4,2,0,84,0,1
101416,-100,4,1,1,66,0,1
101664,-100,4,2,1,84,0,1
102408,-100,4,1,1,66,0,1
102655,-100,4,2,1,84,0,1
103399,-100,4,1,1,66,0,1
103647,-100,4,2,1,84,0,1
104391,-100,4,1,1,66,0,1
104639,-100,4,2,1,84,0,1
105383,-100,4,1,1,66,0,1
105631,-100,4,2,1,84,0,1
106374,-100,4,1,1,66,0,1
106622,-100,4,2,1,84,0,1
107366,-100,4,1,1,66,0,1
107614,-100,4,2,1,84,0,1
109350,-100,4,1,1,66,0,1
109598,-100,4,2,1,84,0,1
110341,-100,4,1,1,66,0,1
110589,-100,4,2,1,84,0,1
111333,-100,4,1,1,66,0,1
111581,-100,4,2,1,84,0,1
112325,-100,4,1,1,66,0,1
112573,-100,4,2,1,84,0,1
113317,-100,4,1,1,66,0,1
113565,-100,4,2,1,84,0,1
114308,-100,4,1,1,66,0,1
114556,-100,4,2,1,84,0,1
116913,-100,4,2,1,84,0,1
117284,-100,4,1,1,66,0,1
117532,-100,4,2,1,84,0,1
118275,-100,4,1,1,66,0,1
118523,-100,4,2,1,84,0,1
119267,-100,4,1,1,66,0,1
119515,-100,4,2,1,84,0,1
120259,-100,4,1,1,66,0,1
120507,-100,4,2,1,84,0,1
121251,-100,4,1,1,66,0,1
121498,-100,4,2,1,84,0,1
122242,-100,4,1,1,66,0,1
122490,-100,4,2,1,84,0,1
122986,-100,4,1,1,66,0,1
123978,-100,4,2,1,84,0,1
124226,-100,4,1,1,66,0,1
124474,-100,4,2,1,84,0,1
125217,-100,4,1,1,66,0,1
125465,-100,4,2,1,84,0,1
126209,-100,4,1,1,66,0,1
126457,-100,4,2,1,84,0,1
127201,-100,4,1,1,66,0,1
127449,-100,4,2,1,84,0,1
128193,-100,4,1,1,66,0,1
128441,-100,4,2,1,84,0,1
129184,-100,4,1,1,66,0,1
129432,-100,4,2,1,84,0,1
130176,-100,4,1,1,66,0,1
130424,-100,4,2,1,84,0,1
132780,-100,4,2,1,84,0,0
145052,-100,4,1,1,45,0,0
146044,-100,4,1,1,61,0,0
146540,-100,4,1,1,65,0,0
147036,-100,4,1,1,64,0,0
147532,-100,4,1,1,84,0,0
148275,-100,4,2,1,84,0,0
151995,-100,4,2,1,55,0,0
152243,-100,4,2,1,84,0,0
156457,-100,4,1,1,84,0,0
156705,-100,4,2,1,84,0,0
172945,-100,4,2,0,25,0,0
176044,-100,4,2,1,84,0,0
189804,-100,4,2,1,54,0,0
190300,-100,4,2,1,65,0,0
190796,-100,4,2,1,84,0,0
193647,-100,4,2,1,65,0,0
193895,-100,4,2,1,84,0,0
200218,-100,4,2,1,84,0,1
200342,-100,4,2,1,84,0,0
200589,-100,4,1,1,65,0,0
200837,-100,4,2,1,84,0,0
201581,-100,4,1,1,65,0,0
201829,-100,4,2,1,84,0,0
202573,-100,4,1,1,65,0,0
202821,-100,4,2,1,84,0,0
203566,-100,4,1,1,65,0,0
203814,-100,4,2,1,84,0,0
204556,-100,4,1,1,65,0,0
204804,-100,4,2,1,84,0,0
205548,-100,4,1,1,65,0,0
205796,-100,4,2,1,84,0,0
206540,-100,4,1,1,65,0,0
206788,-100,4,2,1,84,0,0
207036,-100,4,1,1,65,0,0
207779,-100,4,2,1,84,0,0
208276,-100,4,2,1,84,0,0
208523,-100,4,1,1,65,0,0
208771,-100,4,2,1,84,0,0
209515,-100,4,1,1,65,0,0
209763,-100,4,2,1,84,0,0
210507,-100,4,1,1,65,0,0
210755,-100,4,2,1,84,0,0
211499,-100,4,1,1,65,0,0
211747,-100,4,2,1,84,0,0
212490,-100,4,1,1,65,0,0
212738,-100,4,2,1,84,0,0
213482,-100,4,1,1,65,0,0
213730,-100,4,2,1,84,0,0
214474,-100,4,1,1,65,0,0
215218,-100,4,2,1,84,0,0
215466,-100,4,1,1,65,0,0
215713,-100,4,2,1,84,0,0
216086,-100,4,2,1,85,0,1
216210,-100,4,2,1,84,0,0
216457,-100,4,1,1,65,0,0
216705,-100,4,2,1,84,0,0
217449,-100,4,1,1,65,0,0
217697,-100,4,2,1,84,0,0
218441,-100,4,1,1,65,0,0
218689,-100,4,2,1,84,0,0
219680,-100,4,1,1,65,0,0
220176,-100,4,2,1,84,0,0
221912,-100,4,2,1,55,0,0
222903,-100,4,2,0,35,0,0
223399,-100,4,2,0,25,0,0
223895,-100,4,2,0,20,0,0
224515,-200,4,2,0,5,0,0

[Colours]
Combo1 : 255,216,176
Combo2 : 255,170,255
Combo3 : 207,159,255
Combo4 : 171,171,214

[HitObjects]
88,72,17986,1,0
212,36,18234,1,8
184,160,18482,1,0
184,160,18730,2,0,B|228:196|252:248,1,107.5
380,260,19226,1,8
300,364,19474,1,0
250,244,19722,2,0,B|284:196|280:140,1,107.5
356,40,20218,1,8
100,44,20713,5,0
56,164,20961,1,0
184,140,21209,2,0,B|288:176,2,107.5,8|0|0
328,356,22201,6,0,B|264:340|296:312|224:292,1,107.5,8|0
120,344,22697,2,0,B|136:280|164:312|184:240,1,107.5,0|0
132,136,23193,2,0,B|196:152|164:180|236:200,1,107.5,8|0
340,148,23689,1,0
340,148,23937,2,0,B|324:212|296:180|276:252,2,107.5,0|8|0
356,276,24680,2,0,B|416:288|472:272,3,107.5,0|8|8|8
460,144,25672,1,0
332,144,25920,5,0
332,144,26168,2,0,B|304:92|244:72,1,107.5,8|0
276,204,26664,2,0,B|220:192|168:204,1,107.5,0|0
268,284,27160,2,0,B|360:348|472:340,1,215,8|0
396,92,28151,5,8
272,52,28399,1,0
168,128,28647,2,0,B|108:131|65:158,1,107.5,0|8
92,284,29143,2,0,B|76:232|25:202,1,107.5,8|0
156,220,29639,5,0
268,156,29887,1,0
380,216,30135,2,0,B|340:248|316:312,1,107.5,8|0
448,296,30631,1,0
488,172,30879,1,0
380,100,31127,1,8
380,216,31375,2,0,B|332:180|300:124,1,107.5
68,44,32118,6,0,B|112:84|128:148,1,107.5
228,212,32614,1,0
308,112,32862,1,0
380,216,33110,2,0,B|440:228|484:276,1,107.5,2|0
376,352,33606,5,2
188,176,34102,2,0,B|144:212|88:244,2,107.5,2|0|0
272,48,34846,1,0
272,48,35094,5,2
328,164,35342,2,0,B|308:217|277:273,1,107.5,0|0
160,304,35837,1,0
52,232,36085,1,0
96,112,36333,1,0
224,112,36581,2,0,B|276:80|344:76,1,107.5,2|0
260,192,37077,2,0,B|320:195|378:231,1,107.5,8|0
252,288,37573,6,0,B|212:328|156:332,2,107.5,2|0|0
136,232,38317,2,0,B|80:241|32:212,2,107.5,2|0|0
120,104,39061,1,2
120,104,39309,2,0,B|68:80|45:28,2,107.5,0|0|0
244,76,40052,5,0
372,100,40300,1,0
372,228,40548,2,0,B|332:276|264:292,1,107.5,0|0
204,184,41044,1,8
204,184,41292,1,0
80,212,41540,2,0,B|12:233|29:320|127:339|145:261,1,215,2|0
240,172,42284,2,0,B|307:150|290:63|192:44|174:122,1,215,2|0
52,84,43028,5,0
168,28,43275,2,0,B|260:-8|332:48|344:128,1,215,2|0
316,236,44019,1,0
316,236,44267,1,0
220,148,44515,2,0,B|108:176|44:276,1,215,2|8
288,364,45507,5,2
120,64,46003,2,0,B|68:48|-12:64,2,107.5,2|0|0
464,68,46994,1,8
292,84,47242,2,0,B|272:136|312:140|284:204,1,107.5
104,368,47986,5,0
28,264,48234,1,0
144,320,48482,2,0,B|132:260|80:232,1,107.5
200,288,48978,2,0,B|260:256|248:172|148:132|116:212,1,215,0|4
376,128,49970,6,0,B|336:92|272:76,1,107.5,8|0
164,132,50466,1,0
268,204,50713,1,0
148,248,50961,2,0,B|188:284|252:300,1,107.5,8|0
360,356,51457,2,0,B|416:348|416:280|416:280|480:260|472:172,1,215,0|8
256,52,52449,5,0
132,92,52697,1,0
128,220,52945,2,0,B|64:236|20:280,1,107.5,8|0
160,296,53441,1,0
160,296,53689,5,0
288,312,53937,2,0,B|271:270|219:230,1,107.5,8|0
196,104,54432,1,0
324,104,54680,1,0
392,212,54928,1,8
392,212,55176,2,0,B|380:272|340:312,1,107.5
112,52,55920,5,8
284,44,56168,1,0
420,152,56416,1,0
96,264,56912,2,0,B|168:344|292:344,1,215,12|4
256,88,57904,6,0,B|220:132|220:188,1,107.5,8|0
332,120,58399,1,0
332,248,58647,1,0
408,92,58895,2,0,B|444:136|444:192,1,107.5,8|0
332,248,59391,5,0
212,292,59639,1,0
168,172,59887,2,0,B|212:132|284:128,1,107.5,8|0
164,52,60383,1,0
48,108,60631,1,0
112,220,60879,2,0,B|72:264|68:336,2,107.5,8|0|4
228,160,61623,5,0
356,160,61871,2,0,B|408:180|452:232,1,107.5,8|0
440,352,62366,1,0
96,352,62862,1,8
256,48,63358,5,0
96,352,63854,1,8
440,352,64350,1,0
324,28,64846,2,0,B|340:80|256:128|160:80|192:16,1,215,12|4
396,300,67821,5,8
416,108,68193,1,8
372,104,68317,1,8
256,48,68565,1,8
140,108,68813,5,8
124,148,68937,1,8
128,192,69061,1,0
256,204,69309,1,4
32,328,69804,6,0,B|24:276|56:212,1,107.5,8|0
124,116,70300,1,0
248,80,70548,1,0
372,116,70796,1,8
372,116,71044,1,0
456,216,71292,6,0,B|482:268|474:320,1,107.5,0|0
372,240,71788,1,8
308,352,72036,2,0,B|256:376|196:352,1,107.5
140,240,72532,1,0
44,324,72780,2,0,B|24:264|48:168|120:128,1,215
240,120,73523,6,0,B|288:96|312:40,1,107.5,0|8
320,172,74019,1,0
448,164,74267,2,0,B|400:188|376:244,2,107.5,0|0|8
320,172,75011,2,0,B|244:248,1,107.5
244,248,75507,2,0,B|168:324,1,107.5,0|8
116,204,76003,1,0
152,80,76251,2,0,B|212:64|276:84,1,107.5,0|0
148,148,76747,2,0,B|224:176|264:204|328:276,1,215,8|0
400,164,77490,5,0
412,292,77738,2,0,B|468:280|508:232,1,107.5,8|0
480,112,78234,1,0
356,76,78482,1,0
284,184,78730,2,0,B|296:240|344:280,1,107.5,8|0
216,320,79226,5,0
216,320,79474,1,0
120,236,79722,2,0,B|154:193|210:181,1,107.5,8|0
104,108,80218,2,0,B|156:93|209:115,1,107.5,0|0
328,164,80713,2,0,B|444:164,2,107.5,8|0|0
228,244,81457,6,0,B|259:288|256:345,1,107.5,0|8
160,256,81953,2,0,B|160:310|125:355,1,107.5
100,228,82449,2,0,B|68:272|14:289,1,107.5,0|8
60,168,82945,1,0
116,52,83193,6,0,B|176:84|140:96|204:128,1,107.5,4|0
304,52,83689,2,0,B|371:43|348:74|419:63,1,107.5,0|0
436,192,84185,2,0,B|412:241|344:236|344:236|316:288|248:273,1,215
128,48,85176,6,0,B|68:9|12:78|60:165|132:129,1,215,4|8
376,45,86168,2,0,B|447:8|494:96|438:164|379:126,1,215,0|8
252,112,86912,2,0,B|276:168|348:184,1,107.5
200,172,87408,6,0,B|251:196|275:244,1,107.5,0|8
148,220,87904,1,0
180,344,88151,2,0,B|131:319|103:270,1,107.5
72,144,88647,6,0,B|31:92|78:27|151:21|181:85,1,215,8|0
432,148,89639,2,0,B|472:96|425:31|352:25|322:89,1,215,8|0
192,312,90631,2,0,B|182:246|255:214|322:245|316:316,1,215,8|0
368,196,91375,5,0
256,132,91623,1,8
144,196,91871,1,0
256,132,92118,2,0,B|204:116|180:60,1,107.5
256,132,92614,2,0,B|308:116|332:60,1,107.5,8|0
388,180,93110,6,0,B|424:224|432:280,2,107.5,0|0|8
316,288,93854,1,0
188,268,94102,2,0,B|180:236|136:236|120:172,1,107.5
188,268,94598,2,0,B|196:236|240:236|256:172,1,107.5,8|0
136,132,95094,5,0
232,44,95342,2,0,B|288:60|336:112,1,107.5,0|8
236,192,95837,1,0
240,320,96085,2,0,B|296:304|344:252,1,107.5
456,232,96581,2,0,B|456:120,1,107.5,8|0
304,44,97077,6,0,B|248:56|208:104,1,107.5,4|0
48,52,97573,1,8
124,204,97821,2,0,B|89:246|33:258,2,107.5,4|0|0
280,276,98565,1,8
328,156,98813,6,0,B|348:108|416:88,1,107.5
300,20,99309,1,8
216,116,99556,1,8
280,228,99804,1,8
408,216,100052,2,8,B|460:184|472:128,1,107.5
408,216,100548,2,0,B|348:316|220:340,1,215,4|4
60,148,101540,5,8
60,148,101788,1,0
124,36,102036,1,0
252,36,102284,1,0
312,152,102532,1,8
312,152,102780,1,0
196,204,103028,6,0,B|196:316,1,107.5
320,280,103523,2,0,B|328:344|412:344|476:272|420:224,1,215,8|0
316,152,104267,1,0
188,140,104515,2,0,B|140:108|84:116,1,107.5,8|0
128,236,105011,1,0
216,328,105259,5,0
248,204,105507,1,8
332,108,105755,1,0
248,204,106003,2,0,B|248:144|276:96,1,107.5
316,224,106499,1,8
316,224,106747,2,0,B|361:185|380:133,1,107.5
52,32,107490,6,0,B|108:24|176:56,1,107.5,8|0
324,92,107986,1,0
64,312,108482,2,0,B|120:364|212:280|292:336,1,215,4|4
296,196,109226,6,0,B|356:196|420:236,1,107.5,0|8
312,128,109722,1,0
184,128,109970,1,0
100,224,110218,2,0,B|142:196|202:196,1,107.5,0|8
248,76,110713,1,0
248,204,110961,5,0
312,316,111209,1,0
184,316,111457,2,0,B|128:332|60:308,1,107.5,8|0
120,192,111953,5,0
188,84,112201,1,0
316,112,112449,2,0,B|372:140|400:200,2,107.5,8|0|4
256,224,113193,6,0,B|285:279|274:344,1,107.5,0|8
188,236,113689,1,0
80,308,113937,2,0,B|115:273|122:211,1,107.5
108,84,114432,2,0,B|72:118|65:180,1,107.5,8|0
212,88,114928,5,0
432,352,115424,1,0
88,344,115920,1,0
396,192,116416,2,0,B|376:128|284:120|224:208|296:256,1,215,4|4
472,80,117408,5,8
344,56,117656,1,0
220,92,117904,2,0,B|176:128|152:184,1,107.5
148,304,118399,1,8
148,304,118647,1,0
272,264,118895,6,0,B|316:228|340:172,1,107.5
337,179,119391,2,0,B|373:135|429:111,1,107.5,8|0
440,244,119887,1,0
440,244,120135,1,0
356,344,120383,2,0,B|244:364|128:344,1,215,8|4
104,224,121127,5,0
136,100,121375,2,0,B|176:60|240:48,1,107.5,8|0
344,112,121871,1,0
344,112,122118,1,0
348,240,122366,2,0,B|308:280|244:292,2,107.5,8|0|0
344,112,123110,5,8
236,44,123358,1,8
124,108,123606,1,8
152,232,123854,1,8
476,352,124350,1,8
152,232,124846,1,4
380,112,125342,5,8
344,236,125590,1,0
216,232,125837,1,0
180,108,126085,1,0
284,32,126333,1,8
284,32,126581,1,0
156,32,126829,6,0,B|100:64|92:128,1,107.5
24,224,127325,2,0,B|80:192|88:128,1,107.5,8|0
108,268,127821,1,0
216,340,128069,1,0
336,296,128317,2,0,B|396:280|432:232,1,107.5,8|0
416,112,128813,1,4
288,100,129061,5,0
168,52,129309,1,8
108,168,129556,1,0
216,248,129804,2,0,B|162:220|176:168|247:131|304:160|282:233,1,215,0|8
56,340,130796,5,0
400,344,131292,1,8
256,32,131788,1,0
464,304,132284,2,0,B|492:240|420:188|340:216|348:296,1,215,4|4
432,68,139970,5,0
304,88,140218,1,8
264,104,140342,1,8
240,140,140466,1,8
240,268,140713,1,8
132,200,140961,1,0
132,200,141209,2,0,B|92:244|88:308,1,107.5,8|0
4,196,141705,5,8
348,196,142201,1,8
116,304,142697,5,0
240,340,142945,1,0
352,276,143193,2,0,B|252:260|252:260|228:200|144:236,2,215,8|0|4
444,184,144432,6,0,B|416:128|360:96,1,107.5
444,184,144928,2,0,B|388:212|356:268,1,107.5,0|8
252,188,145424,1,0
152,104,145672,1,0
40,168,145920,1,0
64,296,146168,1,0
192,312,146416,1,0
320,312,146664,5,0
396,208,146912,1,0
284,144,147160,1,0
216,252,147408,1,0
104,316,147656,5,0
28,212,147904,1,0
140,148,148151,1,0
216,252,148399,2,0,B|228:196|208:132,1,107.5,4|4
336,188,148895,5,0
420,284,149143,2,0,B|364:296|304:284,1,107.5,8|0
224,256,149639,2,0,B|192:208|132:192,1,107.5
120,324,150135,1,8
16,256,150383,2,0,B|48:208|108:192,1,107.5
124,68,150879,5,0
240,124,151127,1,8
352,64,151375,1,0
392,188,151623,1,8
360,312,151871,1,0
240,268,152118,1,8
120,312,152366,1,0
76,192,152614,6,0,B|108:132|208:144|232:240|184:276,1,215,0|8
256,148,153358,1,0
320,260,153606,2,0,B|284:238|308:142|408:130|440:190,1,215,0|8
360,80,154350,5,8
320,68,154474,1,8
276,68,154598,1,8
336,180,154846,5,8
300,156,154970,1,8
260,140,155094,1,8
220,152,155218,1,8
188,180,155342,1,8
300,248,155590,5,8
332,276,155713,1,8
372,288,155837,1,8
412,272,155961,1,8
448,248,156085,1,4
168,52,156581,5,4
468,220,157077,1,8
84,260,157821,6,0,B|148:284|172:260|172:260|248:296,2,161.25,0|2|0
256,68,159061,1,8
372,124,159309,1,0
348,248,159556,2,0,B|396:272|432:332,1,107.5
348,248,160052,2,0,B|296:149|207:87,2,215,4|0|8
96,192,161540,1,0
224,212,161788,6,0,B|268:248|296:304,1,107.5,0|8
224,212,162284,2,0,B|180:248|152:304,2,107.5
228,340,163028,1,8
228,340,163275,1,0
356,336,163523,6,0,B|400:312|428:252,1,107.5,8|0
300,288,164019,2,0,B|322:243|310:177,1,107.5,4|0
220,276,164515,2,0,B|116:348|-36:224|84:20|280:112|232:212,1,430,4|0
464,52,166003,5,8
452,180,166251,2,0,B|384:172|340:216,1,107.5
336,76,166747,1,0
256,176,166994,2,0,B|256:292,1,107.5,8|0
152,204,167490,1,0
164,76,167738,2,0,B|130:41|62:49,1,107.5,0|8
28,176,168234,5,0
48,212,168358,1,0
72,248,168482,2,0,B|156:300|156:300|216:288|276:340,2,215,4|8|0
160,152,169722,6,0,B|184:208|248:224,1,107.5,0|8
272,96,170218,1,0
392,52,170466,1,0
424,176,170713,1,0
440,304,170961,2,0,B|469:366|397:423|298:346|366:290,1,215,8|8
236,324,171705,1,0
156,224,171953,2,0,B|96:208|64:152,1,107.5,8|0
256,192,172449,12,0,174928
256,364,184350,5,0
256,236,184598,2,0,B|376:236,2,107.5
300,112,185342,2,0,B|328:40|252:-4|172:44|212:132,1,215
256,232,186085,1,0
128,232,186333,5,0
96,108,186581,1,0
200,32,186829,2,0,B|316:32,1,107.5
400,120,187325,1,0
356,240,187573,1,0
256,160,187821,2,0,B|192:232|300:296|224:368,1,215,8|0
140,268,188565,6,0,B|92:228|68:172,1,107.5
140,72,189061,1,0
206,184,189309,2,0,B|188:228|140:268,1,107.5
140,140,189804,1,8
248,68,190052,5,8
356,140,190300,1,8
320,264,190548,1,8
192,264,190796,1,8
252,148,191044,1,8
352,228,191292,1,8
256,316,191540,1,8
160,228,191788,1,8
256,192,192036,12,8,193771
172,112,194267,6,0,B|180:192|136:192|136:192|172:328,1,215,0|8
340,112,195259,2,0,B|332:192|376:192|376:192|340:328,1,215,0|8
488,88,196251,2,0,B|412:12|276:24,1,215,4|8
372,120,196994,2,0,B|312:200|232:168|232:168|172:228|72:168,1,322.5,0|8
264,356,198234,5,8
136,336,198482,1,0
64,228,198730,2,0,B|72:168|132:136,1,107.5,8|0
224,224,199226,2,0,B|252:176|324:156|392:192|412:236,1,215,8|8
156,168,200218,6,0,B|188:128|252:112,1,107.5,4|0
376,108,200713,1,8
284,16,200961,1,0
168,72,201209,2,0,B|109:86|80:136,1,107.5
28,252,201705,2,0,B|86:237|113:191,1,107.5,8|0
240,208,202201,6,0,B|181:222|154:268,1,107.5
284,264,202697,2,0,B|244:309|248:362,1,107.5,8|0
352,284,203193,1,0
356,156,203441,1,0
356,156,203689,2,0,B|288:144|272:92|272:92|156:104,1,215,8|4
252,200,204432,6,0,B|288:248|360:260,2,107.5,0|8|0
304,320,205176,2,0,B|240:304|184:252|152:176,2,215,0|8|0
440,100,206664,5,8
332,28,206912,1,8
224,100,207160,1,8
268,220,207408,1,8
396,224,207656,1,8
336,336,207904,5,8
292,340,208028,1,8
248,340,208151,1,4
96,132,208647,1,8
104,248,208895,2,0,B|148:300|224:284,1,107.5
380,132,209639,1,8
368,248,209887,2,0,B|324:300|248:284,1,107.5
236,172,210383,6,0,B|236:56,1,107.5,0|8
364,52,210879,1,0
484,100,211127,1,0
456,224,211375,1,0
328,240,211623,6,0,B|336:296|280:348|196:336|168:272,2,215,4|0|8
332,112,212862,1,0
228,192,213110,2,0,B|208:143|124:131|68:183|75:235,2,215,0|8|0
440,340,214598,5,8
436,212,214846,1,8
400,188,214970,1,8
360,176,215094,1,8
260,256,215342,1,0
156,180,215590,2,0,B|92:192|44:252,1,107.5,8|0
116,112,216085,6,0,B|192:40|312:32,1,215,4|8
248,144,216829,1,0
376,168,217077,2,0,B|300:240|180:248,1,215,0|8
268,344,217821,1,0
396,320,218069,1,0
484,224,218317,1,0
476,96,218565,5,8
364,32,218813,1,0
236,36,219061,2,0,B|120:32|32:104,1,215,0|0
64,228,219804,1,8
96,256,219928,1,8
132,280,220052,6,0,B|176:332|236:312|236:312|336:336,1,215,4|8
260,228,220796,2,0,B|200:232|147:184,1,107.5
388,76,221540,5,8
216,76,221788,1,4
156,236,222036,6,0,B|56:192,1,107.5
232,184,222532,2,0,B|128:136,1,107.5
330,140,223028,6,0,B|232:185,1,107.5
406,192,223523,2,0,B|307:235,1,107.5
160,324,224019,6,0,B|106:333|52:316,1,107.5
64,232,224515,2,0,B|32:184|36:120|108:56|216:112|204:204|152:240,1,322.5
