osu file format v9

[General]
AudioFilename: 101-taylor_swift-mine.mp3
AudioLeadIn: 0
PreviewTime: 49554
Countdown: 1
SampleSet: Soft
StackLeniency: 0.7
Mode: 0
LetterboxInBreaks: 1

[Editor]
Bookmarks: 17689,33557,49424,69260,77193,85127,87483,100995,116863,132731,140664,156532,176367,192235,208102
DistanceSpacing: 0.9
BeatDivisor: 4
GridSize: 8

[Metadata]
Title:Mine
Artist:Taylor Swift
Creator:Lybydose
Version:Normal
Source:
Tags:country yeahyeahyeahhh yyy Speak Now

[Difficulty]
HPDrainRate:5
CircleSize:4
OverallDifficulty:5
ApproachRate:6
SliderMultiplier:1.36
SliderTickRate:2

[Events]
//Background and Video events
Video,0,"Taylor Swift - Mine.avi"
0,0,"BG.png"
//Break Periods
2,69463,76146
2,132734,139122
//Storyboard Layer 0 (Background)
//Storyboard Layer 1 (Fail)
//Storyboard Layer 2 (Pass)
//Storyboard Layer 3 (Foreground)
Sprite,Foreground,Centre,"lybydose.png",320,240 F,0,17694,17942,0,1 M,0,17694,221992,543,454
//Storyboard Sound Samples
//Background Colour Transformations
3,100,163,162,255

[TimingPoints]
1825,495.867768595041,4,2,1,71,1,0
19056,-100,4,1,1,50,0,0
19304,-100,4,2,1,70,0,0
20048,-100,4,1,1,50,0,0
20296,-100,4,2,1,70,0,0
22031,-100,4,1,1,51,0,0
22279,-100,4,2,1,70,0,0
23023,-100,4,1,1,50,0,0
23271,-100,4,2,1,71,0,0
24015,-100,4,1,1,51,0,0
24263,-100,4,2,1,70,0,0
25998,-100,4,1,1,50,0,0
26246,-100,4,2,1,71,0,0
26990,-100,4,1,1,49,0,0
27238,-100,4,2,1,70,0,0
27982,-100,4,1,1,50,0,0
28229,-100,4,2,1,71,0,0
28973,-100,4,1,1,51,0,0
29221,-100,4,2,1,70,0,0
30957,-100,4,1,1,50,0,0
31205,-100,4,2,1,70,0,0
32568,-100,4,2,1,40,0,0
33436,-100,4,2,1,80,0,0
36907,-100,4,1,1,61,0,0
37155,-100,4,2,1,80,0,0
40874,-100,4,1,1,61,0,0
41122,-100,4,2,1,81,0,0
44841,-100,4,1,1,60,0,0
45089,-100,4,2,1,81,0,0
49428,-76.9230769230769,4,1,1,80,0,1
65296,-100,4,2,1,80,0,0
65420,-100,4,1,1,80,0,0
65915,-100,4,2,1,80,0,0
66163,-100,4,1,1,80,0,0
66659,-100,4,2,1,80,0,0
66907,-100,4,1,1,80,0,0
69139,-100,4,2,1,79,0,0
77568,-100,4,1,1,61,0,0
77816,-100,4,2,1,79,0,0
78560,-100,4,1,1,61,0,0
78808,-100,4,2,1,79,0,0
79552,-100,4,1,1,61,0,0
79800,-100,4,2,1,79,0,0
80544,-100,4,1,1,60,0,0
80791,-100,4,2,1,80,0,0
81535,-100,4,1,1,60,0,0
81783,-100,4,2,1,80,0,0
82527,-100,4,1,1,60,0,0
82775,-100,4,2,1,80,0,0
85006,-100,4,2,1,100,0,0
85254,-100,4,1,1,79,0,0
88973,-100,4,2,1,100,0,0
89221,-100,4,1,1,79,0,0
92940,-100,4,2,1,100,0,0
93188,-100,4,1,1,79,0,0
96907,-100,4,2,1,100,0,0
97155,-100,4,1,1,79,0,0
100502,-100,4,2,1,100,0,0
100626,-100,4,1,1,70,0,0
100874,-100,4,2,1,100,0,0
100998,-76.9230769230769,4,1,1,81,0,1
116742,-76.9230769230769,4,1,1,80,0,0
116866,-76.9230769230769,4,1,1,80,0,1
132734,-100,4,1,1,80,0,0
172279,-200,4,2,2,80,0,0
172527,-200,4,1,2,80,0,0
174882,-100,4,2,1,0,0,0
175502,-100,4,2,1,40,0,0
182196,-100,4,1,1,31,0,0
184180,-100,4,2,1,80,0,0
187651,-100,4,1,1,60,0,0
187899,-100,4,2,1,79,0,0
188147,-100,4,1,1,49,0,0
189634,-100,4,1,1,80,0,0
192238,-76.9230769230769,4,1,1,90,0,1
207982,-100,4,1,1,90,0,0
208105,-76.9230769230769,4,1,1,90,0,1
221990,-76.9230769230769,4,2,1,0,0,0

[Colours]
Combo1 : 249,227,81
Combo2 : 255,136,196
Combo3 : 152,222,73
Combo4 : 96,215,227

[HitObjects]
176,120,17940,2,0,B|176:208|176:208|176:280|256:328|336:280|336:200,1,340
256,72,19676,1,0
256,208,20172,1,0
384,152,20667,2,0,B|384:240|384:240|384:296|328:352|224:328,1,272,2|0
120,312,22155,5,0
40,208,22651,1,0
56,72,23147,1,0
160,160,23643,1,2
224,128,23891,1,0
288,160,24139,1,0
160,240,24634,2,0,B|128:328|224:371|320:328|288:240,1,272,2|0
424,264,26122,5,0
456,136,26618,1,0
344,64,27114,2,0,B|272:120|144:24|72:80,1,272
24,136,28353,1,0
56,200,28601,1,2
168,136,29097,1,0
136,200,29345,1,0
96,272,29593,6,0,B|168:328|296:232|368:288,1,272,2|0
256,192,31081,1,0
256,192,31329,1,2
256,192,32816,1,2
256,192,33064,1,4
168,88,33560,6,0,B|192:56|256:16|320:56|344:88,2,204,2|2|0
136,160,35296,1,2
56,288,35791,1,0
120,328,36039,2,0,B|304:368|344:192,1,272,0|8
288,144,37279,1,0
344,89,37527,6,0,B|320:56|256:16|192:56|168:88,2,204,2|2|0
376,160,39263,1,2
456,288,39758,1,0
392,328,40006,2,0,B|208:368|168:192,1,272,0|8
104,176,41246,1,0
176,136,41494,6,0,B|184:64|272:0|352:32,2,204,2|2|0
176,208,43230,1,2
296,120,43725,1,0
368,104,43973,2,0,B|416:224|296:312|208:264,1,272
152,272,45213,1,0
112,208,45461,5,2
240,24,46205,1,2
368,104,46701,1,2
240,176,47196,1,2
435,56,47940,5,0
475,121,48188,1,0
488,192,48436,1,2
475,264,48684,1,0
435,329,48932,1,0
256,296,49428,6,0,B|209:285|184:233|210:182|256:166|256:166|301:149|333:96|301:47|256:30,1,353.599993677139,4|0
96,32,50914,1,8
176,32,51164,1,2
228,98,51411,2,0,B|127:143|111:223|124:346|247:367,1,353.599993677139
296,312,52651,1,2
296,232,52899,1,8
296,152,53147,1,2
359,96,53395,6,0,B|460:141|476:221|463:344|340:365,1,353.599993677139
256,232,54882,1,8
207,155,55130,1,2
256,80,55378,1,0
376,192,55874,1,8
256,304,56370,1,0
136,192,56866,1,8
58,326,57362,6,0,B|69:279|121:254|172:280|188:326|188:326|205:371|258:403|307:371|324:326,1,353.599993677139,4|0
248,192,58850,1,8
168,192,59098,1,2
88,192,59345,2,0,B|56:72|208:-40|352:40,1,353.599993677139
400,0,60585,1,2
464,40,60833,1,8
464,120,61081,1,2
400,176,61329,6,0,B|432:296|280:408|136:328,1,353.599993677139
16,272,62817,1,8
96,264,63065,1,2
136,192,63312,1,2
256,304,63808,1,8
376,192,64304,1,2
256,80,64800,1,8
160,176,65296,5,4
352,176,66039,1,4
256,192,66783,12,0,69263
144,192,77196,5,0
288,80,77692,2,0,B|344:104|384:192|344:280|288:304,1,272
264,232,78932,1,0
192,256,79180,2,0,B|152:192|192:128,2,136,0|0|2
208,328,80420,1,2
272,368,80667,1,0
344,352,80915,1,0
416,360,81163,6,0,B|488:296|456:208,2,136,2|0|2
352,224,82651,1,0
280,184,82899,1,0
208,144,83147,1,2
79,223,83643,1,0
79,71,84139,1,0
376,128,85130,6,0,B|336:0|192:56,1,204,4|2
96,136,86370,1,2
56,280,86866,1,2
192,352,87361,1,0
264,352,87609,2,0,B|256:176|432:136,1,272,0|8
464,184,88849,1,0
400,232,89097,6,0,B|320:224|272:128|360:64,1,204,4|2
472,104,90337,1,2
472,256,90833,1,2
360,336,91328,1,0
288,312,91577,2,0,B|320:128|136:96,1,272,0|8
128,32,92816,1,0
208,32,93064,6,0,B|280:80|256:176|160:192,1,204,4|2
48,256,94304,1,2
136,376,94800,1,2
240,272,95295,1,0
288,328,95543,2,0,B|480:312|448:128,1,272,0|8
376,152,96783,1,0
359,224,97031,6,0,B|256:272|160:246,1,204,4|2
56,136,98271,1,2
168,40,98767,2,0,B|263:14|367:62,1,204,2|0
408,128,99758,1,0
384,200,100006,1,8
416,272,100254,1,0
384,344,100502,1,4
256,296,100998,6,0,B|303:285|328:233|302:182|256:166|256:166|211:149|179:96|211:47|256:30,1,353.599993677139,4|0
416,32,102486,1,8
336,32,102734,1,2
284,98,102981,2,0,B|385:143|401:223|388:346|265:367,1,353.599993677139
216,312,104221,1,2
216,232,104469,1,8
216,152,104717,1,2
153,96,104965,6,0,B|52:141|36:221|49:344|172:365,1,353.599993677139
256,232,106452,1,8
304,154,106700,1,2
256,80,106948,1,0
136,192,107444,1,8
256,304,107940,1,0
376,192,108436,1,8
454,326,108932,6,0,B|443:279|391:254|340:280|324:326|324:326|307:371|254:403|205:371|188:326,1,353.599993677139,4|0
264,192,110420,1,8
344,192,110668,1,2
424,192,110915,2,0,B|440:96|360:48|320:32,2,176.79999683857,0|8|0
456,264,112155,1,2
472,344,112403,1,8
392,360,112651,1,2
312,352,112899,6,0,B|196:418|44:306|76:186,1,353.599993677139,4|0
104,32,114387,1,8
184,40,114635,1,2
256,80,114882,1,0
376,192,115378,1,8
256,304,115874,1,0
136,192,116370,1,8
104,40,116866,6,0,B|23:104|2:191|23:280|103:344,1,353.599993677139,4|0
256,304,118352,1,8
328,344,118602,1,2
408,344,118849,2,0,B|488:280|509:191|488:104|408:40,1,353.599993677139
336,72,120089,1,2
256,48,120337,1,8
176,72,120585,1,2
172,154,120833,6,0,B|130:269|255:325|381:269|339:154,1,353.599993677139
256,192,122072,1,2
256,112,122320,1,8
200,56,122568,1,2
128,24,122816,6,0,B|32:72,1,88.3999984192849,2|8
40,144,123312,2,0,B|40:240,1,88.3999984192849,2|0
120,224,123808,2,0,B|168:304,1,88.3999984192849,8|2
232,256,124304,2,0,B|352:296,1,88.3999984192849,8|2
277,345,124800,6,0,B|314:369|372:366|397:309|384:263|384:263|370:216|396:165|452:155|489:186,1,353.599993677139,4|0
448,32,126288,1,8
384,80,126536,1,2
296,64,126783,2,0,B|200:0|104:88,2,176.79999683857,0|8|0
248,128,128023,1,2
320,160,128271,1,8
400,152,128519,1,2
368,232,128767,6,0,B|304:313|217:334|128:313|64:233,1,353.599993677139,4|0
64,72,130255,1,8
136,40,130503,1,2
216,56,130750,1,0
368,104,131246,1,8
216,136,131742,1,0
368,184,132238,1,8
386,299,140172,6,0,B|408:222|351:176,1,136,8|4
272,175,140915,1,0
272,95,141163,2,0,B|227:39|150:61,1,136,8|2
84,139,142155,2,0,B|8:155|15:239,1,136,8|0
88,216,142898,1,2
154,180,143147,2,0,B|181:253|105:291,1,136,10|2
220,366,144139,5,8
292,366,144386,1,2
256,224,144882,1,2
192,176,145130,2,0,B|159:87|255:44|352:87|320:176,1,272,8|8
384,312,146618,6,0,B|384:224,1,68,2|8
312,240,147114,2,0,B|312:152,1,68,8|8
236,172,147610,2,0,B|236:100,1,68,2|8
161,104,148105,2,0,B|161:24,1,68,0|8
88,24,148601,6,0,B|8:72|8:208|96:256,1,272,4|0
256,192,150089,1,8
256,192,150337,2,0,B|336:192|352:96,1,136,2|0
368,40,151081,1,8
256,112,151577,2,0,B|176:112|160:208,1,136,0|8
120,256,152320,1,0
176,304,152568,5,2
328,304,153064,1,8
256,168,153559,1,0
256,16,154056,1,8
176,96,154552,2,0,B|176:168|176:168|176:248|256:296|336:248|336:168|336:168|336:96,1,408,8|4
407,216,156535,6,0,B|384:312|256:392|128:312|104:216,1,408,4|8
256,200,158519,1,0
376,112,159015,1,8
416,176,159263,1,0
448,248,159510,2,0,B|464:328|376:376,1,136,0|8
256,312,160502,6,0,B|256:96,1,204
136,112,161742,1,0
96,176,161990,1,8
64,248,162237,2,0,B|48:328|136:376,1,136
192,368,162982,1,8
256,232,163477,1,0
320,368,163973,1,8
392,344,164221,1,8
440,288,164469,6,0,B|485:241|485:144|440:96,1,204,4|0
304,32,165709,1,0
232,168,166205,2,0,B|320:192|368:104,2,136
168,120,167444,1,0
96,104,167692,1,0
24,136,167940,1,8
24,288,168436,6,0,B|72:344|184:336|208:240,1,204,4|0
288,144,169676,1,0
344,92,169924,1,8
400,144,170172,1,0
344,196,170420,1,0
272,328,170915,1,8
168,216,171411,1,8
56,104,171907,1,8
256,192,172403,12,0,174882
176,48,176370,5,2
336,48,176866,1,0
317,121,177114,2,0,B|257:177|190:119,2,136,2|2|2
64,160,179345,1,2
40,312,179841,1,2
176,336,180337,5,2
336,336,180833,1,0
317,263,181081,2,0,B|257:207|190:265,2,136,2|2|2
392,264,182319,1,0
456,128,182816,1,0
320,64,183312,1,0
256,200,183808,1,0
112,160,184304,6,0,B|32:168|8:272,2,136,0|2|0
72,304,185791,1,2
128,240,186039,1,0
112,160,186287,2,0,B|192:152|216:48,2,136,0|2|0
128,240,187527,1,2
192,280,187775,1,8
256,240,188022,1,2
256,168,188271,5,0
336,40,188767,1,0
184,40,189263,1,0
256,192,189758,12,8,191742
176,152,192238,6,0,B|256:84|336:152,1,176.79999683857,4|8
336,232,192982,2,0,B|256:299|176:231,1,176.79999683857,2|2
104,200,193725,1,8
56,352,194221,2,0,B|-16:288|24:184,2,176.79999683857,0|8|0
168,240,195709,1,8
304,160,196205,6,0,B|236:240|304:320,1,176.79999683857,4|8
384,320,196949,2,0,B|451:240|383:160,1,176.79999683857,2|2
344,88,197692,1,8
256,264,198188,1,4
432,176,198684,1,12
432,368,199180,1,4
256,264,199676,1,12
56,288,200172,6,0,B|67:241|119:216|170:242|186:288|186:288|203:333|256:365|305:333|322:288,1,353.599993677139,4|0
256,152,201660,1,8
176,152,201908,1,2
96,152,202155,2,0,B|96:72|176:40|240:88,2,176.79999683857,4|8|0
136,224,203395,1,2
200,272,203643,1,8
280,272,203891,1,2
280,352,204139,6,0,B|344:352|400:272|344:192|280:192|280:192|280:64,1,353.599993677139,4|0
168,192,205627,1,8
112,136,205875,1,2
56,192,206122,1,0
72,352,206618,2,0,B|176:312,1,88.3999984192849,8|2
232,336,207114,2,0,B|344:288,1,88.3999984192849,0|2
392,312,207610,2,0,B|496:264,1,88.3999984192849,8|8
408,224,208105,6,0,B|472:136|400:48,1,176.79999683857,4|8
336,32,208849,2,0,B|248:-32|160:40,1,176.79999683857,2|2
248,184,209841,1,2
248,344,210337,1,0
224,264,210585,2,0,B|136:328|32:248,2,176.79999683857,8|0|8
272,112,212072,6,0,B|360:48|464:128,1,176.79999683857,4|8
480,176,212816,2,0,B|544:264|464:368,1,176.79999683857,2|2
344,264,213808,1,2
192,232,214304,1,0
128,184,214552,2,0,B|64:272|144:376,2,176.79999683857,8|0|8
200,152,215791,1,0
264,104,216039,6,0,B|440:88,1,176.79999683857,4|8
472,160,216783,2,0,B|295:176,1,176.79999683857,2|2
256,328,217775,1,2
144,216,218271,1,0
144,136,218519,2,0,B|144:16|280:0,2,176.79999683857,8|0|8
304,136,220006,6,0,B|304:256|168:272,1,176.79999683857,4|0
152,208,220750,1,2
256,88,221246,1,2
360,208,221742,1,2
256,192,221990,12,0,227940
