osu file format v9

[General]
AudioFilename: 101-taylor_swift-mine.mp3
AudioLeadIn: 0
PreviewTime: 49554
Countdown: 1
SampleSet: Soft
StackLeniency: 0.7
Mode: 0
LetterboxInBreaks: 1

[Editor]
Bookmarks: 17689,33557,49424,69260,77193,85127,87483,100995,116863,132731,140664,156532,176367,192235,208102
DistanceSpacing: 1
BeatDivisor: 4
GridSize: 8

[Metadata]
Title:Mine
Artist:Taylor Swift
Creator:Lybydose
Version:Hard
Source:
Tags:country yeahyeahyeahhh yyy Speak Now

[Difficulty]
HPDrainRate:8
CircleSize:4
OverallDifficulty:7
ApproachRate:7
SliderMultiplier:1.84
SliderTickRate:2

[Events]
//Background and Video events
Video,0,"Taylor Swift - Mine.avi"
0,0,"BG.png"
//Break Periods
2,69463,76296
2,132933,138776
//Storyboard Layer 0 (Background)
//Storyboard Layer 1 (Fail)
//Storyboard Layer 2 (Pass)
//Storyboard Layer 3 (Foreground)
Sprite,Foreground,Centre,"yyy.png",320,240 M,0,17694,,481,452 F,0,17694,17942,0,1 F,0,17942,33066,1 F,0,33066,33562,1,0
Sprite,Foreground,Centre,"lybydose.png",320,240 M,0,33562,,534,453 F,0,33562,47942,1 F,0,47942,49430,1,0
Sprite,Foreground,Centre,"yyy.png",320,240 M,0,49430,69265,478,455 F,0,69265,69636,1,0
Sprite,Foreground,Centre,"lybydose.png",320,240 F,0,76950,77198,0,1 M,0,76950,85132,543,453 F,0,77198,83149,1 F,0,83149,85132,1,0
Sprite,Foreground,Centre,"yyy.png",320,240 M,0,85132,101000,478,454 F,0,100008,101000,1,0
Sprite,Foreground,Centre,"lybydose.png",320,240 M,0,101000,116868,548,452 F,0,116620,116868,1,0
Sprite,Foreground,Centre,"yyy.png",320,240 M,0,116868,132736,480,454 F,0,116868,132736,1 F,0,132736,133107,1,0
Sprite,Foreground,Centre,"lybydose.png",320,240 F,0,140669,156041,1 M,0,140669,156537,547,454 F,0,156041,156537,1,0
Sprite,Foreground,Centre,"yyy.png",320,240 M,0,156537,172405,476,454 F,0,172405,174884,1,0
Sprite,Foreground,Centre,"lybydose.png",320,240 F,0,175628,176372,0,1 F,0,176372,191744,1 M,0,176372,192240,543,456 F,0,191744,192240,1,0
Sprite,Foreground,Centre,"yyy.png",320,240 M,0,192240,207860,479,454 F,0,192240,207860,1 F,0,207860,208107,1,0
Sprite,Foreground,Centre,"lybydose.png",320,240 M,0,208107,221992,544,454
//Storyboard Sound Samples
//Background Colour Transformations
3,100,163,162,255

[TimingPoints]
1825,495.867768595041,4,2,1,71,1,0
18064,-100,4,1,1,51,0,0
18312,-100,4,2,1,71,0,0
19056,-100,4,1,1,50,0,0
19304,-100,4,2,1,70,0,0
20048,-100,4,1,1,50,0,0
20296,-100,4,2,1,70,0,0
21039,-100,4,1,1,51,0,0
21287,-100,4,2,1,70,0,0
22031,-100,4,1,1,51,0,0
22279,-100,4,2,1,70,0,0
23023,-100,4,1,1,50,0,0
23271,-100,4,2,1,71,0,0
24015,-100,4,1,1,51,0,0
24263,-100,4,2,1,70,0,0
25006,-100,4,1,1,51,0,0
25254,-100,4,2,1,71,0,0
25998,-100,4,1,1,50,0,0
26246,-100,4,2,1,71,0,0
26990,-100,4,1,1,49,0,0
27238,-100,4,2,1,70,0,0
27982,-100,4,1,1,50,0,0
28229,-100,4,2,1,71,0,0
28973,-100,4,1,1,51,0,0
29221,-100,4,2,1,70,0,0
29965,-100,4,1,1,51,0,0
30213,-100,4,2,1,70,0,0
30957,-100,4,1,1,50,0,0
31205,-100,4,2,1,70,0,0
32568,-100,4,2,1,40,0,0
33436,-100,4,2,1,80,0,0
36907,-100,4,1,1,61,0,0
37155,-100,4,2,1,80,0,0
40874,-100,4,1,1,61,0,0
41122,-100,4,2,1,81,0,0
44841,-100,4,1,1,60,0,0
45089,-100,4,2,1,81,0,0
46824,-100,4,1,1,60,0,0
47072,-100,4,2,1,80,0,0
49304,-76.9230769230769,4,2,1,80,0,0
49428,-76.9230769230769,4,1,1,80,0,1
65296,-100,4,2,1,80,0,0
65420,-100,4,1,1,80,0,0
65915,-100,4,2,1,80,0,0
66163,-100,4,1,1,80,0,0
66659,-100,4,2,1,80,0,0
66907,-100,4,1,1,80,0,0
69139,-100,4,2,1,79,0,0
77568,-100,4,1,1,61,0,0
77816,-100,4,2,1,79,0,0
78560,-100,4,1,1,61,0,0
78808,-100,4,2,1,79,0,0
79552,-100,4,1,1,61,0,0
79800,-100,4,2,1,79,0,0
80544,-100,4,1,1,60,0,0
80791,-100,4,2,1,80,0,0
81535,-100,4,1,1,60,0,0
81783,-100,4,2,1,80,0,0
82527,-100,4,1,1,60,0,0
82775,-100,4,2,1,80,0,0
85006,-100,4,2,1,100,0,0
85254,-100,4,1,1,79,0,0
88973,-100,4,2,1,100,0,0
89221,-100,4,1,1,79,0,0
92940,-100,4,2,1,100,0,0
93188,-100,4,1,1,80,0,0
96907,-100,4,2,1,100,0,0
97155,-100,4,1,1,79,0,0
97651,-100,4,2,1,100,0,0
97899,-100,4,1,1,79,0,0
100502,-100,4,2,1,100,0,0
100626,-100,4,1,1,70,0,0
100874,-76.9230769230769,4,2,1,100,0,0
100998,-76.9230769230769,4,1,1,81,0,1
116742,-76.9230769230769,4,1,1,80,0,0
116866,-76.9230769230769,4,1,1,80,0,1
132734,-100,4,1,1,80,0,0
172279,-200,4,2,2,80,0,0
172527,-200,4,1,2,80,0,0
174882,-100,4,2,1,0,0,0
175502,-133.333333333333,4,2,1,40,0,0
182196,-133.333333333333,4,1,1,31,0,0
184180,-100,4,2,1,80,0,0
187651,-100,4,1,1,60,0,0
187899,-100,4,2,1,79,0,0
188147,-100,4,1,1,49,0,0
188395,-100,4,2,1,80,0,0
188643,-100,4,1,1,51,0,0
188891,-100,4,2,1,79,0,0
189139,-100,4,1,1,50,0,0
189386,-100,4,2,1,80,0,0
189634,-100,4,1,1,51,0,0
190130,-100,4,1,1,59,0,0
190626,-100,4,1,1,71,0,0
191122,-100,4,1,1,80,0,0
192114,-76.9230769230769,4,1,1,80,0,0
192238,-76.9230769230769,4,1,1,90,0,1
207982,-76.9230769230769,4,1,1,90,0,0
208105,-76.9230769230769,4,1,1,90,0,1
221990,-76.9230769230769,4,2,1,0,0,0

[Colours]
Combo1 : 249,227,81
Combo2 : 255,136,196
Combo3 : 152,222,73
Combo4 : 96,215,227

[HitObjects]
248,296,17940,1,0
336,312,18188,2,0,B|456:312,1,92
488,232,18684,2,0,B|384:232,1,92,2|0
295,214,19180,1,0
295,214,19428,1,0
295,214,19676,2,0,B|246:180|193:199|155:237|167:311,2,184,2|0|2
248,296,20915,1,2
180,358,21163,2,0,B|140:366|102:347|92:294,1,92
88,224,21659,5,2
88,224,21907,1,0
136,144,22155,2,0,B|248:144,1,92
280,64,22651,2,0,B|320:96|332:144|320:192|280:224,2,184,0|0|2
228,144,23891,1,2
184,224,24139,2,0,B|188:274|221:311|267:328|316:312,1,184
316,312,24882,1,2
408,296,25130,2,0,B|504:296,2,92,0|0|2
359,221,25874,5,0
271,221,26122,1,0
271,221,26370,1,0
223,301,26618,2,0,B|31:301,1,184,2|0
3,221,27362,2,0,B|195:221,1,184
271,221,28105,6,0,B|287:205|291:181|287:149|267:133,1,92
176,136,28601,2,0,B|159:123|155:91|159:67|175:51,1,92,2|0
263,29,29097,1,0
263,29,29345,1,0
335,85,29593,6,0,B|439:85,2,92,2|0|0
264,152,30337,1,0
208,224,30585,2,0,B|104:224,2,92,2|0|0
264,296,31329,1,2
264,296,32816,1,2
264,296,33064,1,4
440,248,33560,5,2
320,104,34056,1,0
416,104,34304,2,0,B|424:184|352:232|272:200,2,184,2|2|2
232,104,35791,1,0
136,104,36039,2,0,B|128:184|200:232|280:200,1,184
216,376,37031,1,8
136,336,37279,1,0
80,264,37527,5,2
352,264,38023,1,0
296,192,38271,2,0,B|264:152|216:140|168:152|136:192,2,184,2|2|2
216,360,39757,1,0
216,264,40006,2,0,B|216:72,1,184
312,80,40750,1,0
392,120,40998,1,8
424,208,41246,1,0
384,296,41494,5,2
112,296,41990,1,0
157,217,42238,2,0,B|341:217,2,184,2|2|2
336,144,43725,1,0
256,96,43973,1,2
176,144,44221,1,0
256,184,44469,2,0,B|256:376,1,184,2|8
336,328,45213,1,0
384,248,45461,6,0,B|344:136|440:80,1,184,2|0
472,176,46205,2,0,B|512:288|416:344,1,184,2|2
336,328,46948,1,8
256,288,47196,1,4
88,88,47940,5,0
168,40,48188,1,0
256,24,48436,1,2
344,40,48684,1,0
424,88,48932,1,0
256,344,49428,5,4
352,296,49676,1,0
456,328,49924,2,0,B|488:272|456:192,1,119.599997861385,8|0
384,136,50420,1,0
384,136,50667,1,2
285,175,50915,2,0,B|221:207|161:171,1,119.599997861385,8|2
224,80,51411,1,0
224,80,51659,1,0
120,48,51907,2,0,B|48:64|16:136|24:208|104:248,1,239.199995722771,8|0
192,240,52651,2,0,B|328:240,2,119.599997861385,2|8|2
192,240,53395,1,0
120,320,53643,6,0,B|248:320,1,119.599997861385,0|8
352,320,54139,2,0,B|384:304|408:280|408:248|392:184,1,119.599997861385,0|0
312,160,54634,1,2
336,56,54882,1,8
440,24,55130,1,2
488,120,55378,5,0
256,24,55874,1,8
24,120,56370,1,0
256,216,56866,1,8
344,352,57362,5,4
240,328,57610,1,0
136,352,57858,2,0,B|56:368|32:288,1,119.599997861385,8|0
56,200,58353,1,0
56,200,58601,1,2
152,144,58849,2,0,B|184:200|152:264,2,119.599997861385,8|2|0
64,80,59593,1,0
168,48,59841,2,0,B|280:-8|408:56,1,239.199995722771
496,104,60585,1,2
432,192,60833,2,0,B|280:192,1,119.599997861385,8|2
312,192,61329,5,0
248,104,61577,2,0,B|192:144|208:216,1,119.599997861385,2|8
232,312,62072,1,2
136,264,62320,2,0,B|92:129|205:30,1,239.199995722771,0|8
309,44,63064,1,2
309,44,63312,5,0
440,288,63808,1,10
488,192,64056,1,2
440,96,64304,1,0
440,96,64800,1,8
312,200,65296,6,0,B|200:200|200:64,1,184,4|0
292,81,66039,2,0,B|292:198|183:198,1,184,4|0
128,128,66783,2,0,B|16:128|16:264,1,184,4|0
104,224,67527,5,0
104,224,67775,1,8
40,328,68147,1,8
40,328,68271,1,8
120,328,68519,1,0
200,328,68767,1,8
232,328,68891,1,8
264,328,69015,1,8
344,328,69263,1,4
88,48,77196,5,0
168,80,77444,1,0
155,160,77692,2,0,B|219:192|185:269,1,92,0|0
104,234,78188,2,0,B|98:280|137:327|185:344|244:319,2,184,0|0|0
196,234,79428,1,2
288,234,79676,2,0,B|294:188|260:139|200:122|148:149,1,184,0|0
80,104,80420,1,2
160,56,80667,1,2
248,64,80915,1,2
296,144,81163,6,0,B|341:147|368:194,1,92,0|0
328,280,81659,1,0
328,280,81907,1,0
242,322,82155,2,0,B|194:299|186:253,1,92,2|0
264,224,82651,1,0
184,176,82899,1,0
104,224,83147,5,2
104,128,83643,1,0
104,32,84139,1,2
104,32,85130,6,0,B|160:120|88:240,1,184,4|8
40,144,85874,2,0,B|125:89|213:144,1,184,2|2
296,200,86618,2,0,B|336:232|408:208,1,92,8|2
472,176,87114,1,0
456,88,87362,6,0,B|416:40|340:44,1,92,0|8
280,36,87858,2,0,B|224:28|176:76,1,92
112,120,88353,2,0,B|112:216,2,92,0|8|0
32,312,89097,6,0,B|120:272|216:312,1,184,4|8
304,336,89841,2,0,B|394:373|482:333,1,184,2|2
435,256,90585,2,0,B|387:280|340:254,1,92,8|2
264,224,91081,1,0
184,184,91329,2,0,B|136:208|144:264,2,92,0|8|0
264,224,92072,2,0,B|312:200|304:144,2,92,0|0|8
184,184,92816,1,0
232,80,93064,6,0,B|320:40|416:80,1,184,4|8
480,144,93808,2,0,B|398:188|302:148,1,184,2|2
232,80,94552,1,8
136,88,94800,1,2
88,168,95048,1,0
112,256,95296,6,0,B|112:352,2,92,0|8|0
200,216,96039,2,0,B|200:320,1,92
288,344,96535,2,0,B|288:248,1,92,8|0
324,149,97031,6,0,B|416:96|495:159,1,184,4|8
400,216,97775,2,0,B|308:269|228:205,1,184,4|2
228,205,98519,1,8
160,144,98767,2,0,B|120:112|56:136,1,92,2|0
24,208,99263,5,8
120,224,99510,1,0
160,144,99758,1,0
200,64,100006,1,8
200,64,100130,1,8
200,64,100254,1,8
200,64,100378,1,8
200,64,100502,1,4
296,128,100750,1,2
456,240,100998,6,0,B|443:301|397:352|330:361|272:337,1,239.199995722771,4|8
152,312,101742,1,0
88,224,101990,2,0,B|48:160|96:88,1,119.599997861385,0|2
192,0,102486,2,0,B|232:64|184:136,1,119.599997861385,8|2
184,224,102982,2,0,B|194:285|237:337|305:349|363:328,2,239.199995722771,0|8|0
280,176,104221,1,2
312,72,104469,1,8
280,176,104717,1,2
208,96,104965,6,0,B|56:64|32:224,1,239.199995722771,0|8
152,232,105709,1,0
88,336,105957,2,0,B|126:389|193:372,1,119.599997861385,0|2
313,372,106453,2,0,B|380:389|418:335,1,119.599997861385,8|2
480,192,106948,5,0
256,32,107444,1,8
32,192,107940,1,0
256,352,108436,1,8
96,104,108932,6,0,B|50:236|178:339,1,239.199995722771,4|8
256,352,109676,1,0
256,240,109924,1,0
256,128,110172,1,2
176,184,110420,1,8
336,184,110667,1,2
416,104,110915,2,0,B|461:236|333:339,2,239.199995722771,0|8|0
328,40,112155,1,2
224,64,112403,2,0,B|88:64,1,119.599997861385,8|2
56,160,112899,6,0,B|95:207|158:231|223:207|263:160,1,239.199995722771,4|8
162,119,113643,1,2
162,119,113891,2,0,B|162:367,1,239.199995722771,0|8
56,304,114634,1,2
32,192,114882,5,0
256,32,115378,1,8
480,192,115874,1,0
256,352,116370,1,8
192,264,116618,5,8
192,264,116742,1,8
192,264,116866,2,0,B|160:200|80:208,1,119.599997861385,4|0
88,315,117362,1,8
5,241,117610,1,0
48,136,117858,2,0,B|200:136,1,119.599997861385,0|2
280,136,118353,1,8
280,136,118601,1,2
320,240,118849,2,0,B|368:200|393:135|371:72|323:32,2,239.199995722771,0|8|0
208,240,120089,1,2
264,336,120337,1,8
376,336,120585,1,2
451,250,120833,6,0,B|448:184|416:120|328:112|272:136,1,239.199995722771,0|8
192,192,121577,1,0
128,280,121824,2,0,B|8:280,2,119.599997861385,0|2|8
192,192,122568,1,2
256,320,122816,5,2
336,240,123064,1,8
440,296,123312,1,2
496,192,123560,1,0
440,88,123808,1,8
336,144,124056,1,2
256,64,124304,1,8
240,192,124552,1,2
96,96,124800,6,0,B|50:228|178:331,2,239.199995722771,4|8|0
200,120,126039,1,2
296,72,126288,1,8
296,72,126535,1,2
320,176,126783,2,0,B|464:232|512:64,2,239.199995722771,0|8|0
320,176,128023,1,2
296,72,128271,1,8
296,72,128519,1,2
400,88,128767,6,0,B|447:127|471:190|447:255|400:295,1,239.199995722771,0|8
328,216,129511,1,2
304,312,129758,2,0,B|242:299|191:253|182:186|206:128,1,239.199995722771,0|8
104,120,130502,1,2
32,192,130750,5,0
256,32,131246,1,8
480,192,131742,1,0
256,352,132238,2,0,B|256:224,2,119.599997861385,8|2|4
128,280,139676,5,8
80,192,139924,1,0
144,128,140172,1,8
144,128,140296,1,8
144,128,140420,1,8
224,80,140667,6,0,B|328:80,1,92,4|0
384,144,141163,2,0,B|416:256|296:328,2,184,8|0|8
328,72,142403,1,0
288,152,142651,1,0
200,176,142899,1,0
152,96,143147,2,0,B|40:80|1:191,2,184,8|0|8
232,48,144386,5,0
320,80,144634,2,0,B|352:128|320:176,1,92,2|0
240,256,145130,2,0,B|208:208|240:164,1,92,8|0
320,256,145626,2,0,B|344:344|256:392|200:360,1,184,2|8
143,304,146370,5,0
108,200,146618,1,2
143,96,146866,1,8
247,62,147114,1,8
351,96,147362,1,8
394,200,147610,1,2
351,304,147858,1,8
247,339,148105,1,8
143,304,148353,1,10
108,201,148601,6,0,B|324:201,2,184,4|8|0
24,184,149841,1,0
24,184,150089,1,8
80,112,150337,2,0,B|272:112,1,184
264,19,151081,1,8
344,64,151329,1,0
344,160,151577,1,0
263,216,151824,2,0,B|263:328,2,92,0|8|0
170,203,152568,6,0,B|58:179|82:43,1,184,2|8
168,112,153312,1,0
208,32,153560,1,0
256,112,153808,1,2
304,32,154056,1,10
344,112,154304,1,0
344,112,154428,1,8
344,112,154552,1,8
415,192,154800,5,8
393,216,154924,1,8
366,234,155048,1,8
337,248,155172,1,8
304,251,155296,1,8
208,251,155544,5,8
175,248,155668,1,8
146,234,155792,1,8
119,216,155916,1,8
97,192,156040,1,8
40,120,156287,1,0
101,31,156535,6,0,B|108:147|212:152,1,184,4|8
304,152,157279,2,0,B|407:146|414:30,1,184
504,56,158023,1,8
504,56,158271,2,0,B|496:232|312:256,1,276,0|8
256,280,159263,1,0
256,192,159510,2,0,B|256:96,2,92,0|0|8
256,280,160254,1,0
176,240,160502,6,0,B|-8:240,1,184,0|8
32,160,161246,2,0,B|216:160,1,184
216,160,161990,1,8
296,112,162238,2,0,B|336:136|360:192|336:240|296:272,1,184
208,240,162982,6,0,B|192:288|240:328,1,92,8|0
320,352,163477,2,0,B|368:360|400:304,1,92,8|0
432,224,163973,1,8
408,136,164221,1,8
296,192,164469,6,0,B|216:264|128:192,1,184,4|8
213,126,165213,2,0,B|128:56|48:128,1,184
130,193,165957,1,8
213,257,166205,2,0,B|128:328|48:257,2,184
256,168,167444,2,0,B|256:72,2,92,0|0|8
298,258,168188,5,8
298,258,168312,1,8
298,258,168436,2,0,B|384:316|496:244,1,184,4|0
384,376,169180,2,0,B|384:184,1,184
384,192,169924,1,8
464,120,170172,2,0,B|376:48|280:128,1,184
256,192,170915,2,0,B|62:192,1,184,8|8
72,192,171659,1,2
56,96,171907,1,8
56,96,172403,6,0,B|128:0|256:-32|384:0|456:96,1,460,0|0
432,320,175626,5,2
432,320,175874,1,2
280,344,176370,6,0,B|280:184,1,137.99999588728,2|0
352,232,177114,2,0,B|408:168|360:104,2,137.99999588728,2|2|2
200,232,178601,1,0
232,160,178849,1,0
200,88,179097,1,0
159,163,179345,2,0,B|88:200|23:163,1,137.99999588728,2|2
26,88,180089,1,0
26,88,180337,6,0,B|26:256,1,137.99999588728,2|0
26,302,181081,2,0,B|72:384|160:352,2,137.99999588728,2|2|2
96,264,182320,1,0
248,264,182816,1,0
400,264,183312,1,0
304,144,183808,1,0
248,192,184056,1,0
192,144,184304,6,0,B|88:144,2,92,0|0|2
248,63,185048,1,0
248,63,185296,2,0,B|336:16|426:53,1,184,0|2
472,152,186039,1,0
424,240,186287,2,0,B|333:277|245:229,2,184,0|2|0
376,152,187527,1,2
280,152,187775,1,8
280,152,188023,1,2
192,112,188271,6,0,B|132:119|131:168,1,92,0|0
131,260,188767,2,0,B|131:309|195:317,1,92
284,316,189263,2,0,B|343:308|344:259,1,92,0|0
401,160,189758,5,8
361,77,190006,1,8
265,44,190254,1,8
159,78,190502,1,8
103,183,190750,1,8
154,300,190998,1,8
286,339,191246,1,8
418,273,191494,1,8
443,118,191742,1,8
40,32,192238,6,0,B|184:40|176:200,1,239.199995722771,4|8
64,192,192982,2,0,B|56:343|198:351,1,239.199995722771,2|2
288,296,193725,1,8
288,296,193973,1,2
256,192,194221,6,0,B|496:192,2,239.199995722771,0|8|0
184,272,195461,1,2
112,192,195709,1,8
112,192,195957,1,2
208,144,196205,6,0,B|176:80|112:68|48:80|16:144,1,239.199995722771,4|8
16,240,196948,2,0,B|48:304|112:316|176:304|208:240,1,239.199995722771,2|2
112,192,197692,1,8
208,144,197940,1,2
256,32,198188,5,4
472,192,198684,1,12
256,352,199180,1,4
40,192,199676,1,12
416,104,200172,6,0,B|462:236|334:339,1,239.199995722771,4|8
256,352,200916,1,0
160,320,201163,2,0,B|40:320,2,119.599997861385,0|2|8
256,272,201907,1,2
296,176,202155,2,0,B|428:131|531:259,2,239.199995722771,6|8|0
256,272,203395,1,2
160,232,203643,2,0,B|24:232,1,119.599997861385,8|2
16,128,204139,6,0,B|264:128,1,239.199995722771,4|8
256,128,204883,1,2
288,32,205130,2,0,B|352:64|364:128|352:192|288:224,1,239.199995722771,0|8
288,223,205874,1,2
183,201,206122,2,0,B|166:270|207:320|264:352|330:324,1,239.199995722771
330,324,206866,1,2
416,264,207114,1,8
328,200,207362,1,2
416,136,207610,1,8
330,60,207858,5,8
330,60,207982,1,8
330,60,208105,2,0,B|59:60,1,239.199995722771,4|8
8,144,208849,2,0,B|280:144,1,239.199995722771,2|2
424,304,209842,1,2
240,192,210337,1,0
136,208,210585,1,8
64,128,210833,1,0
168,104,211081,2,0,B|223:8|376:16,1,239.199995722771,0|8
463,232,212072,6,0,B|408:328|254:320,1,239.199995722771,4|0
255,212,212816,2,0,B|101:204|46:299,1,239.199995722771,2|2
256,368,213808,1,2
424,232,214304,1,0
472,136,214552,1,8
392,64,214800,1,0
392,64,214924,1,8
392,64,215048,1,8
288,104,215296,1,0
184,80,215544,1,8
80,56,215791,1,0
0,192,216039,6,0,B|61:322|198:264,1,239.199995722771,4|8
160,184,216783,2,0,B|191:120|255:108|319:120|351:184,1,239.199995722771,2|2
512,192,217775,2,0,B|450:322|313:264,1,239.199995722771,2|0
299,142,218519,2,0,B|345:87|323:31,1,119.599997861385,8|0
191,31,219015,2,0,B|169:87|215:141,1,119.599997861385
256,256,219510,1,8
144,304,219758,5,8
144,304,219882,1,8
144,304,220006,2,0,B|24:232|72:88,1,239.199995722771,4|0
192,112,220750,1,2
424,64,221246,1,2
368,296,221742,1,2
256,192,221990,12,0,227940
